#VERSION:0.83;
#TITLE:The Dragon;
#SUBTITLE:;
#ARTIST:Darren Styles;
#TITLETRANSLIT:;
#SUBTITLETRANSLIT:;
#ARTISTTRANSLIT:;
#GENRE:;
#ORIGIN:;
#CREDIT:;
#BANNER:The Dragon.png;
#BACKGROUND:The Dragon-bg.png;
#PREVIEWVID:;
#JACKET:The Dragon-jacket.png;
#CDIMAGE:;
#DISCIMAGE:;
#LYRICSPATH:;
#CDTITLE:cdtitle.png;
#MUSIC:The Dragon.ogg;
#OFFSET:-0.000000;
#SAMPLESTART:84.000000;
#SAMPLELENGTH:12.000000;
#SELECTABLE:YES;
#BPMS:0.000=160.000;
#STOPS:;
#DELAYS:;
#WARPS:;
#TIMESIGNATURES:0.000=4=4;
#TICKCOUNTS:0.000=4;
#COMBOS:0.000=1;
#SPEEDS:0.000=1.000=0.000=0;
#SCROLLS:0.000=1.000;
#FAKES:;
#LABELS:0.000=Song Start;
#BGCHANGES:;
#KEYSOUNDS:;
#ATTACKS:
;

//---------------dance-single - ----------------
#NOTEDATA:;
#CHARTNAME:;
#STEPSTYPE:dance-single;
#DESCRIPTION:;
#CHARTSTYLE:;
#DIFFICULTY:Hard;
#METER:75;
#RADARVALUES:0.414643,0.538282,0.114341,0.079159,0.180307,330.000000,317.000000,13.000000,9.000000,0.000000,0.000000,0.000000,0.000000,0.000000,0.414643,0.538282,0.114341,0.079159,0.180307,330.000000,317.000000,13.000000,9.000000,0.000000,0.000000,0.000000,0.000000,0.000000;
#CREDIT:;
#NOTES:
// measure 0
0000
0000
0000
0000
,  // measure 1
0000
0000
0000
0000
,  // measure 2
0000
0000
0000
0000
,  // measure 3
0000
0000
0000
0000
,  // measure 4
0000
0000
0000
0000
,  // measure 5
0000
0000
0000
0000
,  // measure 6
0000
0000
0000
0000
,  // measure 7
0000
0000
0000
0000
,  // measure 8
0001
0100
0001
0100
,  // measure 9
0010
1000
0100
1000
,  // measure 10
0010
0100
0010
0100
,  // measure 11
0010
1000
0001
0011
,  // measure 12
1000
1000
1000
1000
,  // measure 13
0001
0001
0001
0001
,  // measure 14
0100
0010
1000
0001
,  // measure 15
0220
0000
0330
0000
0000
0000
0000
1000
,  // measure 16
0100
1000
0001
0010
,  // measure 17
0001
0000
0100
0000
0010
0000
1000
0100
,  // measure 18
1000
0001
0100
0001
,  // measure 19
1000
0000
0100
0000
0010
0100
2000
0000
,  // measure 20
3010
0100
0001
1000
,  // measure 21
0100
0000
0010
0000
0100
0000
0010
0001
,  // measure 22
1000
0010
0100
0001
,  // measure 23
1000
0000
0000
0001
0000
0000
0010
0000
0100
0000
0000
0000
0010
0000
0010
0000
,  // measure 24
0001
0000
1000
0020
0100
0000
0130
0000
,  // measure 25
0001
1000
0100
0000
0100
1000
0001
0010
,  // measure 26
0001
0000
1000
0002
0010
0000
0013
0000
,  // measure 27
0100
1000
0001
0000
0100
0010
2000
0000
,  // measure 28
3100
0000
0011
0000
0001
0100
0010
0000
,  // measure 29
1000
0000
1010
0000
1000
0001
0100
0000
,  // measure 30
0001
1000
0001
1000
0001
1000
0001
1000
,  // measure 31
0020
0000
0000
0000
,  // measure 32
0130
0001
0000
0001
1000
0000
0000
0100
,  // measure 33
1000
0000
0000
0010
0000
0000
0100
0000
0010
0000
0000
0000
0000
0000
0100
0000
,  // measure 34
0001
0000
0000
0010
0000
0000
0001
0000
1000
0000
0000
0000
0000
0000
0100
0000
,  // measure 35
1000
0000
0000
0010
0000
0000
0100
0000
0001
0000
0000
0000
1000
0000
0000
0000
,  // measure 36
0000
0001
0000
0001
0010
0000
0000
0001
,  // measure 37
0100
0000
0000
0010
0000
0000
1000
0000
0100
0000
0000
0000
0000
0000
0010
0000
,  // measure 38
0100
0000
0000
1000
0000
0000
0001
0000
0100
0000
0000
0000
0000
0000
0010
0000
,  // measure 39
0100
0000
0000
0001
0000
0000
0100
0000
0010
0000
0000
0000
1000
0000
0000
0000
,  // measure 40
0000
0001
0000
0001
1000
0000
0000
1000
,  // measure 41
0010
0000
0000
0010
0000
0000
0100
0000
0001
0000
0000
0000
0000
0000
0001
0000
,  // measure 42
1000
0000
0000
1000
0000
0000
0010
0000
0100
0000
0000
0000
0000
0000
0001
0000
,  // measure 43
0100
0000
0000
0100
0000
0000
0010
0000
1000
0000
0000
0000
0001
0000
0000
0000
,  // measure 44
0000
0010
0000
0001
0100
0000
0000
0010
,  // measure 45
1000
0000
0000
1000
0000
0000
0100
0000
0001
0000
0000
0000
0000
0000
0001
0000
,  // measure 46
0100
0000
0000
0100
0000
0000
0010
0000
0001
0000
0000
0000
0000
0000
0010
0000
,  // measure 47
0100
0000
0000
0100
0000
0000
1000
0000
0010
0000
0000
0000
0100
0000
0000
0000
,  // measure 48
1001
0001
0000
0001
0000
1000
0000
1000
,  // measure 49
0000
0010
0000
0010
0000
0100
0000
0100
,  // measure 50
0000
0001
0000
0001
0000
0100
0000
0100
,  // measure 51
0000
0010
0000
0010
0000
1000
0200
0300
,  // measure 52
1000
0100
0010
0001
1000
0100
0010
0001
,  // measure 53
1000
0010
0100
0001
1000
0010
0100
0001
,  // measure 54
1000
0000
0000
0001
0100
0000
0000
0100
0010
0000
0000
0010
1000
0000
0000
1000
,  // measure 55
0002
0003
0000
0000
,  // measure 56
0000
0000
1100
0000
0000
0000
0001
0000
0100
0000
0000
0000
0000
0000
0010
0100
,  // measure 57
0010
0000
0000
0100
0000
0000
0001
0000
1000
0000
0000
0000
0000
0000
0100
0010
,  // measure 58
0100
0000
0000
0010
0000
0000
0001
0000
1000
0000
0000
0000
0000
0000
0010
0100
,  // measure 59
0010
0000
0000
0100
0000
0000
0001
0000
1000
0000
0000
0000
0110
0000
0000
0000
,  // measure 60
0000
0000
0101
0000
0000
0000
0001
0000
1000
0000
0000
0000
0000
0000
0100
0010
,  // measure 61
0100
0000
0000
0010
0000
0000
0001
0000
1000
0000
0000
0000
0000
0000
0010
0100
,  // measure 62
0010
0000
0000
1000
0000
0000
0001
0000
0010
0000
0000
0000
0000
0000
0100
0010
,  // measure 63
0100
0000
0000
1000
0000
0000
0010
0000
0100
0000
0000
0000
1001
0000
0000
0000
,  // measure 64
0000
0000
0101
0000
0000
0000
0010
0000
1000
0000
0000
0000
0000
0000
0001
0100
,  // measure 65
0010
0000
0000
1000
0000
0000
0010
0000
0100
0000
0000
0000
0000
0000
0010
0100
,  // measure 66
0001
0000
0000
1000
0000
0000
0100
0000
1000
0000
0000
0000
0000
0000
0100
1000
,  // measure 67
0010
0000
0000
0100
0000
0000
0001
0000
1000
0000
0000
0000
0110
0000
0000
0000
,  // measure 68
0000
0000
0011
0000
0000
0000
0001
0000
1000
0000
0000
0000
0000
0000
0001
0100
,  // measure 69
0010
0000
0000
1000
0000
0000
0010
0000
0100
0000
0000
0000
0000
0000
0010
0100
,  // measure 70
0001
0000
0000
0010
0000
0000
0100
0000
0010
0000
0000
0000
0000
0000
0100
1000
,  // measure 71
0001
0000
0000
0100
0000
0000
0010
0000
1000
0000
0000
0000
0001
0000
0000
0000
,  // measure 72
0110
0000
0000
0000
;

//---------------dance-single - ----------------
#NOTEDATA:;
#CHARTNAME:;
#STEPSTYPE:dance-single;
#DESCRIPTION:;
#CHARTSTYLE:;
#DIFFICULTY:Challenge;
#METER:95;
#RADARVALUES:0.638299,0.899116,0.360614,0.360614,0.492546,508.000000,467.000000,41.000000,41.000000,14.000000,0.000000,0.000000,0.000000,0.000000,0.638299,0.899116,0.360614,0.360614,0.492546,508.000000,467.000000,41.000000,41.000000,14.000000,0.000000,0.000000,0.000000,0.000000;
#CREDIT:;
#OFFSET:-0.000000;
#BPMS:0.000000=160.000000
,60.000000=80.000000
,61.000000=160.000000
,217.000000=80.000000
,218.000000=160.000000
;
#STOPS:60.500000=0.750000
,217.500000=0.750000
;
#DELAYS:;
#WARPS:;
#TIMESIGNATURES:0.000000=4=4
;
#TICKCOUNTS:0.000000=4
;
#COMBOS:0.000000=1
;
#SPEEDS:0.000000=1.000000=0.000000=0
;
#SCROLLS:0.000000=1.000000
;
#FAKES:;
#LABELS:0.000000=Song Start
;
#NOTES:
// measure 0
0000
0000
0000
0000
,  // measure 1
0000
0000
0000
0000
,  // measure 2
0000
0000
0000
0000
,  // measure 3
0000
0000
0000
0000
,  // measure 4
0000
0000
0000
0000
,  // measure 5
0000
0000
0000
0000
,  // measure 6
0000
0000
0000
0000
,  // measure 7
0000
0000
0000
0000
,  // measure 8
0001
0000
1000
0100
1000
0000
1001
0000
,  // measure 9
0100
0000
0100
0010
1000
0001
0010
0001
,  // measure 10
1000
0000
0001
0100
0001
0000
1001
0000
,  // measure 11
0001
0000
0010
0001
1000
0010
1002
0000
,  // measure 12
0013
0100
0010
0100
0010
0100
0010
0100
,  // measure 13
0010
0100
0010
0100
0010
0100
0010
0100
,  // measure 14
0010
0100
0010
0100
0010
0100
0010
0100
,  // measure 15
2002
0000
3003
0010
1000
0000
0001
0100
0001
0000
0100
0010
0100
0000
0010
1000
,  // measure 16
0010
0000
1000
0100
1000
0000
0100
0010
0100
0000
0010
0001
0010
0000
0001
1000
,  // measure 17
0001
0000
0200
0000
0310
0000
0100
0001
0100
0000
0001
0010
0001
0000
0010
0100
,  // measure 18
0010
0000
0100
1000
0100
0000
1000
0001
1000
0000
0001
1000
0200
0000
0310
0001
,  // measure 19
2000
0000
0000
0000
3001
0000
1000
0010
1000
0000
0010
0100
0010
0000
0100
0001
,  // measure 20
0100
0000
0001
0010
0001
0000
0010
0100
0010
0000
0100
1000
0100
0000
1000
0001
,  // measure 21
1000
0000
0020
0000
0130
0000
0010
1000
0010
0000
0100
0001
0100
0000
0001
0010
,  // measure 22
0001
0000
0010
0100
1000
0000
0000
0101
0000
0000
0010
0000
0210
0000
0000
0000
,  // measure 23
0301
0000
1000
0000
1001
0000
1000
0001
0100
0010
0200
0000
0010
0000
0300
0000
,  // measure 24
0010
1000
0010
0200
0301
0010
0001
0200
,  // measure 25
0310
0000
2000
0000
3100
0000
0010
0000
0001
0100
0020
0000
0100
0000
0030
0000
,  // measure 26
1000
0000
0000
0000
0001
1000
0010
0000
0100
0000
0000
0000
0010
0000
0100
0001
,  // measure 27
0020
0000
0030
0000
0110
0000
0000
0000
0011
0000
0000
0000
1100
0000
1000
0001
,  // measure 28
0100
0000
0010
1000
0100
0000
0000
0000
0110
0000
0000
0000
0001
0010
0001
0010
,  // measure 29
0001
0000
0000
0000
0000
0000
1000
0000
0000
0000
0000
0000
0001
0000
0000
0100
0000
0000
0001
0000
0000
0100
0000
0000
0001
0000
0000
0100
0000
0000
0001
0000
0000
0100
0000
0000
0001
0000
0100
0000
0001
0000
0100
0000
0000
0001
0000
0000
,  // measure 30
0100
0000
0001
0000
0100
0000
0001
0000
0000
0100
0000
0000
0020
0000
0000
0000
0000
0000
0000
0000
0000
0000
0000
0000
0000
0000
0000
0000
0000
0000
0000
0000
0000
0000
0000
0000
0000
0000
0000
0000
0000
0000
0000
0000
0000
0000
0000
0000
,  // measure 31
0000
0000
0130
0001
0000
0010
0100
0000
,  // measure 32
0000
0000
0010
0001
0010
0000
0000
0002
0000
0000
1000
0000
1003
0000
0000
0000
,  // measure 33
0000
0000
0001
0100
0010
0000
0000
2000
0000
0000
0100
0000
3100
0000
0000
0000
,  // measure 34
0000
0000
0010
0001
0100
0000
0000
0020
0000
0000
1000
0000
1030
0000
0000
0000
,  // measure 35
1001
0000
0000
0001
0000
1000
0100
0000
,  // measure 36
0000
0000
0010
0001
0010
0000
0000
0002
0000
0000
0100
0000
0103
0000
0000
0000
,  // measure 37
0000
0000
0010
0100
0001
0000
0000
2000
0000
0000
0010
0000
3010
0000
0000
0000
,  // measure 38
0000
0000
0100
0010
1000
0000
0000
0002
0000
0000
0010
0000
0013
0000
0000
0000
,  // measure 39
1100
0000
1001
0001
0000
1000
0010
0000
,  // measure 40
0000
0000
0100
0001
0010
0000
0000
1000
0000
0000
0010
0000
0001
0000
0000
0000
,  // measure 41
0000
0000
1000
0001
0100
0000
0000
1000
0000
0000
0100
0000
0001
0000
0000
0000
,  // measure 42
0000
0000
1000
0010
0001
0000
0000
0010
0000
0000
0100
0000
1000
0000
0000
0000
,  // measure 43
1001
0000
0001
0010
0000
0010
0001
0000
,  // measure 44
0000
0000
0100
0001
0010
0000
0000
1000
0000
0000
0010
0000
0100
0000
0000
0000
,  // measure 45
0000
0000
0010
0001
0100
0000
0000
1000
0000
0000
0100
0000
0010
0000
0000
0000
,  // measure 46
0000
0000
0100
0010
1000
0000
0000
0001
0000
0000
0010
0000
0001
0000
0000
0000
,  // measure 47
1000
0000
1001
0001
1000
0001
1000
0001
,  // measure 48
1000
0001
1000
0001
1000
0001
1000
0001
,  // measure 49
1000
0001
1000
0001
1000
0001
1000
0001
,  // measure 50
1000
0001
1000
0001
1000
0001
1000
0001
,  // measure 51
0220
0330
0000
0000
1000
0000
1000
0000
0100
0000
0100
0000
0010
0000
0010
0000
,  // measure 52
0001
0001
1000
1000
0100
0100
0010
0010
,  // measure 53
0001
0000
0000
0000
0000
0000
0001
0000
0000
0000
0000
0000
1000
0000
0001
0000
1000
0000
0001
0000
0000
1000
0000
0000
0001
0000
1000
0000
0001
0000
1000
0000
0000
0001
0000
0000
1000
0000
0001
0000
1000
0000
0001
0000
0000
1000
0000
0000
,  // measure 54
0001
1000
0001
1000
0000
0000
0220
0000
0000
0330
0000
0000
1001
0000
0000
0002
0000
0000
0000
0000
0000
0103
0000
0000
,  // measure 55
101M
0000
0000
0000
0000
0000
1000
0100
0010
0000
0000
0021
0000
0000
0130
0000
,  // measure 56
10M1
0000
0000
0000
0000
0000
0001
0100
0010
0000
0000
1020
0000
0000
0130
0000
,  // measure 57
10M1
0000
0000
0000
0000
0000
0001
0010
0100
0000
0000
2100
0000
0000
3001
0000
,  // measure 58
M011
0000
1010
0000
0001
2000
0000
3001
,  // measure 59
M101
0000
0000
0000
0000
0000
0010
1000
0100
0000
0000
0021
0000
0000
0031
0000
,  // measure 60
01M1
0000
0000
0000
0000
0000
0001
1000
0010
0000
0000
0210
0000
0000
0310
0000
,  // measure 61
1M01
0000
0000
0000
0000
0000
0001
1000
0010
0000
0000
2001
0000
0000
3010
0000
,  // measure 62
M110
0000
0101
0000
0001
0021
0000
0031
,  // measure 63
01M1
0000
0000
0000
0000
0000
0001
1000
0020
0000
0000
0100
0000
0000
1030
0000
,  // measure 64
01M1
0000
0000
0000
0000
0000
0001
0010
0200
0000
0000
1000
0000
0000
0310
0000
,  // measure 65
1M01
0000
0000
0000
0000
0000
0001
0100
0020
0000
0000
1000
0000
0000
0130
0000
,  // measure 66
01M1
0011
0001
1000
,  // measure 67
0001
0000
0000
1000
0001
1000
0001
0000
0000
1000
0000
0000
0001
0000
0000
0000
0000
0000
1000
0000
0000
0000
0000
0000
,  // measure 68
0001
0000
1000
0000
0001
0000
1000
0000
0000
0000
0000
0000
0001
0000
0000
0000
0000
0000
1000
0000
0000
0000
0000
0000
0010
0000
0000
0100
0000
0000
0001
0000
0000
1000
0000
0000
0010
0000
0000
1000
0000
0000
0100
0000
0000
0010
0000
0000
,  // measure 69
0100
1000
0010
0100
0001
0010
0100
1000
0001
0000
0000
0200
0000
0000
2300
0000
,  // measure 70
3200
0302
MM13
0000
;

//---------------dance-single - ----------------
#NOTEDATA:;
#CHARTNAME:;
#STEPSTYPE:dance-single;
#DESCRIPTION:;
#CHARTSTYLE:;
#DIFFICULTY:Easy;
#METER:45;
#RADARVALUES:0.281455,0.379964,0.184705,0.043977,0.000000,224.000000,203.000000,21.000000,5.000000,0.000000,0.000000,0.000000,0.000000,0.000000,0.281455,0.379964,0.184705,0.043977,0.000000,224.000000,203.000000,21.000000,5.000000,0.000000,0.000000,0.000000,0.000000,0.000000;
#CREDIT:;
#OFFSET:-0.000000;
#BPMS:0.000000=160.000000
;
#STOPS:;
#DELAYS:;
#WARPS:;
#TIMESIGNATURES:0.000000=4=4
;
#TICKCOUNTS:0.000000=4
;
#COMBOS:0.000000=1
;
#SPEEDS:0.000000=1.000000=0.000000=0
;
#SCROLLS:0.000000=1.000000
;
#FAKES:;
#LABELS:0.000000=Song Start
;
#NOTES:
// measure 0
0000
0000
0000
0000
,  // measure 1
0000
0000
0000
0000
,  // measure 2
0000
0000
0000
0000
,  // measure 3
0000
0000
0000
0000
,  // measure 4
0000
0000
0000
0000
,  // measure 5
0000
0000
0000
0000
,  // measure 6
0000
0000
0000
0000
,  // measure 7
0000
0000
0000
0000
,  // measure 8
1000
0000
1000
0000
,  // measure 9
1000
1000
1000
0000
,  // measure 10
0001
0000
0001
0000
,  // measure 11
0001
0001
0001
0000
,  // measure 12
0100
0000
0010
0000
,  // measure 13
0100
0010
0100
0000
,  // measure 14
0010
0000
1000
0000
,  // measure 15
2002
0000
3003
0000
,  // measure 16
0001
0100
0001
0100
,  // measure 17
0001
0100
0001
1000
,  // measure 18
0100
1000
0100
1000
,  // measure 19
0100
1000
0100
0010
,  // measure 20
0001
1000
0001
1000
,  // measure 21
0001
1000
0001
0010
,  // measure 22
0001
1000
0001
1000
,  // measure 23
0010
0010
0010
0000
,  // measure 24
0100
0001
0010
0001
,  // measure 25
0100
0010
1000
0100
,  // measure 26
1000
0001
0100
0001
,  // measure 27
0010
0100
0010
1001
,  // measure 28
0001
0100
0001
0100
,  // measure 29
0010
1000
0010
1000
,  // measure 30
0001
0010
0001
1000
,  // measure 31
0200
0000
0000
0000
,  // measure 32
1300
0000
0010
0000
,  // measure 33
0100
0001
0100
0000
,  // measure 34
0001
1000
0001
0000
,  // measure 35
1000
0100
1000
1000
,  // measure 36
0001
0000
1000
0000
,  // measure 37
0010
1000
0010
0000
,  // measure 38
0100
0010
0100
0000
,  // measure 39
0001
0100
0001
0010
,  // measure 40
0100
0010
0001
0000
,  // measure 41
1000
0001
0100
0000
,  // measure 42
0010
0100
0001
0000
,  // measure 43
1000
0001
0010
0010
,  // measure 44
0001
1000
0100
0000
,  // measure 45
0010
0100
1000
0000
,  // measure 46
0100
1000
0010
0000
,  // measure 47
0100
0010
1000
0001
,  // measure 48
1001
0000
1000
0000
,  // measure 49
0001
0000
0100
0000
,  // measure 50
0010
0000
1000
0000
,  // measure 51
0010
0000
0100
0001
,  // measure 52
1000
0100
0010
0001
,  // measure 53
1000
0100
0010
0001
,  // measure 54
1000
0100
0010
0001
,  // measure 55
2002
0000
3003
0000
,  // measure 56
0001
0100
0010
0000
,  // measure 57
0100
0001
1001
0000
,  // measure 58
1000
0100
1001
0000
,  // measure 59
0001
0010
1001
0110
,  // measure 60
0010
1000
0100
0000
,  // measure 61
0010
0001
1001
0000
,  // measure 62
1000
0010
1001
0000
,  // measure 63
1000
0001
1001
0110
,  // measure 64
0100
0010
1000
0000
,  // measure 65
0010
0100
0110
0000
,  // measure 66
0100
0010
0110
0000
,  // measure 67
0010
0100
0110
1001
,  // measure 68
0001
0010
0100
0000
,  // measure 69
0100
0010
0110
0000
,  // measure 70
0100
1000
0110
0000
,  // measure 71
0010
0001
0110
1001
,  // measure 72
0110
0000
0000
0000
;

//---------------dance-single - ----------------
#NOTEDATA:;
#CHARTNAME:;
#STEPSTYPE:dance-single;
#DESCRIPTION:;
#CHARTSTYLE:;
#DIFFICULTY:Medium;
#METER:60;
#RADARVALUES:0.369409,0.474955,0.237477,0.026386,0.052773,294.000000,267.000000,27.000000,3.000000,0.000000,0.000000,0.000000,0.000000,0.000000,0.369409,0.474955,0.237477,0.026386,0.052773,294.000000,267.000000,27.000000,3.000000,0.000000,0.000000,0.000000,0.000000,0.000000;
#CREDIT:;
#NOTES:
// measure 0
0000
0000
0000
0000
,  // measure 1
0000
0000
0000
0000
,  // measure 2
0000
0000
0000
0000
,  // measure 3
0000
0000
0000
0000
,  // measure 4
0000
0000
0000
0000
,  // measure 5
0000
0000
0000
0000
,  // measure 6
0000
0000
0000
0000
,  // measure 7
0000
0000
0000
0000
,  // measure 8
1000
0000
0001
0000
,  // measure 9
1000
0001
1000
0001
,  // measure 10
0100
0000
0010
0000
,  // measure 11
0100
0010
0100
1001
,  // measure 12
0001
0010
0001
0010
,  // measure 13
0001
0010
0001
0010
,  // measure 14
0001
0010
0001
0010
,  // measure 15
1100
0000
0000
1000
0100
0001
0000
0000
,  // measure 16
0001
0100
0010
0001
,  // measure 17
0100
0000
1000
0000
0100
0000
0010
1000
,  // measure 18
0001
0010
1000
0010
,  // measure 19
0001
0000
0100
0000
0010
0100
1001
0000
,  // measure 20
0001
1000
0010
1000
,  // measure 21
0100
0000
0010
0000
0100
0000
1000
0010
,  // measure 22
0100
0010
1000
0001
,  // measure 23
2000
0000
0002
3003
,  // measure 24
0001
0000
0100
0010
1000
0000
0010
0000
,  // measure 25
0100
0001
0100
0000
0100
0001
0100
0000
,  // measure 26
0001
0000
1000
0100
0010
0000
0100
0000
,  // measure 27
1000
0001
1000
0000
0001
0100
0010
0000
,  // measure 28
0100
0000
0001
0000
0100
0000
0010
1000
,  // measure 29
0010
0000
1000
0000
0001
0000
0010
0001
,  // measure 30
0010
0100
1000
0001
,  // measure 31
0200
0000
0000
0000
,  // measure 32
0310
1000
0001
0000
,  // measure 33
1000
0100
0110
0000
,  // measure 34
0010
0001
0101
0000
,  // measure 35
0001
0100
0110
1010
,  // measure 36
1000
0001
0010
0000
,  // measure 37
0100
0010
0011
0000
,  // measure 38
0001
0010
0110
0000
,  // measure 39
0100
1000
1010
0011
,  // measure 40
0001
1000
1100
0000
,  // measure 41
1000
0010
0110
0000
,  // measure 42
0100
0001
0011
0000
,  // measure 43
0010
0100
0110
0011
,  // measure 44
0010
0100
1000
0000
,  // measure 45
0100
1000
0010
0000
,  // measure 46
1000
0010
0100
0000
,  // measure 47
0010
1000
1010
0101
,  // measure 48
0001
0001
0001
0001
,  // measure 49
1000
1000
1000
1000
,  // measure 50
0010
0010
0010
0010
,  // measure 51
0100
0100
0100
1001
,  // measure 52
1000
0000
0100
0010
0001
0000
0010
0000
,  // measure 53
0100
0000
1000
0100
0010
0000
0001
0000
,  // measure 54
1000
0001
1000
0001
1000
0001
1000
0001
,  // measure 55
1001
0000
0000
0001
0100
1000
0000
0000
,  // measure 56
0100
0010
0000
0010
1000
0000
0000
1000
,  // measure 57
0001
0000
0000
0001
0000
0000
1000
0000
0010
0000
0000
0000
0000
0000
0100
0000
,  // measure 58
0010
0000
0000
0010
0000
0000
1000
0000
0100
0000
0000
0000
0000
0000
0010
0000
,  // measure 59
0100
0000
0000
0100
0000
0000
0010
0000
0110
0000
0000
0000
1001
0000
0000
0000
,  // measure 60
0000
0001
0000
1000
0010
0000
0000
0010
,  // measure 61
0100
0000
0000
0100
0000
0000
0010
0000
1000
0000
0000
0000
0000
0000
0001
0000
,  // measure 62
0010
0000
0000
0010
0000
0000
0100
0000
1000
0000
0000
0000
0000
0000
0100
0000
,  // measure 63
0010
0000
0000
0010
0000
0000
0100
0000
0110
0000
0000
0000
1001
0000
0000
0000
,  // measure 64
0001
1000
0000
1000
0010
0000
0000
0010
,  // measure 65
0100
0000
0000
0100
0000
0000
0010
0000
1000
0000
0000
0000
0000
0000
0001
0000
,  // measure 66
0010
0000
0000
0010
0000
0000
0001
0000
0100
0000
0000
0000
0000
0000
0010
0000
,  // measure 67
1000
0000
0000
1000
0000
0000
0001
0000
1001
0000
0000
0000
0110
0000
0000
0000
,  // measure 68
0000
1000
0000
0010
0100
0000
0000
0001
,  // measure 69
0010
0000
0000
0010
0000
0000
0100
0000
1000
0000
0000
0000
0000
0000
0100
0000
,  // measure 70
1000
0000
0000
1000
0000
0000
0100
0000
0010
0000
0000
0000
0000
0000
0010
0000
,  // measure 71
0100
0000
0000
1000
0000
0000
0010
0000
0100
0000
0000
0000
0010
0000
0000
0000
,  // measure 72
1001
0000
0000
0000
;

//---------------dance-single - ----------------
#NOTEDATA:;
#CHARTNAME:;
#STEPSTYPE:dance-single;
#DESCRIPTION:;
#CHARTSTYLE:;
#DIFFICULTY:Beginner;
#METER:25;
#RADARVALUES:0.145753,0.284973,0.096750,0.000000,0.000000,116.000000,105.000000,11.000000,0.000000,0.000000,0.000000,0.000000,0.000000,0.000000,0.145753,0.284973,0.096750,0.000000,0.000000,116.000000,105.000000,11.000000,0.000000,0.000000,0.000000,0.000000,0.000000,0.000000;
#CREDIT:;
#NOTES:
0000
0000
0000
0000
,
0000
0000
0000
0000
,
0000
0000
0000
0000
,
0000
0000
0000
0000
,
0000
0000
0000
0000
,
0000
0000
0000
0000
,
0000
0000
0000
0000
,
0000
0000
0000
0000
,
1000
0000
0000
0000
,
0001
0000
0000
0000
,
1000
0000
0000
0000
,
0001
0000
0000
0110
,
0100
0000
0000
0000
,
0100
0000
0000
0000
,
0100
0000
0000
0000
,
1001
0000
0000
0000
,
1000
0000
0000
0000
,
1000
0000
0000
0001
,
1000
0000
0000
0000
,
0010
0000
0100
0100
,
0010
0000
0000
0000
,
1000
0000
0000
0001
,
0010
0000
0000
0000
,
0001
0000
1000
0000
,
0010
0010
0000
0000
,
0000
0100
0000
0100
,
0000
0010
0000
0000
,
1000
0000
0001
0001
,
1000
0000
0000
0000
,
0001
0000
0000
0000
,
0100
0000
0010
0000
,
1001
0000
0000
0000
,
0010
0000
0000
0000
,
1000
0000
0000
0000
,
0001
0000
0000
0000
,
0100
0000
0000
0000
,
0010
0000
0000
0000
,
1000
0000
0000
0000
,
0100
0000
0000
0000
,
1000
0000
0001
0000
,
1001
0000
0000
0000
,
0100
0000
0000
0000
,
0010
0000
0000
0000
,
1000
0000
0000
0000
,
0001
0000
0000
0000
,
0010
0000
0000
0000
,
0001
0000
0000
0000
,
0100
0000
0001
0000
,
1001
0000
0000
0000
,
1000
0000
0000
0000
,
0010
0000
0000
0000
,
1000
0000
0000
0100
,
1000
0000
0000
0000
,
0100
0000
0000
0000
,
0010
0000
0001
0000
,
1001
0000
0000
0000
,
0110
0000
0000
0000
,
1000
1000
1000
0000
,
0001
0001
0001
0000
,
1000
1000
1000
0000
,
1001
0000
0000
0000
,
0010
0010
0010
0000
,
0100
0100
0100
0000
,
0010
0010
0010
0000
,
1001
0000
0000
0000
,
1000
0001
1000
0000
,
0001
1000
0001
0000
,
1000
0001
1000
0000
,
0110
0000
0000
0000
,
0100
0010
0100
0000
,
0010
0100
0010
0000
,
0100
0010
1000
0001
,
1001
0000
0000
0000
;
