#VERSION:0.83;
#TITLE:STOP! & Go;
#SUBTITLE:;
#ARTIST:Onyx;
#TITLETRANSLIT:;
#SUBTITLETRANSLIT:;
#ARTISTTRANSLIT:;
#GENRE:Destruction;
#ORIGIN:;
#CREDIT:;
#BANNER:Stop! & Go.png;
#BACKGROUND:Stop! & Go-bg.png;
#PREVIEWVID:;
#JACKET:Stop! & Go-jacket.png;
#CDIMAGE:;
#DISCIMAGE:;
#LYRICSPATH:;
#CDTITLE:cdtitle.png;
#MUSIC:Stop! & Go.ogg;
#OFFSET:-0.001000;
#SAMPLESTART:6.980000;
#SAMPLELENGTH:11.840000;
#SELECTABLE:YES;
#BPMS:0.000=137.000;
#STOPS:13.000=0.876,
44.000=0.438,
51.000=0.438,
58.000=0.438,
65.000=0.438,
80.000=0.438,
85.000=0.438,
102.500=0.438,
109.500=0.438,
118.000=5.246,
126.000=0.438,
131.000=0.438,
132.000=0.438,
140.000=0.219,
144.500=0.219,
145.000=0.219,
146.000=0.219,
154.500=2.623,
169.750=0.438,
184.750=0.438,
199.875=0.438;
#DELAYS:;
#WARPS:;
#TIMESIGNATURES:0.000=4=4;
#TICKCOUNTS:0.000=4;
#COMBOS:0.000=1;
#SPEEDS:0.000=1.000=0.000=0;
#SCROLLS:0.000=1.000;
#FAKES:;
#LABELS:0.000=Song Start;
#BGCHANGES:;
#KEYSOUNDS:;
#ATTACKS:
;

//---------------dance-single - ----------------
#NOTEDATA:;
#CHARTNAME:;
#STEPSTYPE:dance-single;
#DESCRIPTION:;
#CHARTSTYLE:;
#DIFFICULTY:Hard;
#METER:80;
#RADARVALUES:0.452392,0.516348,0.186829,0.102756,0.214853,339.000000,319.000000,20.000000,11.000000,0.000000,0.000000,0.000000,0.000000,0.000000,0.452392,0.516348,0.186829,0.102756,0.214853,339.000000,319.000000,20.000000,11.000000,0.000000,0.000000,0.000000,0.000000,0.000000;
#CREDIT:;
#NOTES:
// measure 0
0000
0000
0000
0000
,  // measure 1
0000
0000
0000
0000
,  // measure 2
0000
0000
0000
0000
,  // measure 3
0000
0000
0000
0000
0000
0000
0000
0000
2002
3003
0000
0000
0000
0000
0000
0000
0102
0000
0000
0000
0000
0000
0000
0000
0013
0000
0000
0000
0000
0000
0000
0000
,  // measure 4
0102
0000
0013
0000
0001
1000
0001
0000
,  // measure 5
1000
0001
1000
0000
2010
0000
3100
0000
,  // measure 6
2010
0000
3100
0000
1000
0001
1000
0000
,  // measure 7
0001
1000
0001
0100
0001
0010
0100
1000
,  // measure 8
0001
0000
1000
0001
0000
0000
0000
0000
1000
0000
0100
0000
0010
0000
0001
0000
,  // measure 9
1000
0000
0001
1000
0000
0000
0000
0000
0001
0000
0010
0000
0100
0000
1000
0000
,  // measure 10
0001
0000
1000
0001
0000
0000
1000
0000
0001
0000
0100
0010
0100
0000
0001
0000
,  // measure 11
1001
0000
0000
0000
0001
0000
0100
0000
0010
0000
0000
0100
0000
0000
0010
0000
,  // measure 12
1000
0000
0000
0010
0000
0000
1000
0000
0001
0000
0010
0000
0100
0000
0000
0000
,  // measure 13
0010
0000
0001
0000
0100
0000
0000
0001
0000
0000
0100
0000
0010
0000
0000
1000
,  // measure 14
0000
1000
0000
0000
0001
0000
0010
0000
0100
0000
0000
0000
0010
0000
0001
0000
,  // measure 15
0100
0000
0000
1000
0000
0000
0100
0000
0001
0000
0000
0010
0000
0000
1000
0000
,  // measure 16
0010
0000
0001
0000
0100
0000
0000
0000
0010
0000
0100
0000
0001
0000
0000
0010
,  // measure 17
0000
0000
1000
0000
0010
0000
0000
0100
0000
0100
0000
0000
0010
0000
0001
0000
,  // measure 18
0102
0000
0000
0000
0000
0000
0000
0000
0013
0000
0100
0000
1000
0000
0001
1000
,  // measure 19
0000
1000
0001
0000
0100
0000
0000
0000
0010
0000
1000
0000
0001
0100
0000
0100
,  // measure 20
0010
0000
0000
0000
0100
0000
0010
0000
1000
0000
0001
1000
0000
1000
0001
0000
,  // measure 21
0010
0000
1100
1000
1000
0001
0001
0000
,  // measure 22
0100
0000
0010
0000
1000
0000
0001
0000
0010
0000
0100
0010
0000
0000
0000
0000
,  // measure 23
0100
0000
1000
0000
0010
0000
0100
0000
0001
0000
1000
0100
0000
0000
0000
0000
,  // measure 24
0010
0000
0100
0000
1000
0000
0001
0000
0100
0000
0010
1000
0000
0000
0000
0000
,  // measure 25
1000
0100
0101
0100
1100
1100
0100
0010
,  // measure 26
0001
0000
0100
0000
0010
0000
1000
0001
0000
0000
1000
0000
0001
0000
1000
0000
,  // measure 27
1010
0010
0011
0011
0010
0100
0001
1000
,  // measure 28
0100
0000
0010
0100
0000
0000
0010
0000
0012
0000
1003
0000
0000
0000
2010
0000
,  // measure 29
3001
0000
0110
0000
2002
3003
0000
0000
,  // measure 30
0001
0100
0010
1000
0001
0010
0100
0010
,  // measure 31
0001
1000
0100
0010
0001
0000
1000
0001
,  // measure 32
0100
0001
1000
0100
0010
0100
1000
0010
,  // measure 33
0100
0000
0001
0010
0100
1000
0100
0001
,  // measure 34
0100
1000
0010
0100
0001
1000
0010
0001
,  // measure 35
0010
0100
0001
1000
0100
0001
0100
1000
,  // measure 36
0010
0000
0100
0000
0001
0000
1000
0000
0100
0000
0000
0000
0010
0000
0001
0100
,  // measure 37
0000
0100
0001
0000
1000
0000
0001
0010
0000
0010
0001
0000
1000
0000
0010
1000
,  // measure 38
0000
1000
0010
0000
0100
0000
0001
0100
0000
0100
0010
0000
0000
0000
0000
0000
,  // measure 39
0100
0000
0010
0000
1000
0000
0000
0001
0000
0001
0000
0000
0000
0000
0000
0000
,  // measure 40
0010
0000
0100
0000
0010
0000
0000
0001
0000
0000
0100
0000
0000
1000
0000
0000
,  // measure 41
0100
0000
0010
0000
1000
0000
0000
0001
0000
0000
0010
0000
0000
0000
0100
0000
,  // measure 42
0010
0000
0001
0000
1000
0001
0000
0110
0000
0000
0000
0000
0100
0000
0010
0000
,  // measure 43
1000
0000
0000
0100
0000
0000
0000
1000
0000
0000
0000
0000
0001
0000
0010
0000
,  // measure 44
0001
0000
0000
0100
0000
0000
0010
0000
0000
1000
0000
0000
0001
0000
1000
0000
,  // measure 45
0100
0000
1000
0000
0010
0000
0100
0010
,  // measure 46
1000
0001
0000
0001
0000
0000
0000
0000
1000
0000
0010
0000
0100
0000
0001
0000
,  // measure 47
1000
0100
1000
0010
0100
0001
0010
0100
,  // measure 48
0010
0001
0100
0001
1000
0100
1000
0010
,  // measure 49
0100
0001
0010
0100
0010
0001
0100
0010
,  // measure 50
0000
1001
0000
0000
;

//---------------dance-single - ----------------
#NOTEDATA:;
#CHARTNAME:;
#STEPSTYPE:dance-single;
#DESCRIPTION:;
#CHARTSTYLE:;
#DIFFICULTY:Challenge;
#METER:100;
#RADARVALUES:0.711283,0.774521,0.448389,0.065390,0.915460,533.000000,485.000000,48.000000,7.000000,38.000000,1.000000,4.000000,0.000000,0.000000,0.711283,0.774521,0.448389,0.065390,0.915460,533.000000,485.000000,48.000000,7.000000,38.000000,1.000000,4.000000,0.000000,0.000000;
#CREDIT:;
#NOTES:
// measure 0
0000
0000
0000
0000
,  // measure 1
0000
0000
0000
0000
,  // measure 2
0000
0000
0000
0000
,  // measure 3
2002
0000
0000
0000
0010
0000
3003
0000
0001
0100
0001
0100
0001
0000
0100
0000
,  // measure 4
0010
1000
0010
1000
0010
0000
0000
0000
1000
0000
0100
0000
0110
0000
0010
0000
,  // measure 5
0001
0000
0100
0000
0110
0000
0010
0000
1000
0010
1000
0010
1000
0000
0001
0000
,  // measure 6
0100
0001
0100
0001
0100
0000
0000
0000
0001
0000
0010
0000
0011
0000
0001
0000
,  // measure 7
1000
0000
0010
0000
1010
0000
1000
0000
0001
0100
0010
1000
0001
0010
0100
0010
,  // measure 8
0001
1000
0010
1000
0000
0000
00M0
0000
0001
0010
0001
1000
0100
1000
0010
1000
,  // measure 9
0010
0100
0001
0010
0000
0000
000M
0000
0100
0010
0001
0100
0010
1000
0010
0100
,  // measure 10
0001
1000
0100
0010
0000
0000
0M00
0000
0100
0000
0010
0001
0100
0000
0010
0000
,  // measure 11
1001
0000
0000
0000
0001
0000
0100
0000
1000
0000
0000
1100
0000
0000
0100
0000
,  // measure 12
0001
0000
0000
0101
0000
0000
0001
0000
0010
0000
0100
0000
1100
0000
0000
0000
,  // measure 13
1000
0000
0100
0000
0001
0000
0000
0101
0000
0000
0001
0000
0100
0000
0000
0110
,  // measure 14
0000
0110
0000
0000
0010
0000
0001
0000
1001
0000
0000
0000
1000
0010
1000
0010
,  // measure 15
1000
0010
1000
0010
1000
0001
1000
0001
1000
0001
1000
0001
0010
0001
0010
0001
,  // measure 16
0010
0001
0010
0001
0100
0000
0000
0000
0010
0100
0010
0100
0010
0100
0010
0100
,  // measure 17
0001
1000
0001
1000
0001
1000
0001
1000
0001
0010
0001
0010
0001
0010
0001
0010
,  // measure 18
0004
0400
0000
0000
0000
0000
0303
0000
0001
0000
0100
0000
1010
0000
1000
0001
,  // measure 19
0000
0001
0010
0000
0100
0000
0000
0000
0010
0000
0001
0000
1000
0001
0000
0100
,  // measure 20
0010
0000
0000
0000
0100
0000
0010
0000
1010
0000
1000
0010
0000
0100
0001
0000
,  // measure 21
0010
0000
2001
0001
3001
1010
0101
0000
,  // measure 22
0001
0100
0010
1000
0001
0010
0100
0010
0001
1000
0010
0100
0000
0000
00M0
0000
,  // measure 23
0010
1000
0010
0100
0001
0100
0001
0010
0100
1000
0100
0010
0000
0000
0M00
0000
,  // measure 24
0100
0010
0001
0100
0010
1000
0001
0010
0100
0010
0001
1000
0000
0000
000M
0000
,  // measure 25
0001
0000
0100
1000
0010
0000
1000
0000
1001
M00M
1001
0000
0001
0010
0001
1000
,  // measure 26
0010
1000
0001
0010
0100
1000
0001
0100
0000
0000
0010
0000
0100
0010
1000
0001
,  // measure 27
0010
0000
0100
0000
0011
00MM
1100
1000
0100
1000
0010
0100
0001
0010
0100
0010
,  // measure 28
0001
1000
0010
0100
0000
0000
0010
0000
2M10
0000
3MM1
0000
0000
0000
0M12
0000
,  // measure 29
1MM3
0000
0000
0000
MM1M
0000
0000
0000
4004
3003
M00M
M00M
M00M
0MM0
0000
00MM
,  // measure 30
1000
0010
1000
0010
1000
0010
1000
0010
1000
0010
1000
0010
1000
0010
1000
0010
,  // measure 31
0100
0001
0100
0001
0100
0001
0100
0001
0010
0000
0000
0000
0100
0010
0100
0010
,  // measure 32
0100
0010
0100
0010
0100
0010
0100
0010
0100
0010
0100
0010
0100
0000
0010
0000
,  // measure 33
0001
1000
0000
0000
0000
0000
0000
0000
0000
0000
0000
0000
0000
0000
0000
0000
0000
0000
0000
0000
0000
0000
0000
0000
0000
0000
0000
0000
0000
0000
0000
0000
0000
0000
0000
0000
0000
0000
0000
0000
0000
0000
0000
0000
0000
0000
0000
0000
0001
0000
0000
0000
0000
0000
0000
0000
0000
0000
0000
0000
0010
0000
0000
0000
0000
0000
0000
0000
0000
0000
0000
0000
0001
0000
0000
0000
0000
0000
0000
0000
0000
0000
0000
0000
0010
0000
0000
0000
0000
0000
0000
0000
0000
0000
0000
0000
0001
0000
0000
0000
0000
0000
0000
0000
0000
0000
0000
0000
0010
0000
0000
0000
0000
0000
0000
0000
0000
0000
0000
0000
0001
0000
0000
0000
0000
0000
0000
0000
0000
0000
0000
0000
0010
0000
0000
0000
0000
0000
0000
0000
0000
0000
0000
0000
0001
0000
0000
0000
0000
0000
0000
0000
0000
0000
0000
0000
0010
0000
0000
0000
0000
0000
0000
0000
0000
0000
0000
0000
0001
0000
0000
0000
0000
0000
0000
0000
0000
0000
0000
0000
0010
0000
0000
0000
0000
0000
0000
0000
0000
0000
0000
0000
,  // measure 34
0001
0010
0001
0010
0001
1000
0010
1000
0010
1000
0010
1000
0010
1000
0010
1000
,  // measure 35
0100
0000
1000
0001
1000
0001
1000
0001
1000
0001
1000
0001
1000
0001
1000
0001
,  // measure 36
1000
0001
0010
0000
1100
0100
0010
0100
1000
0000
0000
0000
1001
0000
0001
0100
,  // measure 37
0010
0000
1000
0000
0001
0000
0010
0100
0000
0100
0010
0000
0001
0000
1000
0010
,  // measure 38
0000
0010
1000
0000
0001
0000
0010
0001
0000
0001
0200
M3MM
0000
0000
0000
0000
,  // measure 39
1001
0000
1000
0000
0010
0000
0000
0101
0000
0101
0000
0000
0000
0000
0000
0000
,  // measure 40
0001
0000
0010
0000
0100
0000
0000
0110
0000
0000
0011
0000
0000
1010
0000
0000
,  // measure 41
1000
0000
0001
0000
0100
0000
0000
0101
0000
0000
0011
0000
0000
0000
0001
0000
,  // measure 42
0011
0000
1100
0000
1000
0001
0100
0010
0M00
0000
0000
0000
0110
0000
0100
0000
,  // measure 43
0001
0000
0000
0101
0000
0000
0000
1010
0000
0000
0000
0000
1000
0000
0100
0000
,  // measure 44
0110
0000
0000
1100
0000
0000
0110
0000
0000
0011
0000
0000
0001
0000
0100
0000
,  // measure 45
0110
0000
1010
0000
0101
0001
0100
0010
,  // measure 46
1000
0001
0020
0000
0130
00M0
0000
0000
0010
0001
0100
0010
1000
0001
0010
0001
,  // measure 47
0100
0010
1000
0010
0100
0001
0010
0100
0010
0001
0100
0010
1000
0001
0010
0001
,  // measure 48
0100
0001
0100
0010
1000
0010
0100
0001
1000
0001
0010
0001
0100
0010
1000
0001
,  // measure 49
0010
0100
0010
0001
0100
0010
1000
0001
0010
0100
0010
0001
0100
0010
1000
0001
,  // measure 50
MMMM
0110
0000
0000
;

//---------------dance-single - ----------------
#NOTEDATA:;
#CHARTNAME:;
#STEPSTYPE:dance-single;
#DESCRIPTION:;
#CHARTSTYLE:;
#DIFFICULTY:Medium;
#METER:50;
#RADARVALUES:0.322947,0.352055,0.149463,0.046707,0.037366,242.000000,226.000000,16.000000,5.000000,0.000000,0.000000,0.000000,0.000000,0.000000,0.322947,0.352055,0.149463,0.046707,0.037366,242.000000,226.000000,16.000000,5.000000,0.000000,0.000000,0.000000,0.000000,0.000000;
#CREDIT:;
#NOTES:
0000
0000
0000
0000
,
0000
0000
0000
0000
,
0000
0000
0000
0000
,
0010
1001
0102
0103
,
2100
3100
1000
0001
,
0100
0010
2010
3010
,
0012
0013
1000
0001
,
0100
0000
0010
1000
1001
0000
0001
0000
,
0010
0001
0100
0000
0010
0000
1000
0000
,
0001
1000
0100
0000
1000
0000
0010
0000
,
0100
0010
1000
0000
0001
0000
0010
0100
,
1100
0000
0100
0000
1000
0010
0100
0000
,
0100
0010
1000
0000
0001
1000
1001
0000
,
1000
0000
0001
0010
0100
0000
0100
0010
,
0001
0000
1000
0001
0100
0000
0010
0000
,
1000
0001
0100
0000
0010
1000
0100
0000
,
0010
0100
1001
0000
0001
0000
0010
0001
,
0100
0000
0010
1000
0001
0000
1000
0001
,
2000
0000
3100
1000
,
0010
1000
0010
0000
0100
0000
0001
0010
,
0100
0000
0010
0000
0001
0000
1000
0001
,
0100
0110
0000
0000
,
1000
0000
0000
0000
0010
0000
0000
0000
0100
0000
0001
0100
0000
0000
0000
0000
,
0001
0000
0000
0000
1000
0000
0000
0000
0100
0000
0010
0100
0000
0000
0000
0000
,
0010
0000
0000
0000
0001
0000
0000
0000
0100
0000
0010
1000
0000
0000
0000
0000
,
0010
0000
1000
0000
0001
0001
0100
0000
,
0001
0000
0000
0000
0100
0000
0010
0100
0000
0000
0000
0000
0001
0000
0000
0000
,
1000
0000
0100
0100
0010
0000
0100
0000
,
1000
0000
0010
0100
0000
0000
0000
0000
0101
0000
0000
0000
0000
0000
1010
0000
,
0000
1100
1001
0000
,
1000
0010
0100
0001
,
0010
0000
0100
0010
0001
0000
0010
0000
,
0001
0000
0100
0000
0010
0000
1000
0001
,
0100
0010
0100
0010
,
1000
0000
0001
0000
0010
0000
0100
0010
,
0001
0010
0000
0001
0000
0100
0000
0010
,
0000
1000
0001
1000
0001
0000
1000
0000
,
0010
1000
0001
0010
,
0001
0000
1000
0000
0010
1001
0000
0000
,
0001
0100
0001
0000
0100
0000
0010
0000
,
1000
0010
1000
0000
0001
0000
0010
0000
,
0100
0010
0100
0000
0010
0000
0001
0000
,
1000
0001
0100
0000
0000
0000
0010
0100
,
0010
0000
1000
0000
0001
0000
0010
0100
,
0010
0000
0001
0000
1000
0000
0001
0100
,
0001
0100
0010
1000
,
0010
0100
0000
0000
0010
0000
1000
0000
,
0001
0000
0010
0100
0000
0000
0000
0000
0010
0000
0000
0000
0001
0000
0000
0000
,
1000
0000
0001
1000
0000
0000
0000
0000
0001
0000
0000
0000
0100
0000
0000
0000
,
0010
0000
1000
0100
0000
0000
0000
0000
0100
0000
0000
0000
0010
0000
0001
0000
,
0000
1001
0000
0000
;

//---------------dance-single - ----------------
#NOTEDATA:;
#CHARTNAME:;
#STEPSTYPE:dance-single;
#DESCRIPTION:;
#CHARTSTYLE:;
#DIFFICULTY:Easy;
#METER:35;
#RADARVALUES:0.185494,0.211233,0.084073,0.018683,0.000000,139.000000,130.000000,9.000000,2.000000,0.000000,0.000000,0.000000,0.000000,0.000000,0.185494,0.211233,0.084073,0.018683,0.000000,139.000000,130.000000,9.000000,2.000000,0.000000,0.000000,0.000000,0.000000,0.000000;
#CREDIT:;
#NOTES:
0000
0000
0000
0000
,
0000
0000
0000
0000
,
0000
0000
0000
0000
,
0000
0000
1000
0010
,
1000
0010
0000
0000
,
0000
0000
0100
0001
,
0100
0001
0000
0000
,
0000
0000
0100
0010
,
1000
0000
0010
1000
,
0001
0000
0010
0001
,
0100
0000
0010
1000
,
1001
0001
0000
1000
,
0000
0010
0000
0110
,
0100
0000
0010
0000
,
1000
0000
1001
0001
,
0000
0010
0000
0100
,
0000
1001
1000
0000
,
0001
0000
0100
0000
,
0220
0330
0010
0000
,
0100
0000
0010
1000
,
0010
1000
0000
0001
,
0000
1001
0001
1000
,
0001
0100
0010
0000
,
0100
0010
1000
0000
,
0001
0010
0100
0000
,
0010
0001
1000
0001
,
1000
0010
1000
0001
,
0010
0100
0010
0001
,
0100
0000
0010
0000
1000
0000
0000
0001
,
0000
0000
0110
0000
,
1000
0000
0000
0000
,
0010
0000
0100
0001
,
0000
0000
0000
0010
,
0100
1000
0000
0001
,
0000
0100
0000
0010
,
1000
0001
0000
0000
0000
0010
0000
0000
,
0000
0001
0000
0000
0000
0000
1000
0000
,
0000
0001
0000
1000
,
0000
0000
0001
0000
0000
1001
0000
0000
,
0001
0100
0010
0000
,
0100
0010
1000
0100
,
1000
0001
0010
0000
,
0001
1000
0000
0001
,
0100
0010
0000
0100
,
0010
1000
0001
0010
,
0001
1000
0000
0100
,
1000
0000
0001
0010
,
0100
0010
0001
1000
,
0010
0100
0010
1000
,
0001
0010
0100
0010
,
0000
1001
0000
0000
;

//---------------dance-single - ----------------
#NOTEDATA:;
#CHARTNAME:;
#STEPSTYPE:dance-single;
#DESCRIPTION:;
#CHARTSTYLE:;
#DIFFICULTY:Beginner;
#METER:20;
#RADARVALUES:0.081404,0.140822,0.037366,0.000000,0.000000,61.000000,57.000000,4.000000,0.000000,0.000000,0.000000,0.000000,0.000000,0.000000,0.081404,0.140822,0.037366,0.000000,0.000000,61.000000,57.000000,4.000000,0.000000,0.000000,0.000000,0.000000,0.000000,0.000000;
#CREDIT:;
#NOTES:
0000
0000
0000
0000
,
0000
0000
0000
0000
,
0000
0000
0000
0000
,
0000
0000
0001
0000
,
0001
0000
0000
0000
,
0000
0000
1000
0000
,
1000
0000
0000
0000
,
0000
0000
0010
0000
,
0000
0000
0100
0000
,
0000
0000
0001
0000
,
0000
0000
1000
0000
,
0000
0010
0000
0000
,
0000
0000
0000
0010
,
0100
0000
0000
0000
,
0100
0000
0000
1000
,
0000
0001
0000
1000
,
0000
0001
0100
0000
,
0010
0000
0100
0000
,
1001
0000
0001
0000
,
0000
0000
0001
0000
,
0000
1000
0000
0000
,
0000
0000
0000
0000
,
1000
0000
0000
0000
,
0010
0000
0000
0000
,
0100
0000
0000
0000
,
0001
0000
1000
0001
,
0000
0000
0000
1000
,
0000
0010
0100
0000
,
0000
0000
1001
0000
,
0000
0000
0110
0000
,
1000
0000
0000
0000
,
0010
0000
1000
0001
,
0000
0000
0000
0010
,
0001
1000
0000
0000
,
0000
0000
0000
0000
,
1000
0000
0000
0000
,
0000
0000
0000
0001
,
0000
0000
0000
1000
,
0000
0000
0000
0000
,
0010
0000
0000
0000
,
0100
0000
0000
0000
,
0001
0000
0000
0000
,
1000
0000
0000
1000
,
0000
0000
0000
0001
,
0000
0000
0000
0010
,
0000
0000
0000
0100
,
0000
0000
0010
0000
,
0000
0000
0001
0000
,
0000
0000
1000
0000
,
0000
0000
0100
0000
,
0000
1001
0000
0000
;
