#VERSION:0.83;
#TITLE:Rude Buster;
#SUBTITLE:;
#ARTIST:Toby Fox;
#TITLETRANSLIT:;
#SUBTITLETRANSLIT:;
#ARTISTTRANSLIT:;
#GENRE:;
#ORIGIN:;
#CREDIT:;
#BANNER:Rude Buster.png;
#BACKGROUND:Rude Buster-bg.png;
#PREVIEWVID:;
#JACKET:Rude Buster-jacket.png;
#CDIMAGE:;
#DISCIMAGE:;
#LYRICSPATH:;
#CDTITLE:;
#MUSIC:Rude Buster.ogg;
#OFFSET:-0.130000;
#SAMPLESTART:13.843286;
#SAMPLELENGTH:13.714286;
#SELECTABLE:YES;
#BPMS:0.000=140.000;
#STOPS:;
#DELAYS:;
#WARPS:;
#TIMESIGNATURES:0.000=4=4;
#TICKCOUNTS:0.000=4;
#COMBOS:0.000=1;
#SPEEDS:0.000=1.000=0.000=0;
#SCROLLS:0.000=1.000;
#FAKES:;
#LABELS:0.000=Song Start;
#BGCHANGES:;
#KEYSOUNDS:;
#ATTACKS:
;

//---------------dance-single - ----------------
#NOTEDATA:;
#CHARTNAME:;
#STEPSTYPE:dance-single;
#DESCRIPTION:;
#CHARTSTYLE:;
#DIFFICULTY:Hard;
#METER:90;
#RADARVALUES:0.533554,0.573896,0.218627,0.091095,0.933720,410.000000,386.000000,24.000000,10.000000,0.000000,0.000000,0.000000,0.000000,0.000000,0.533554,0.573896,0.218627,0.091095,0.933720,410.000000,386.000000,24.000000,10.000000,0.000000,0.000000,0.000000,0.000000,0.000000;
#CREDIT:;
#NOTES:
// measure 0
0000
0000
0000
0000
,  // measure 1
0000
0000
0000
0000
,  // measure 2
0000
0000
0000
0000
,  // measure 3
0000
0000
0000
0000
,  // measure 4
0000
0000
1000
0000
0000
0100
0000
0000
0000
1000
0000
0000
0001
0000
1001
0000
,  // measure 5
0000
0000
0001
0000
0000
0100
0000
0000
0000
0010
0000
0000
1000
0000
1100
0000
,  // measure 6
0000
0000
1000
0000
0000
0001
0000
0000
0000
0010
0000
0000
0001
0000
0101
0000
,  // measure 7
0100
0000
0000
0010
0000
0000
0000
1000
0000
0000
0000
0000
0001
0000
1000
0000
,  // measure 8
1001
0000
0000
1000
0100
1000
0100
0010
0000
0100
0000
0010
0000
0001
0000
0000
,  // measure 9
0100
0000
0000
0010
0000
1000
0000
0001
0010
0000
0010
0001
0000
0000
0000
0000
,  // measure 10
0000
0000
0000
0001
0100
0001
1000
0001
0000
0100
0000
0010
0000
1000
0000
0000
,  // measure 11
0010
0000
0000
0100
0000
0001
0000
2000
0000
0000
0000
0000
0000
0000
0000
0000
,  // measure 12
3000
0000
0000
0010
1000
0100
1000
0010
0000
0100
0000
0001
0000
0010
0000
0000
,  // measure 13
0100
0000
0000
0010
0000
0001
0000
1000
0100
0000
0100
1000
0000
0000
0000
0000
,  // measure 14
0000
0000
0000
0001
0100
0010
0100
0001
0000
1000
0000
0100
0000
1000
0000
0000
,  // measure 15
0001
0000
0000
0100
0000
0010
0000
0200
0000
0000
0000
0000
0000
0000
0000
0000
,  // measure 16
0301
0000
0000
1000
0100
0010
0001
1000
0010
0000
0000
1001
0000
0000
0000
0000
,  // measure 17
0000
0000
0000
0001
0010
0100
1000
0001
0100
0000
0000
0110
0000
0000
0000
0000
,  // measure 18
0000
0000
0000
0100
0010
1000
0001
0010
0100
0000
0000
1001
0000
0000
0001
0000
,  // measure 19
1000
0000
0000
0100
0000
0010
0000
0200
0000
0000
0000
0000
0000
0000
0000
0000
,  // measure 20
0300
0000
0000
0010
0001
1000
0010
0100
0001
0000
0000
1010
0000
0000
0000
0000
,  // measure 21
0000
0000
0000
1000
0010
0100
0001
0010
0100
0000
0000
0011
0000
0000
0000
0000
,  // measure 22
0000
0000
0000
0001
0010
0100
1000
0010
0100
0000
0000
1001
0000
0000
0001
0000
,  // measure 23
1000
0000
0010
0100
0000
0001
0000
0010
0000
0000
0000
0000
0100
0000
1000
0000
,  // measure 24
0100
0000
1000
0000
0010
0100
0000
0001
0000
1000
0000
0100
0010
0000
0001
0000
,  // measure 25
1000
0000
0001
0100
0000
0010
0000
1000
0000
0001
0000
0010
0100
0000
0010
0000
,  // measure 26
0001
0000
1000
0001
0000
0100
0000
0001
0000
0010
0000
0100
0010
0000
0001
0000
,  // measure 27
1000
0000
0000
0100
0000
0000
0000
0010
0000
0000
0000
0000
0010
0000
0100
1000
,  // measure 28
0010
0000
0000
0000
0000
0000
0100
0001
0010
0000
0000
0000
0000
0000
0100
0010
,  // measure 29
0001
0000
1000
0001
0000
0010
0000
0001
0000
0100
0000
0010
0000
1000
0000
0100
,  // measure 30
0000
0000
0000
0000
0010
0000
0100
1000
0001
0100
0010
0000
1000
0000
0000
0001
,  // measure 31
0020
0000
0000
0000
0000
0000
0000
0130
0000
0100
0000
0100
0000
1001
0000
0000
,  // measure 32
0001
1000
0100
0001
0100
1000
0010
0001
,  // measure 33
0010
0100
0001
0010
1000
0010
0100
0010
,  // measure 34
0001
0100
1000
0100
0001
0100
1000
0100
,  // measure 35
0010
0000
0000
1000
0000
0001
0000
2000
0000
0000
0000
0000
3000
0000
0000
0000
,  // measure 36
0000
0000
0000
0000
0001
0000
0100
0000
0010
0000
1000
0100
0000
0000
0100
1000
,  // measure 37
0000
0000
0000
0000
0100
0000
0010
0000
0001
0000
1000
0001
0000
0100
0000
0000
,  // measure 38
0010
0000
1000
0001
0000
0001
1000
0000
0100
0000
1000
0001
0000
0001
1000
0000
,  // measure 39
1010
0000
0000
0011
0000
0000
1002
0000
0000
0000
0000
0000
0003
0000
0000
0000
,  // measure 40
0000
0000
0000
1000
0100
1000
0010
0100
0000
0001
0000
0000
0100
0000
0010
0000
,  // measure 41
0100
0001
1000
0100
0000
0010
0000
0100
2000
0000
0000
0000
0000
0000
3010
0100
,  // measure 42
0001
0000
1000
0010
0000
0100
0001
0000
0010
0000
0001
0010
0000
0100
1000
0000
,  // measure 43
0001
0000
0000
1010
0000
0011
0000
1001
0000
0000
0000
0000
0000
0000
0000
0000
,  // measure 44
0000
0000
0000
0001
0100
0001
0100
0010
0000
1000
0000
0100
0000
1000
0000
0000
,  // measure 45
0010
0000
0000
0100
0000
0001
0000
0010
0001
0000
0001
1000
0000
0000
0000
0000
,  // measure 46
0000
0000
0000
0100
0010
0100
1000
0010
0000
0100
0000
0001
0000
1000
0000
0000
,  // measure 47
0001
0000
0000
0100
0000
0010
0000
0200
0000
0000
0000
0000
0000
0000
0000
0000
,  // measure 48
0300
0000
0000
0010
1000
0001
0100
0001
0000
1000
0000
0001
0000
0010
0000
0000
,  // measure 49
0100
0000
0000
0010
0000
0001
0000
0100
0001
0000
0001
0010
0000
0000
0000
0000
,  // measure 50
0000
0000
0000
0010
0001
1000
0100
1000
0000
0001
0000
0100
0000
0010
0000
0000
,  // measure 51
1000
0000
0000
0001
0000
1000
0000
0002
0000
0000
0000
0000
0000
0000
0000
0000
,  // measure 52
0003
0000
0000
0100
0010
1000
0001
0010
0100
0000
0000
1001
0000
0000
0000
0000
,  // measure 53
0000
0000
0000
1000
0010
0100
0001
0010
0100
0000
0000
0011
0000
0000
0000
0000
,  // measure 54
0000
0000
0000
0001
0010
0100
1000
0001
0100
0000
0000
1010
0000
0000
1000
0000
,  // measure 55
0001
0000
0000
0010
0000
0001
0000
0200
0000
0000
0000
0000
0000
0000
0000
0000
,  // measure 56
0300
0000
0000
0010
0100
0001
1000
0100
0010
0000
0000
1100
0000
0000
0000
0000
,  // measure 57
0000
0000
0000
0100
0010
0001
0100
0010
1000
0000
0000
0011
0000
0000
0000
0000
,  // measure 58
0000
0000
0000
0001
1000
0100
0010
0001
1000
0000
0000
0101
0000
0000
0001
0000
,  // measure 59
0010
0000
0000
0100
0000
0010
0000
0100
0000
0000
0000
0000
0010
0000
0001
0000
,  // measure 60
1001
0000
0000
0000
;

//---------------dance-single - ----------------
#NOTEDATA:;
#CHARTNAME:;
#STEPSTYPE:dance-single;
#DESCRIPTION:;
#CHARTSTYLE:;
#DIFFICULTY:Medium;
#METER:70;
#RADARVALUES:0.400816,0.437254,0.045547,0.081985,0.592115,308.000000,303.000000,5.000000,9.000000,0.000000,0.000000,0.000000,0.000000,0.000000,0.400816,0.437254,0.045547,0.081985,0.592115,308.000000,303.000000,5.000000,9.000000,0.000000,0.000000,0.000000,0.000000,0.000000;
#CREDIT:;
#NOTES:
0000
0000
0000
0000
,
0000
0000
0000
0000
,
0000
0000
0000
0000
,
0000
0000
0000
0000
,
0000
0000
0001
0000
0000
1000
0000
0000
0000
0001
0000
0000
0100
0000
0010
0000
,
0000
0000
1000
0000
0000
0010
0000
0000
0000
0100
0000
0000
0001
0000
0010
0000
,
0000
0000
0100
0000
0000
0010
0000
0000
0000
0001
0000
0000
0100
0000
0010
0000
,
1000
0000
0000
0001
0000
0000
0000
0110
0000
0000
0000
0000
0000
0000
0000
0000
,
0000
0000
1000
0000
0010
0000
0000
0100
0000
0010
0000
1000
0000
0001
0000
0000
,
0010
0000
0000
0001
0000
1000
0000
0010
0100
0000
0010
1000
0000
0000
0000
0000
,
0000
0000
0100
0000
0010
0000
0001
0000
0000
1000
0000
0001
0000
0100
0000
0000
,
0010
0000
0000
1000
0000
0001
0000
0020
0000
0000
0000
0000
0000
0000
0030
0000
,
0000
0000
0100
0000
1000
0000
0010
0000
0000
0100
0000
0001
0000
1000
0000
0000
,
0001
0000
0000
1000
0000
0010
0000
0100
0001
0000
0001
0010
0000
0000
0000
0000
,
0000
0000
0100
0000
0010
0000
0001
0000
0000
1000
0000
0010
0000
1000
0000
0000
,
0001
0000
0000
1000
0000
0010
0000
0200
0000
0000
0000
0000
0000
0000
0300
0000
,
0000
0000
0000
0010
0100
0000
0001
0000
1000
0000
0000
1000
0000
0000
0000
0000
,
0000
0000
0000
0100
0010
0000
0001
0000
0100
0000
0000
0010
0000
0000
0000
0000
,
0000
0000
0000
0100
0001
0000
0010
0000
0001
0000
0000
1000
0000
0000
0001
0000
,
0010
0000
0000
0100
0000
1000
0000
0020
0000
0000
0000
0000
0000
0000
0000
0000
,
0030
0000
0000
0100
0001
0000
0010
0000
0001
0000
0000
1000
0000
0000
0000
0000
,
0000
0000
0000
0100
0010
0000
0001
0000
1000
0000
0000
0010
0000
0000
0000
0000
,
0000
0000
0000
0100
0001
0000
0010
0000
0001
0000
0000
1000
0000
0000
0100
0000
,
0010
0000
0000
0100
0000
1000
0000
0010
0000
0000
0000
0000
0100
0000
0001
0000
,
2000
0000
3100
0000
1000
0000
0010
1000
,
0001
0000
0010
0000
0100
0000
0010
0100
,
1000
0000
0100
0000
0010
0000
0001
0100
,
0010
0000
0000
1000
0000
0000
0000
0100
0000
0000
0000
0000
0010
0000
0001
0000
,
1000
0000
0000
0001
0100
0000
0000
0001
,
0010
0000
0000
0100
0000
0010
0000
0001
0000
1000
0000
0010
0000
0100
0000
0001
,
0000
0000
1000
0001
0010
0001
0100
0010
,
1000
0000
0000
0001
0000
0000
0000
0020
0000
0000
0000
0000
0000
0000
0000
0000
,
0130
0010
0001
0000
0010
0001
0100
0000
,
1000
0100
0001
0000
0001
0100
1000
0000
,
0100
0010
1000
0001
0010
1000
0010
0001
,
1000
0000
0000
0001
0000
0100
0000
0020
0000
0000
0000
0000
0000
0000
0000
0000
,
0030
0000
0000
0000
0100
0000
0001
0000
1000
0000
0100
0010
0000
0000
0010
0001
,
0000
0000
0000
0000
0010
0000
0100
0000
0010
0000
0000
0100
0000
1000
0000
0000
,
0001
0000
0000
0100
0000
0000
0010
0000
1000
0000
0000
0100
0000
0000
0010
0000
,
0110
0000
0000
0110
0000
0000
0110
0000
0000
0000
0000
0000
0000
0000
0000
0000
,
0000
0000
0000
0100
1000
0000
0000
0001
0000
0100
0000
0000
0010
0000
1000
0000
,
0100
0000
0000
1000
0000
0010
0000
0100
0000
0000
0000
0000
0000
0000
0010
0000
,
0100
0000
0000
0001
0000
0000
0010
0000
0001
0000
0000
1000
0000
0000
0010
0000
,
0100
0000
0001
1000
0000
0001
0000
2000
0000
0000
0000
0000
0000
0000
0000
0000
,
3000
0000
0100
0000
0010
0000
0000
0001
0000
0100
0000
0010
0000
1000
0000
0000
,
0001
0000
0000
1000
0000
0010
0000
0100
0001
0000
0001
0010
0000
0000
0000
0000
,
0000
0000
0100
0000
0010
0000
0001
0000
0000
1000
0000
0001
0000
0100
0000
0000
,
0010
0000
0000
1000
0000
0001
0000
0020
0000
0000
0000
0000
0000
0000
0000
0000
,
0030
0000
0100
0000
0010
0000
0001
0000
0000
1000
0000
0001
0000
1000
0000
0000
,
0100
0000
0000
0010
0000
0100
0000
1000
0001
0000
0001
0100
0000
0000
0000
0000
,
0000
0000
0010
0000
1000
0000
0100
0000
0000
0010
0000
0100
0000
0010
0000
0000
,
0100
0000
0000
1000
0000
0001
0000
0200
0000
0000
0000
0000
0000
0000
0000
0000
,
0300
0000
0000
0001
0010
0000
0100
0000
1000
0000
0000
0001
0000
0000
0000
0000
,
0000
0000
0000
1000
0100
0000
0010
0000
0001
0000
0000
1000
0000
0000
0000
0000
,
0000
0000
0000
0010
0100
0000
0001
0000
1000
0000
0000
0001
0000
0000
0010
0000
,
0001
0000
0000
0100
0000
0010
0000
0100
0000
0000
0000
0000
0000
0000
0000
0000
,
0000
0000
0000
0010
1000
0000
0001
0000
0010
0000
0000
0100
0000
0000
0000
0000
,
0000
0000
0000
0010
0001
0000
1000
0000
0010
0000
0000
0100
0000
0000
0000
0000
,
0000
0000
0000
0010
1000
0000
0001
0000
0010
0000
0000
0100
0000
0000
0010
0000
,
0001
0000
0000
1000
0000
0001
0000
0100
0000
0000
0000
0000
0010
0000
1000
0000
,
1001
0000
0000
0000
;

//---------------dance-single - ----------------
#NOTEDATA:;
#CHARTNAME:;
#STEPSTYPE:dance-single;
#DESCRIPTION:;
#CHARTSTYLE:;
#DIFFICULTY:Easy;
#METER:30;
#RADARVALUES:0.239449,0.273284,0.163970,0.000000,0.000000,184.000000,166.000000,18.000000,0.000000,0.000000,0.000000,0.000000,0.000000,0.000000,0.239449,0.273284,0.163970,0.000000,0.000000,184.000000,166.000000,18.000000,0.000000,0.000000,0.000000,0.000000,0.000000,0.000000;
#CREDIT:;
#NOTES:
0000
0000
0000
0000
,
0000
0000
0000
0000
,
0000
0000
0000
0000
,
0000
0000
0000
0000
,
1000
0000
0001
1000
,
0010
0000
1000
0100
,
0010
0000
0100
0010
,
0001
1000
0110
0000
,
0100
0010
1000
0001
,
0010
0001
1000
0001
,
0000
1000
0001
0100
,
0110
0100
1001
0000
,
0001
0010
0001
1000
,
0010
0100
0001
1000
,
0000
0001
0010
0001
,
1001
0010
1001
0000
,
0000
1000
1100
0000
,
0000
0001
0011
0000
,
0000
0001
0101
0000
,
0100
0000
0010
0000
,
0000
1000
1010
0000
,
0000
1000
1001
0000
,
0000
0001
0011
0000
,
0001
0000
1000
0000
,
0110
0000
0000
0000
,
0100
0000
0000
0000
,
0010
0000
0000
0000
,
1000
0000
0001
0000
,
0100
0000
0010
0000
,
0100
0001
1000
0100
,
0000
1000
0010
0100
,
0001
0000
0010
0000
,
0001
0010
0100
1000
,
0100
0010
0001
1000
,
0010
0010
0100
0100
,
0001
1000
0001
0000
,
0000
1000
0010
0100
,
0000
0001
0100
0010
,
0100
0010
1000
0001
,
0010
0100
1000
0000
,
0000
0100
1000
0010
,
0100
0001
1000
0000
,
0001
1000
0010
1000
,
0001
0100
0001
0000
,
1001
0001
0010
0001
,
1000
0100
0010
0010
,
0000
0100
0010
0001
,
1001
0010
1001
0000
,
0000
0100
0010
1000
,
0010
0100
0001
0001
,
0000
1000
0001
0010
,
0110
0001
0110
0000
,
0000
0100
0010
0001
,
0000
1000
0001
0100
,
0000
0010
1000
0100
,
1000
0001
1000
0000
,
0000
0001
0010
0100
,
0000
0010
0001
1000
,
0000
1000
0100
0010
,
0100
1000
0010
0100
,
1001
0000
0000
0000
;

//---------------dance-single - ----------------
#NOTEDATA:;
#CHARTNAME:;
#STEPSTYPE:dance-single;
#DESCRIPTION:;
#CHARTSTYLE:;
#DIFFICULTY:Challenge;
#METER:95;
#RADARVALUES:0.658484,0.916867,0.391707,0.218627,1.125018,506.000000,463.000000,43.000000,24.000000,24.000000,0.000000,0.000000,0.000000,0.000000,0.658484,0.916867,0.391707,0.218627,1.125018,506.000000,463.000000,43.000000,24.000000,24.000000,0.000000,0.000000,0.000000,0.000000;
#CREDIT:;
#NOTES:
0000
0000
0000
0000
,
0000
0000
0000
0000
,
0000
0000
0000
0000
,
0000
0000
0000
0000
,
0000
0010
0001
0000
1000
0100
0000
0000
0000
0010
0001
0000
1000
0000
0010
0000
,
0000
0000
0100
0010
0000
1000
0001
0000
0000
0010
0100
0000
0010
0000
0001
0000
,
0000
0000
1000
0010
0000
0100
0001
0000
0000
0010
0001
0000
0010
0000
0100
0000
,
1001
0000
0000
0101
0000
0000
0000
1020
0000
0000
0000
0000
0130
0000
0001
0000
,
1001
0000
0000
1000
0100
1000
0010
0100
0000
0010
0000
0010
0000
0100
0000
0000
,
0010
0000
0000
1000
0000
0001
0000
0010
0001
0000
1000
0020
0000
0000
0000
0000
,
0030
0000
0000
0100
0001
0100
0010
1000
0000
0001
0000
0001
0000
0010
0000
0000
,
0110
0000
0000
0011
0000
1010
0000
2002
0000
0000
0000
0000
0000
0000
0000
0000
,
3003
0000
0000
0001
1000
0001
0010
0001
0000
0100
0000
0100
0000
0010
0000
0000
,
0100
0000
0000
0001
0000
0010
0000
0100
1000
0000
0100
0020
0000
0000
0000
0000
,
0030
0000
0100
1000
0100
0010
0001
1000
0000
0010
0000
0010
0000
1000
0000
0000
,
0011
0000
0000
1010
0000
0011
0000
2002
0000
0000
0000
0000
0000
0000
0000
0000
,
3003
0000
0000
0001
0010
0100
1000
0010
0100
0000
0000
1MM1
0000
0000
0001
0000
,
1000
0000
0000
0001
0100
0010
1000
0100
0010
0000
0000
11MM
0000
0000
0100
0000
,
0010
0000
0000
0100
0010
0001
1000
0010
0100
0000
0000
M1M1
0000
0000
0001
0000
,
0010
0000
0000
0100
0000
1000
0000
0020
0000
0000
0000
0000
0000
0000
0000
0000
,
0030
0000
0000
0100
0010
1000
0001
0010
0100
0000
0000
1MM1
0000
0001
0010
0100
,
1000
0000
0000
0001
1000
0010
0100
0001
0010
0000
0000
1M1M
0000
1000
0010
0100
,
0001
0000
0000
1000
0010
1000
0001
0010
0100
0000
0000
1MM1
0000
0000
0001
0000
,
0100
0000
0000
0010
0000
1000
0000
0100
0000
0000
0000
0000
0010
0000
0001
0000
,
1000
0000
0001
0100
0001
0100
0000
0010
0000
1000
0000
0100
0010
0000
0001
0000
,
1000
0000
0010
0100
0010
0100
0000
0001
0000
1000
0000
0010
0100
0000
0001
0000
,
1000
0000
0100
0010
0100
0010
0000
0100
0000
1000
0000
0010
0100
0000
0001
0000
,
1001
0000
0001
0100
0000
0100
0000
0010
0000
0100
0010
1000
0001
0000
1000
0100
,
0020
0000
0000
0000
0130
0000
0010
0001
0200
0000
0000
0000
0310
0000
0100
0001
,
2000
0000
3001
0010
0000
0001
0000
0100
0000
1000
0000
0100
0000
0001
0000
0010
,
0000
0000
0000
0000
0000
0000
0000
0000
0000
0000
0000
0000
0100
0000
0000
0000
0000
0000
0010
0000
0000
0000
0000
0000
0001
0000
1000
0000
0000
0000
0001
0000
0000
0000
0000
0000
0100
0000
0000
0000
0000
0000
0010
0000
0000
1000
0000
0000
,
0200
0000
0000
0000
0000
0000
0300
0110
0000
0011
0000
0110
0000
1100
0000
0000
,
0001
0100
0010
1000
0001
0010
0100
0010
0001
1000
0010
0100
0001
0010
0100
1000
,
0001
1000
0001
0010
0100
0010
0001
0100
0010
1000
0100
0010
0100
1000
0001
0100
,
0010
0000
0100
0001
1000
0000
0100
0010
0000
0001
0100
0000
0010
0000
0100
0000
,
0001
0000
1000
0100
0000
0010
0000
0200
0000
0000
0000
0000
0000
0000
0000
0000
,
0300
0000
0000
0000
0010
0000
0001
0000
1000
0000
0010
0100
0000
0010
1000
0001
,
0000
0000
0000
0000
0010
0000
0001
0000
1000
0000
0010
0100
0000
0001
0000
0000
,
1000
0001
0100
0001
1000
0100
1000
0001
0100
0001
1000
0100
0010
0001
1000
0010
,
0100
0000
0000
0101
0000
0000
0022
0000
0000
0000
0000
0000
0000
0000
0000
0000
,
0033
0000
0001
0010
0001
1000
0010
0100
0000
0001
0000
0000
1000
0000
0100
0000
,
1000
0010
1000
0010
0000
0100
0000
0002
1000
0000
0000
0000
0003
0000
1000
0001
,
0010
0100
0010
0001
0100
0010
1000
0010
0100
0001
0010
0100
0010
0001
1000
0100
,
0010
0000
0100
0110
0000
0011
0000
0220
0000
0000
0000
0000
0000
0000
0330
0000
,
1001
0000
0000
1000
0001
0100
0001
0010
0000
0001
0000
0001
0000
1000
0000
0000
,
0010
0000
0000
0100
0000
0001
0000
0010
0001
0000
1000
0010
0000
0000
0000
0000
,
0000
0000
0000
0100
0010
1000
0001
0010
0000
0001
0000
0001
0000
1000
0000
0000
,
0110
0000
0000
1010
0000
0011
0000
2020
0000
0000
0000
0000
0000
0000
0000
0000
,
3030
0000
0000
1000
0001
0010
0100
0010
0000
0001
0000
0001
0000
0010
0000
0000
,
0001
0000
0000
1000
0000
0010
0000
0100
0001
0000
0010
0100
0000
0000
0000
0000
,
0000
0000
0000
0010
0001
1000
0010
0100
0000
0001
0000
0001
0000
0010
0000
0000
,
1001
0000
0000
1010
0000
0011
0000
2020
0000
0000
0000
0000
0000
0000
0000
0000
,
3030
0000
0000
1000
0001
0010
0100
0010
0001
0000
0000
1MM1
0000
0000
0001
0000
,
1000
0000
0000
0001
0010
0001
1000
0010
0100
0000
0000
1M1M
0000
0000
1000
0000
,
0010
0000
0000
1000
0001
0010
0100
0010
0001
0000
0000
1MM1
0000
0000
0001
0000
,
1000
0000
0000
0010
0000
0100
0000
0020
0000
0000
0000
0000
0000
0000
0000
0000
,
0030
0000
0000
0100
0010
1000
0001
0010
0100
0000
0000
1MM1
0000
1000
0100
0010
,
0001
0000
0000
1000
0001
0010
0001
0100
0010
0000
0000
1M1M
0000
1000
0010
0100
,
0001
0000
0000
1000
0001
0010
0001
1000
0100
0000
0000
1MM1
0000
0000
1000
0000
,
0010
0000
0000
0100
0000
0001
0000
1000
0000
0000
0000
0000
0100
0000
0010
0000
,
0200
0000
0000
0000
,
0300
0000
0000
0000
;

//---------------dance-single - ----------------
#NOTEDATA:;
#CHARTNAME:;
#STEPSTYPE:dance-single;
#DESCRIPTION:;
#CHARTSTYLE:;
#DIFFICULTY:Beginner;
#METER:15;
#RADARVALUES:0.108012,0.163970,0.036438,0.000000,0.000000,83.000000,79.000000,4.000000,0.000000,0.000000,0.000000,0.000000,0.000000,0.000000,0.108012,0.163970,0.036438,0.000000,0.000000,83.000000,79.000000,4.000000,0.000000,0.000000,0.000000,0.000000,0.000000,0.000000;
#CREDIT:;
#NOTES:
0000
0000
0000
0000
,
0000
0000
0000
0000
,
0000
0000
0000
0000
,
0000
0000
0000
0000
,
1000
0000
0000
0000
,
0001
0000
0000
0000
,
1000
0000
0000
0000
,
0010
0000
0100
0000
,
1001
0000
0000
0000
,
0001
0000
0000
0000
,
1000
0000
0000
0000
,
0010
0000
0010
0000
,
0100
0000
0000
0000
,
0001
0000
0000
0000
,
1000
0000
0000
0000
,
0100
0000
0100
0000
,
0000
1000
1000
0000
,
0000
0001
0001
0000
,
0000
1000
1000
0000
,
0010
0000
0100
0000
,
0000
0010
0010
0000
,
0000
0100
0100
0000
,
0000
0010
0010
0000
,
1000
0000
0001
0000
,
0110
0000
0000
0000
,
0000
0000
0000
0000
,
0000
0000
0000
0000
,
0000
0000
0000
0000
,
1000
0000
1000
0000
,
1000
0000
0000
0000
,
0001
0000
0000
0000
,
0010
0000
0000
0000
,
0001
0000
0000
0000
,
0100
0000
0000
0000
,
0010
0000
0010
0000
,
1000
0000
0000
0000
,
0000
0001
0000
0000
,
0000
1000
0000
0000
,
0010
0000
0100
0000
,
0001
0000
0000
0000
,
1000
0000
0000
0000
,
0001
0000
0000
0000
,
0100
0000
0010
0000
,
0100
0000
0000
0000
,
1001
0000
0000
0000
,
1000
0000
0000
0000
,
0001
0000
0000
0000
,
0010
0000
0001
0000
,
1000
0000
0000
0000
,
0100
0000
0000
0000
,
1000
0000
0000
0000
,
0001
0000
1000
0000
,
0000
0010
0010
0000
,
0000
0100
0100
0000
,
0000
0010
0010
0000
,
0100
0000
0010
0000
,
0000
1000
1000
0000
,
0000
0001
0001
0000
,
0000
1000
1000
0000
,
0001
0000
1000
0000
,
1001
0000
0000
0000
;
