#VERSION:0.83;
#TITLE:Oasis;
#SUBTITLE:;
#ARTIST:KaW;
#TITLETRANSLIT:;
#SUBTITLETRANSLIT:;
#ARTISTTRANSLIT:;
#GENRE:;
#ORIGIN:;
#CREDIT:;
#BANNER:Oasis.png;
#BACKGROUND:Oasis-bg.png;
#PREVIEWVID:;
#JACKET:Oasis-jacket.png;
#CDIMAGE:;
#DISCIMAGE:52347489_1062070263979596_9025070935782195200_n.png;
#LYRICSPATH:;
#CDTITLE:;
#MUSIC:Oasis.ogg;
#OFFSET:-0.845000;
#SAMPLESTART:27.327757;
#SAMPLELENGTH:13.241381;
#SELECTABLE:YES;
#BPMS:0.000=144.970;
#STOPS:;
#DELAYS:;
#WARPS:;
#TIMESIGNATURES:0.000=4=4;
#TICKCOUNTS:0.000=4;
#COMBOS:0.000=1;
#SPEEDS:0.000=1.000=0.000=0;
#SCROLLS:0.000=1.000;
#FAKES:;
#LABELS:0.000=Song Start;
#BGCHANGES:;
#KEYSOUNDS:;
#ATTACKS:
;

//---------------dance-single - ----------------
#NOTEDATA:;
#CHARTNAME:;
#STEPSTYPE:dance-single;
#DESCRIPTION:;
#CHARTSTYLE:;
#DIFFICULTY:Hard;
#METER:80;
#RADARVALUES:0.446404,0.627683,0.317012,0.117747,0.144920,345.000000,310.000000,35.000000,13.000000,0.000000,0.000000,0.000000,0.000000,0.000000,0.446404,0.627683,0.317012,0.117747,0.144920,345.000000,310.000000,35.000000,13.000000,0.000000,0.000000,0.000000,0.000000,0.000000;
#CREDIT:;
#NOTES:
// measure 0
0000
0000
0000
0000
,  // measure 1
0000
0000
0000
0000
,  // measure 2
0000
0000
0000
0000
,  // measure 3
0000
0000
0000
0000
,  // measure 4
0000
0000
0000
0000
,  // measure 5
0000
0000
0000
0000
,  // measure 6
0000
0000
0000
0000
,  // measure 7
0000
0000
0000
0000
,  // measure 8
1001
0000
0000
0001
0010
0000
0000
0001
,  // measure 9
0010
0000
0000
0000
0010
0000
0000
0000
0010
0000
0000
0001
0010
0000
0001
0000
,  // measure 10
0100
0000
0000
0010
0100
0000
0000
0010
,  // measure 11
0100
0000
0000
0000
0100
0000
0000
0000
0100
0000
0010
0000
1000
0000
0001
1000
,  // measure 12
0001
0000
0000
0100
0001
0000
0000
0100
,  // measure 13
0001
0000
0000
0000
0001
0000
0000
0000
0001
0000
0000
1000
0001
0000
0010
0000
,  // measure 14
0011
0000
0000
1000
1001
0000
0000
0001
,  // measure 15
1001
0000
0000
0000
0110
0000
0000
0000
0001
1000
0001
1000
0001
1000
0001
1000
,  // measure 16
0001
0000
1000
0001
0010
0000
0001
1000
,  // measure 17
0010
0000
0000
0000
0010
0000
0000
0000
0010
0000
0000
0100
0010
0000
1000
0000
,  // measure 18
0100
0000
0010
0001
0100
0000
0010
1000
,  // measure 19
0100
0000
0000
0000
0100
0000
0000
0000
0100
0000
1000
0000
0100
0000
0001
0100
,  // measure 20
0010
0000
0001
0100
0010
0000
0100
0001
,  // measure 21
0010
0000
0000
0000
0010
0000
0000
0000
0010
0000
0000
0100
0010
0000
0001
0000
,  // measure 22
1000
0000
1000
0100
0010
0000
0100
0010
,  // measure 23
0001
0000
0001
0000
1000
1000
0001
0010
,  // measure 24
0001
0002
0000
1000
2003
0000
3001
0000
,  // measure 25
0000
0000
0000
0000
0000
0000
1000
0000
0010
0000
0000
0010
0000
0000
0010
0000
,  // measure 26
0100
0200
0000
0001
0302
0000
0013
0000
,  // measure 27
0000
0000
0000
0000
0000
0000
0001
0000
0100
0000
0000
0010
0000
0000
1000
0000
,  // measure 28
0001
0002
0000
1000
2003
0000
3001
0000
,  // measure 29
0000
0000
0000
0000
0000
0000
0100
0000
0010
0000
0000
0010
0000
0000
0010
0000
,  // measure 30
1000
2000
0000
0100
3200
0000
0310
0000
,  // measure 31
0000
0000
0000
0000
1001
1001
1001
0000
,  // measure 32
0001
0100
0000
1000
0100
0000
1001
0000
,  // measure 33
0000
0000
0000
0000
0000
0000
1000
0000
0100
0000
0000
0001
0000
0000
0100
0000
,  // measure 34
1000
0010
0000
0001
0010
0000
1001
0000
,  // measure 35
0000
0000
0000
0000
0000
0000
0001
0000
1000
0000
0000
0010
0000
0000
0001
0000
,  // measure 36
1000
0010
0000
0001
0010
0000
1001
0000
,  // measure 37
0000
0000
0000
0000
0000
0000
1000
0000
0100
0000
0000
0001
0000
0000
0100
0000
,  // measure 38
1000
0010
0000
0001
0010
0000
1001
0000
,  // measure 39
0000
0000
0000
0000
0110
0110
0110
0000
,  // measure 40
2000
0000
0000
0100
0100
0000
0000
0100
,  // measure 41
0100
0000
0000
0000
0100
0000
0000
0000
3100
0000
0000
0100
1000
0000
0010
0000
,  // measure 42
0200
0000
0000
0010
0010
0000
0000
0010
,  // measure 43
0010
0000
0010
0000
0310
0100
0001
1001
,  // measure 44
1002
0000
0000
0010
0010
0000
0000
0010
,  // measure 45
0010
0000
0000
0000
0010
0000
0000
0000
0013
0000
0000
0001
0010
0000
0100
0000
,  // measure 46
2000
0000
0000
0001
0001
0000
0000
3001
,  // measure 47
1001
0000
0000
0000
0000
0000
0000
0000
1000
0001
1000
0001
1000
0001
1000
0001
,  // measure 48
1000
0000
0001
0100
1000
0000
1000
0100
,  // measure 49
0001
0000
0000
0000
0001
0000
0000
0000
0001
0000
0000
1000
0100
0000
1000
0000
,  // measure 50
0010
0000
1000
0100
0010
0000
0100
0010
,  // measure 51
0001
0000
0000
0000
0001
0000
0000
0000
0001
0000
1000
0000
0010
0000
0100
0010
,  // measure 52
0100
0000
0001
0100
1000
0000
1000
0100
,  // measure 53
0001
0000
0000
0000
0001
0000
0000
0000
0001
0000
0000
0100
0001
0000
0010
0000
,  // measure 54
0100
0000
0010
0001
0100
0000
0010
1000
,  // measure 55
0100
0000
0100
0000
0010
0001
0010
0001
,  // measure 56
1001
0000
0001
0100
0101
0000
0100
0001
,  // measure 57
0101
0000
0000
0000
1010
0000
0000
0000
0101
0000
0000
0010
1000
0000
0100
0000
,  // measure 58
0110
0000
0100
0010
0110
0000
0010
0100
,  // measure 59
0110
0000
0000
0000
1001
0000
0000
0000
0001
0000
0100
0000
0010
0000
1000
0001
,  // measure 60
1000
0000
0001
1000
1001
0000
1000
0001
,  // measure 61
1001
0000
0000
0000
0110
0000
0000
0000
1001
0000
0000
0010
0100
0000
0001
0000
,  // measure 62
0011
0000
0010
0001
0011
0000
0001
0010
,  // measure 63
0011
0000
0000
0000
1100
0000
0000
0000
0001
1000
0001
1000
0001
1000
0001
1000
,  // measure 64
0020
0000
0000
0000
,  // measure 65
0000
0000
0000
0000
,  // measure 66
0030
0000
0000
0000
;

//---------------dance-single - ----------------
#NOTEDATA:;
#CHARTNAME:;
#STEPSTYPE:dance-single;
#DESCRIPTION:;
#CHARTSTYLE:;
#DIFFICULTY:Challenge;
#METER:90;
#RADARVALUES:0.605557,0.666630,0.335127,0.235494,0.357770,468.000000,431.000000,37.000000,26.000000,10.000000,4.000000,0.000000,0.000000,0.000000,0.605557,0.666630,0.335127,0.235494,0.357770,468.000000,431.000000,37.000000,26.000000,10.000000,4.000000,0.000000,0.000000,0.000000;
#CREDIT:;
#NOTES:
// measure 0
0000
0000
0000
0000
,  // measure 1
0000
0000
0000
0000
,  // measure 2
0000
0000
0000
0000
,  // measure 3
0000
0000
0000
0000
,  // measure 4
1000
0000
0000
0010
1000
0000
0000
0010
,  // measure 5
1000
0000
0000
0000
1000
0000
0000
0000
1000
0000
0000
0010
1000
0000
0100
0000
,  // measure 6
1000
0000
0000
0001
1000
0000
0000
0001
,  // measure 7
1000
0000
1000
0000
0001
0001
0001
0010
,  // measure 8
0100
0000
0000
0000
0010
0000
0001
0100
0000
0100
0001
0000
1000
0000
0000
0000
,  // measure 9
0100
0000
0000
0000
0100
0000
0000
0000
0100
0000
0000
0010
0100
0000
1000
0000
,  // measure 10
0001
0000
0000
0000
1000
0000
0010
1000
0000
1000
0010
0000
0100
0000
0000
0000
,  // measure 11
0001
0000
0000
0000
0001
0000
0000
0000
0001
0000
0010
0000
0001
0000
0010
0001
,  // measure 12
1000
0000
0000
0000
0010
0000
0100
0010
0000
0010
0100
0000
0001
0000
0000
0000
,  // measure 13
1000
0000
0000
0000
1000
0000
0000
0000
1000
0000
0000
0001
1000
0000
0010
0000
,  // measure 14
1010
0000
0000
0001
0101
0000
0000
1000
,  // measure 15
1010
0000
0000
0000
0011
0000
0000
0000
0001
0100
0010
1000
0001
0100
0010
1000
,  // measure 16
0001
0000
1000
0100
0011
0000
0001
0100
,  // measure 17
1010
0000
0000
0000
0011
0000
0000
0000
1010
0000
M000
1000
0100
0000
0010
0000
,  // measure 18
0110
0000
0010
0100
1100
0000
1000
0100
,  // measure 19
0110
0000
0000
0000
0011
0000
0000
0000
0110
0000
0010
0000
0010
0000
0001
1000
,  // measure 20
0001
0000
1000
0100
0011
0000
0001
0010
,  // measure 21
1100
0000
0000
0000
0101
0000
0000
0000
1100
0000
0M00
0100
0010
0000
0001
0000
,  // measure 22
1000
0000
0010
1000
1100
0000
0010
0001
,  // measure 23
0101
0000
0001
0000
1000
0010
0100
0001
,  // measure 24
1000
2000
0000
0001
0002
0000
0010
0000
,  // measure 25
3003
0000
0000
0000
0000
0000
0001
0000
0100
0000
0000
0010
0000
0000
1000
0000
,  // measure 26
0001
0002
0000
0100
0200
0000
0010
0000
,  // measure 27
0303
0000
0000
0000
0000
0000
0001
0000
0010
0000
0100
1000
0000
0100
0010
0000
,  // measure 28
0001
0002
0000
1000
2000
0000
0010
0000
,  // measure 29
3003
0000
0000
0000
0000
0000
0010
0000
0100
0000
0001
0010
0000
0010
0100
0000
,  // measure 30
1000
2000
0000
0100
0200
0000
0010
0000
,  // measure 31
3300
0000
0000
0000
1001
M11M
1001
0000
,  // measure 32
0001
0000
1000
0000
0001
0010
0001
0000
1000
0000
0001
0000
1000
0000
0100
1000
,  // measure 33
0100
0000
1000
0000
0001
0000
0100
0000
0001
0000
1000
0000
0001
0010
0001
0010
,  // measure 34
0000
0000
0001
0000
1000
0010
1000
0000
0001
0000
0010
0000
0001
0000
1000
0100
,  // measure 35
1000
0000
0001
0000
0100
0000
0001
0000
1000
0000
0001
0100
0000
0010
1000
0000
,  // measure 36
0100
0000
1000
0000
0001
0100
0001
0000
0010
0000
0001
0000
0010
0000
0100
1000
,  // measure 37
0100
0000
0010
0000
0001
0000
1000
0010
1000
0000
0001
0000
0100
0010
0100
0010
,  // measure 38
0000
0000
1000
0000
0001
0010
0001
0000
0010
0000
0001
0000
1000
0000
0001
1000
,  // measure 39
0001
0000
0010
0100
0010
0000
0100
0000
1000
0100
0010
0001
1000
0100
0010
0001
,  // measure 40
0200
0000
0000
0301
0200
0000
0000
0301
,  // measure 41
0200
0000
0300
0000
0200
0000
0300
0000
0200
0000
0300
0010
1000
0000
0100
0000
,  // measure 42
0020
0000
0000
0130
0020
0000
0000
0130
,  // measure 43
0020
0030
0020
0030
0010
0010
0010
0110
,  // measure 44
1002
0000
0000
0103
2000
0000
0000
3100
,  // measure 45
0002
0000
0003
0000
0002
0000
0003
0000
0002
0000
0003
0100
0001
0000
0010
0000
,  // measure 46
0200
0000
0000
0310
0200
0000
0000
0310
,  // measure 47
2002
3003
M11M
1MM1
,  // measure 48
1001
0000
1000
0000
0001
0000
0010
0001
0100
0000
0010
0000
1000
0000
0010
0100
,  // measure 49
0001
0000
0000
0000
0011
0000
0000
0000
1010
0000
M000
1000
0100
0000
0010
0000
,  // measure 50
0001
0000
0100
0000
0010
0000
1000
0001
0010
0000
0100
0000
0010
0000
0001
1000
,  // measure 51
0100
0000
0000
0000
0110
0000
0000
0000
0011
0000
0001
0000
0001
0000
1000
0001
,  // measure 52
0100
0000
0010
0000
1000
0000
0001
0010
0100
0000
0010
0000
0001
0000
1000
0100
,  // measure 53
0010
0000
0000
0000
0110
0000
0000
0000
0011
0000
00M0
0010
0100
0000
1000
0000
,  // measure 54
1001
0000
1000
0000
0010
0000
0100
0001
0010
0000
0100
0000
1000
0000
0010
0100
,  // measure 55
0001
0000
0101
0000
0011
0010
0010
0001
,  // measure 56
1000
0000
0001
0000
0100
0010
1000
0000
0100
0010
0001
0000
1000
0000
0001
1000
,  // measure 57
0001
0000
0010
0001
0010
0000
0100
0000
1000
0000
0010
0000
0100
0001
0100
0001
,  // measure 58
0000
0000
0100
0000
0010
1000
0010
0000
0100
0000
0001
0000
0010
0000
0100
0010
,  // measure 59
0001
0000
1000
0001
0100
0000
0010
1000
0001
0000
0010
0000
0100
0010
0100
0010
,  // measure 60
0000
0000
0100
0000
1000
0100
1000
0000
0010
0000
0100
0000
0001
0000
1000
0001
,  // measure 61
0010
0000
0100
0010
0001
0000
0001
1000
0010
0000
0100
0000
0001
1000
0001
1000
,  // measure 62
0000
0000
0010
0000
0100
0010
1000
0000
0100
0000
0010
0000
0001
0000
1000
0100
,  // measure 63
0010
0000
0100
0000
1000
0000
0010
0000
0100
0010
1000
0001
0100
0010
1000
0001
,  // measure 64
0100
0000
0000
0000
;

//---------------dance-single - ----------------
#NOTEDATA:;
#CHARTNAME:;
#STEPSTYPE:dance-single;
#DESCRIPTION:;
#CHARTSTYLE:;
#DIFFICULTY:Medium;
#METER:55;
#RADARVALUES:0.355830,0.405775,0.081517,0.144920,0.054345,275.000000,266.000000,9.000000,16.000000,0.000000,0.000000,0.000000,0.000000,0.000000,0.355830,0.405775,0.081517,0.144920,0.054345,275.000000,266.000000,9.000000,16.000000,0.000000,0.000000,0.000000,0.000000,0.000000;
#CREDIT:;
#NOTES:
// measure 0
0000
0000
0000
0000
,  // measure 1
0000
0000
0000
0000
,  // measure 2
0000
0000
0000
0000
,  // measure 3
0000
0000
0000
0000
,  // measure 4
0000
0000
0000
0000
,  // measure 5
0000
0000
0000
0000
,  // measure 6
0000
0000
0000
0000
,  // measure 7
0000
0000
0000
0000
,  // measure 8
1001
0001
0010
0001
,  // measure 9
1000
0000
0000
0000
1000
0000
0000
0000
1000
0000
0000
0010
1000
0000
0100
0000
,  // measure 10
1000
1000
0001
0001
,  // measure 11
0100
0000
0010
0000
1000
0000
0001
1000
,  // measure 12
1001
1000
0001
0001
,  // measure 13
0010
0000
0000
0000
0100
0000
0000
0000
1000
0000
0000
0100
1000
0000
0010
0000
,  // measure 14
0100
0000
0000
0010
0100
0000
0000
0010
,  // measure 15
0100
0000
0100
0000
0010
0100
0001
1000
,  // measure 16
0010
0000
0000
0100
0001
0000
0000
0100
,  // measure 17
0001
0000
0000
0000
0001
0000
0000
0000
0001
0000
0000
1000
0001
0000
0010
0000
,  // measure 18
0100
0000
0000
1000
0100
0000
0000
1000
,  // measure 19
0100
0000
0100
0000
0010
0001
0010
0001
,  // measure 20
1000
0000
0000
0001
0100
0000
0000
0001
,  // measure 21
0100
0000
0000
0000
0100
0000
0000
0000
0100
0000
0000
0010
0100
0000
0001
0000
,  // measure 22
1000
0000
0000
0001
1000
0000
0000
0001
,  // measure 23
1000
0000
1000
0000
0100
1000
0010
0100
,  // measure 24
0002
0000
0000
0023
0000
0000
0130
0000
,  // measure 25
0000
0000
0000
0000
0000
0000
0010
0000
0001
0000
0000
1000
0000
0000
0010
0000
,  // measure 26
0100
0002
0000
0013
0200
0000
0310
0000
,  // measure 27
0000
0000
0000
0000
0000
0000
0100
0000
1000
0000
0000
0010
0000
0000
0001
0000
,  // measure 28
0020
0000
0000
2030
0000
0000
3001
0000
,  // measure 29
0000
0000
0000
0000
0000
0000
1000
0000
0010
0000
0000
0100
0000
0000
0001
0000
,  // measure 30
0010
0200
0000
1300
0020
0000
0130
0000
,  // measure 31
0000
0000
0000
0000
0010
0010
0010
0000
,  // measure 32
2000
3010
0200
0301
,  // measure 33
0010
0100
1000
0100
,  // measure 34
2000
3010
0200
0301
,  // measure 35
0010
0000
0000
0000
0100
0000
0000
0000
0010
0000
0000
0001
0000
0000
1000
0000
,  // measure 36
0002
1003
0200
0310
,  // measure 37
0100
1000
0010
0100
,  // measure 38
0002
0103
0020
1030
,  // measure 39
0100
0000
0010
0000
0001
0001
0001
0000
,  // measure 40
1000
0000
0000
0001
0100
0000
0000
0001
,  // measure 41
0100
0000
0100
0000
0100
0000
0010
1000
,  // measure 42
0100
0000
0000
0010
0100
0000
0000
0010
,  // measure 43
0100
0000
0100
0000
0010
0000
0100
1100
,  // measure 44
1001
0000
0000
0001
1000
0000
0000
0001
,  // measure 45
1000
1000
1000
0001
,  // measure 46
0100
0000
0000
0010
1000
0000
0000
0100
,  // measure 47
0110
0000
1001
0110
,  // measure 48
1001
0000
0000
0001
0010
0000
0000
0100
,  // measure 49
1000
0000
0000
0000
1000
0000
0000
0000
1000
0000
0000
0100
1000
0000
0010
0000
,  // measure 50
0100
0000
0000
0010
0100
0000
0000
0010
,  // measure 51
0100
0000
0100
0000
0010
0100
0001
1000
,  // measure 52
0001
0000
0000
0010
0001
0000
0000
0010
,  // measure 53
0001
0000
0000
0000
0001
0000
0000
0000
0001
0000
0000
0010
0001
0000
0010
0000
,  // measure 54
0100
0000
0000
0010
0100
0000
0000
0010
,  // measure 55
0001
0000
0001
0000
1000
0001
1000
0001
,  // measure 56
0100
0001
0100
0000
0010
0100
0010
0000
,  // measure 57
1000
0000
0000
0000
1000
0000
0000
0000
1000
0000
0000
0001
1000
0000
0010
0000
,  // measure 58
0100
0001
0100
0000
0010
1000
0010
0000
,  // measure 59
1000
0000
1000
0000
0001
0010
0100
1000
,  // measure 60
0001
0000
1000
0001
0100
0000
0001
1000
,  // measure 61
0100
0000
0000
0000
0100
0000
0000
0000
0100
0000
0000
0010
0100
0000
1000
0000
,  // measure 62
0010
0000
1000
0001
0010
0000
0001
1000
,  // measure 63
0010
0000
0010
0000
0100
0100
0010
1000
,  // measure 64
1001
0000
0000
0000
;

//---------------dance-single - ----------------
#NOTEDATA:;
#CHARTNAME:;
#STEPSTYPE:dance-single;
#DESCRIPTION:;
#CHARTSTYLE:;
#DIFFICULTY:Easy;
#METER:35;
#RADARVALUES:0.274312,0.376791,0.244552,0.108690,0.000000,212.000000,185.000000,27.000000,12.000000,0.000000,0.000000,0.000000,0.000000,0.000000,0.274312,0.376791,0.244552,0.108690,0.000000,212.000000,185.000000,27.000000,12.000000,0.000000,0.000000,0.000000,0.000000,0.000000;
#CREDIT:;
#NOTES:
// measure 0
0000
0000
0000
0000
,  // measure 1
0000
0000
0000
0000
,  // measure 2
0000
0000
0000
0000
,  // measure 3
0000
0000
0000
0000
,  // measure 4
0000
0000
0000
0000
,  // measure 5
0000
0000
0000
0000
,  // measure 6
0000
0000
0000
0000
,  // measure 7
0000
0000
0000
0000
,  // measure 8
1001
0000
0001
0000
,  // measure 9
1000
1000
1000
0001
,  // measure 10
0100
0000
0100
0000
,  // measure 11
0100
0100
0010
1000
,  // measure 12
1001
0000
0001
0000
,  // measure 13
0001
0001
0001
0010
,  // measure 14
1001
0000
1001
0000
,  // measure 15
0110
0110
1001
0110
,  // measure 16
1000
0001
0010
0001
,  // measure 17
1000
0000
0100
0000
0010
0001
0010
0000
,  // measure 18
0001
0100
0001
1000
,  // measure 19
0100
0000
1000
0000
0010
0000
0100
0010
,  // measure 20
1000
0001
0010
0001
,  // measure 21
1000
0000
0100
0000
0010
0001
0010
0000
,  // measure 22
0001
1000
0010
0100
,  // measure 23
0001
0001
1000
1000
,  // measure 24
0002
0000
0000
2003
0000
0000
3001
0000
,  // measure 25
0000
0000
0001
0100
,  // measure 26
0020
0000
0000
0230
0000
0000
0310
0000
,  // measure 27
0000
0000
0100
0001
,  // measure 28
2000
0000
0000
3020
0000
0000
0130
0000
,  // measure 29
0000
0000
0010
1000
,  // measure 30
0002
0000
0000
0023
0000
0000
0130
0000
,  // measure 31
0000
0000
0000
0000
0001
1000
0001
0000
,  // measure 32
1010
1000
1001
0110
,  // measure 33
0000
0000
0010
0100
,  // measure 34
0101
0001
1001
1100
,  // measure 35
0000
0000
1000
0001
,  // measure 36
0101
0001
0011
1100
,  // measure 37
0000
0000
0100
1000
,  // measure 38
1010
0010
0110
1001
,  // measure 39
0000
0000
0000
0000
1000
0001
1000
0000
,  // measure 40
0002
0000
0000
0000
,  // measure 41
0000
0000
0000
0003
,  // measure 42
2000
0000
0000
0000
,  // measure 43
0000
0000
0000
0000
0000
0000
0000
3010
,  // measure 44
0200
0000
0000
0000
,  // measure 45
0000
0000
0000
0000
,  // measure 46
0320
0000
0030
0000
,  // measure 47
0110
0000
1001
0110
,  // measure 48
1001
0001
0010
0001
,  // measure 49
1000
0000
0100
0000
0010
0100
0010
0000
,  // measure 50
0100
1000
0010
0100
,  // measure 51
0001
0000
1000
0000
0001
0000
1000
0001
,  // measure 52
1000
0001
0010
0001
,  // measure 53
1000
0000
0100
0000
0010
0100
0010
0000
,  // measure 54
0100
1000
0010
0100
,  // measure 55
0001
0000
1000
0000
0001
0000
0010
0001
,  // measure 56
0010
0100
1000
0010
,  // measure 57
0100
0000
0100
0000
0100
0000
0010
0100
,  // measure 58
0001
1000
0100
1000
,  // measure 59
0010
0000
0100
0000
0001
0000
1000
0001
,  // measure 60
0010
0001
0010
0001
,  // measure 61
0100
0000
0010
0000
1000
0001
1000
0000
,  // measure 62
0001
0010
0001
0100
,  // measure 63
0010
0100
1001
0110
,  // measure 64
1001
0000
0000
0000
;

//---------------dance-single - ----------------
#NOTEDATA:;
#CHARTNAME:;
#STEPSTYPE:dance-single;
#DESCRIPTION:;
#CHARTSTYLE:;
#DIFFICULTY:Beginner;
#METER:15;
#RADARVALUES:0.098338,0.202888,0.054345,0.000000,0.000000,76.000000,70.000000,6.000000,0.000000,0.000000,0.000000,0.000000,0.000000,0.000000,0.098338,0.202888,0.054345,0.000000,0.000000,76.000000,70.000000,6.000000,0.000000,0.000000,0.000000,0.000000,0.000000,0.000000;
#CREDIT:;
#NOTES:
// measure 0
0000
0000
0000
0000
,  // measure 1
0000
0000
0000
0000
,  // measure 2
0000
0000
0000
0000
,  // measure 3
0000
0000
0000
0000
,  // measure 4
0000
0000
0000
0000
,  // measure 5
0000
0000
0000
0000
,  // measure 6
0000
0000
0000
0000
,  // measure 7
0000
0000
0000
0000
,  // measure 8
0010
0000
0000
0000
,  // measure 9
0000
0000
0000
0000
,  // measure 10
0100
0000
0000
0000
,  // measure 11
0000
0000
0000
0000
,  // measure 12
0001
0000
0000
0000
,  // measure 13
0000
0000
0000
0000
,  // measure 14
1000
0000
1000
0000
,  // measure 15
1000
1000
1000
0000
,  // measure 16
1001
0000
0010
0000
,  // measure 17
0100
0000
0000
0000
,  // measure 18
1000
0000
1000
0000
,  // measure 19
0001
0000
0000
0000
,  // measure 20
0010
0000
0001
0000
,  // measure 21
0010
0000
0000
0000
,  // measure 22
0100
0000
0100
0000
,  // measure 23
1000
0000
0000
0000
,  // measure 24
1001
0000
0000
0000
,  // measure 25
0000
0000
0000
0000
,  // measure 26
0110
0000
0000
0000
,  // measure 27
0000
0000
0010
0000
,  // measure 28
1001
0000
0000
0000
,  // measure 29
0000
0000
0000
0000
,  // measure 30
0110
0000
0000
0000
,  // measure 31
0000
0000
0100
0100
,  // measure 32
0010
0000
0000
0000
,  // measure 33
1000
0000
0000
0000
,  // measure 34
0001
0000
0000
0000
,  // measure 35
0010
0000
0001
0000
,  // measure 36
1000
0000
0000
0000
,  // measure 37
0100
0000
0000
0000
,  // measure 38
1000
0000
0000
0000
,  // measure 39
0001
0000
0100
0100
,  // measure 40
0100
0000
0000
0000
,  // measure 41
0000
0000
0000
0000
,  // measure 42
0010
0000
0000
0000
,  // measure 43
0000
0000
0000
0000
,  // measure 44
1000
0000
0000
0000
,  // measure 45
0000
0000
0000
0000
,  // measure 46
0001
0000
0000
0000
,  // measure 47
1000
0000
0001
1000
,  // measure 48
0001
0000
0001
0000
,  // measure 49
0001
0000
0000
0000
,  // measure 50
1000
0000
1000
0000
,  // measure 51
1000
0000
0000
0000
,  // measure 52
0010
0000
0010
0000
,  // measure 53
0010
0000
0000
0000
,  // measure 54
0100
0000
0100
0000
,  // measure 55
0100
0000
0000
0000
,  // measure 56
0001
0000
1000
0000
,  // measure 57
0001
0000
0000
0000
,  // measure 58
0100
0000
0010
0000
,  // measure 59
0100
0000
0000
0000
,  // measure 60
0010
0000
1000
0000
,  // measure 61
0010
0000
0000
0000
,  // measure 62
0100
0000
0001
0000
,  // measure 63
0100
0000
0000
0000
,  // measure 64
1001
0000
0000
0000
;
