#VERSION:0.83;
#TITLE:No Routine;
#SUBTITLE:;
#ARTIST:A-One;
#TITLETRANSLIT:;
#SUBTITLETRANSLIT:;
#ARTISTTRANSLIT:;
#GENRE:;
#ORIGIN:;
#CREDIT:;
#BANNER:No Routine.png;
#BACKGROUND:No Routine-bg.png;
#PREVIEWVID:;
#JACKET:No Routine-jacket.png;
#CDIMAGE:;
#DISCIMAGE:;
#LYRICSPATH:;
#CDTITLE:;
#MUSIC:No Routine.ogg;
#OFFSET:-1.503000;
#SAMPLESTART:52.945000;
#SAMPLELENGTH:15.000000;
#SELECTABLE:YES;
#BPMS:0.000=163.000;
#STOPS:32.000=1.104,
233.000=1.104;
#DELAYS:;
#WARPS:;
#TIMESIGNATURES:0.000=4=4;
#TICKCOUNTS:0.000=4;
#COMBOS:0.000=1;
#SPEEDS:0.000=1.000=0.000=0;
#SCROLLS:0.000=1.000;
#FAKES:;
#LABELS:0.000=Song Start;
#BGCHANGES:;
#KEYSOUNDS:;
#ATTACKS:
;

//---------------dance-single - ----------------
#NOTEDATA:;
#CHARTNAME:;
#STEPSTYPE:dance-single;
#DESCRIPTION:;
#CHARTSTYLE:;
#DIFFICULTY:Hard;
#METER:90;
#RADARVALUES:0.464934,0.663219,0.228389,0.356857,0.214114,456.000000,424.000000,32.000000,50.000000,0.000000,0.000000,0.000000,0.000000,0.000000,0.464934,0.663219,0.228389,0.356857,0.214114,456.000000,424.000000,32.000000,50.000000,0.000000,0.000000,0.000000,0.000000,0.000000;
#CREDIT:;
#NOTES:
// measure 0
0000
0000
0000
0000
,  // measure 1
0000
0000
0000
0000
,  // measure 2
0000
0000
0000
0000
,  // measure 3
0000
0000
0000
0000
,  // measure 4
0110
0000
0000
0000
,  // measure 5
0000
0000
0000
0000
0000
0000
0000
0000
0000
0000
0000
0000
0001
0100
0001
0020
,  // measure 6
0000
0030
0000
0000
,  // measure 7
0001
0000
1000
0001
1000
0000
0001
0000
1000
0001
1000
0000
0001
0000
1000
0001
,  // measure 8
1000
0000
0000
0000
0001
0000
0010
0001
0000
1000
0000
0001
0000
0000
1000
0000
,  // measure 9
0010
0000
0100
0000
0001
0000
1000
0001
0000
0010
0000
0001
0000
0000
0010
0000
,  // measure 10
0100
0000
1000
0000
0001
0000
1000
0010
0000
1000
0000
0010
0000
0000
0100
0000
,  // measure 11
0010
0000
1000
0000
0001
0000
1000
0010
0000
1000
0000
0100
0000
1000
0010
0000
,  // measure 12
0100
0000
0001
0000
1000
0000
0001
0100
0000
0100
0000
0010
0000
0000
0100
0000
,  // measure 13
0010
0000
1000
0000
0001
0000
1000
0100
0000
0100
0000
0010
0000
0000
0100
0000
,  // measure 14
0010
0000
0001
0000
1000
0000
0001
0100
0000
0100
0000
0010
0000
0000
0100
0000
,  // measure 15
0010
0000
1000
0000
0001
1000
0000
0010
0000
0100
0000
0001
0000
0010
0200
0000
,  // measure 16
0000
0300
2002
3003
1000
0001
0010
0001
,  // measure 17
0000
0001
0000
1000
0000
0010
0000
1000
,  // measure 18
0000
0001
0000
0000
1000
0100
1000
0000
,  // measure 19
0010
1000
0001
0100
0010
1000
0000
0002
,  // measure 20
0000
0000
0003
0000
1000
0100
0001
0100
,  // measure 21
0000
0010
0000
0001
0000
0100
0000
0010
,  // measure 22
0000
0101
0000
0000
0001
1000
0010
0100
,  // measure 23
0000
0010
0000
0100
0000
0001
0000
1000
,  // measure 24
0000
0000
0001
0010
0100
1000
0100
0000
,  // measure 25
1000
0010
0100
0001
0100
0002
0000
0000
,  // measure 26
0003
0000
1000
0100
0010
0100
1000
0000
,  // measure 27
0001
1000
0010
0001
0010
0200
0000
0000
,  // measure 28
0300
0000
0010
0100
0001
1000
0100
0010
,  // measure 29
0100
1000
0001
0010
0100
0010
0000
0001
,  // measure 30
0000
0100
0020
0000
0000
1030
0000
0000
,  // measure 31
0100
0000
0010
0000
0001
2000
0000
0000
,  // measure 32
0000
0000
3001
1000
0100
1000
0001
0100
,  // measure 33
0001
1000
0100
1000
0001
0100
1001
0000
,  // measure 34
0110
0000
0000
0000
1002
0000
0000
0000
0000
0000
1003
0000
0100
0000
0010
0001
,  // measure 35
0010
0001
0202
0000
0000
0000
0303
0000
,  // measure 36
0001
0000
0100
0000
0020
0000
0000
0000
0000
0000
0130
0000
0010
0000
1000
0001
,  // measure 37
1000
0001
0022
0000
0000
0000
0033
0000
,  // measure 38
1000
0100
0120
0000
0000
0031
0000
1000
,  // measure 39
0010
1000
0100
0010
0001
1000
0001
0000
,  // measure 40
1000
0010
0100
0000
0000
0001
0000
1000
,  // measure 41
0100
0010
0022
0000
0000
0000
0000
0000
,  // measure 42
0033
0000
0000
0000
2001
0000
0000
0000
0000
0000
3001
0000
0100
0000
0010
1000
,  // measure 43
0010
1000
2200
0000
0000
0000
3300
0000
,  // measure 44
0100
0000
0010
0000
0002
0000
0000
0000
0000
0000
0013
0000
0100
0000
0010
0100
,  // measure 45
0010
0001
2002
0000
0000
0000
3003
0000
,  // measure 46
0001
0100
0020
0000
0000
1030
0000
0010
,  // measure 47
0100
0001
0010
1000
0010
0001
0100
0000
,  // measure 48
0001
1000
0010
0000
0000
0100
0000
0010
,  // measure 49
1000
0000
0001
0000
1001
0000
0000
1000
0000
0000
1002
0000
0000
0000
0000
0000
,  // measure 50
0000
0013
0000
0000
,  // measure 51
0000
0000
0000
0000
,  // measure 52
0000
0000
0000
0000
,  // measure 53
0000
0000
0000
0000
0000
0000
0000
0000
0000
0000
0000
0000
0001
0010
0001
0010
,  // measure 54
0001
0010
0001
0010
0001
0000
1000
0010
0000
1000
0000
0100
0000
0000
0010
0000
,  // measure 55
0100
0000
1000
0000
0001
0000
0100
0001
0000
0010
0000
0001
0000
0000
0010
0000
,  // measure 56
0100
0000
1000
0000
0001
0000
1000
0010
0000
0001
0000
0010
0000
0000
0100
0000
,  // measure 57
0001
0000
1000
0000
0100
0001
0000
0100
0000
1000
0000
0100
0000
0010
0002
0000
,  // measure 58
0000
0000
1003
0000
0001
0100
0010
0100
,  // measure 59
0001
0000
1000
0100
0000
1100
0000
1000
,  // measure 60
0000
1001
0000
0001
1000
0100
0010
0100
,  // measure 61
1000
0000
0001
0000
1001
0100
0010
2002
,  // measure 62
0000
0000
3003
0000
1000
0100
1000
0010
,  // measure 63
1000
0001
0010
0100
0000
1000
0000
0010
,  // measure 64
0000
0100
0000
0001
0200
0000
0000
0310
,  // measure 65
0000
0000
0100
0000
0010
0000
2000
0002
,  // measure 66
0000
0000
0000
3003
1000
0001
0100
0001
,  // measure 67
1000
0100
1000
0001
0100
0001
1000
0100
,  // measure 68
1001
0000
0110
0000
1002
0000
0000
1003
,  // measure 69
0010
0000
0100
0001
0100
0000
0001
0000
0022
0000
0000
0000
0000
0000
0000
0000
,  // measure 70
0033
0000
0100
0010
0002
0000
0000
0013
,  // measure 71
0100
0000
1000
0001
1000
0000
0001
0000
0220
0000
0000
0000
0000
0000
0000
0000
,  // measure 72
0330
0000
0010
0100
1020
0000
0000
0130
,  // measure 73
0000
0010
1000
0001
0010
1000
0010
0001
,  // measure 74
1000
0000
0001
0100
0010
0000
0000
1000
,  // measure 75
0000
0100
0010
2002
0000
0000
0000
0000
,  // measure 76
0000
0000
3003
0000
0102
0000
0000
0103
,  // measure 77
0010
0000
1000
0010
1000
0000
0010
0000
0220
0000
0000
0000
0000
0000
0000
0000
,  // measure 78
0330
0000
0010
1000
0002
0000
0000
0013
,  // measure 79
0100
0000
0010
0100
0010
0000
0100
0000
2200
0000
0000
0000
0000
0000
0000
0000
,  // measure 80
3300
0000
0010
0001
1002
0000
0000
0103
,  // measure 81
0000
0010
1000
0010
1000
0100
0001
0100
,  // measure 82
1000
0000
0100
0010
0001
0000
0000
1000
,  // measure 83
0000
0000
0010
0000
1000
0000
0001
0000
0011
0000
0000
0100
0000
0000
1200
0000
,  // measure 84
0000
0000
0320
0000
,  // measure 85
0000
0000
0000
0000
,  // measure 86
0000
0000
0000
0000
,  // measure 87
0000
0000
0000
0000
,  // measure 88
0000
0000
0030
0000
;

//---------------dance-single - ----------------
#NOTEDATA:;
#CHARTNAME:;
#STEPSTYPE:dance-single;
#DESCRIPTION:;
#CHARTSTYLE:;
#DIFFICULTY:Challenge;
#METER:100;
#RADARVALUES:0.582187,1.042202,0.192703,0.442503,0.467483,571.000000,544.000000,27.000000,62.000000,0.000000,0.000000,0.000000,0.000000,0.000000,0.582187,1.042202,0.192703,0.442503,0.467483,571.000000,544.000000,27.000000,62.000000,0.000000,0.000000,0.000000,0.000000,0.000000;
#CREDIT:;
#NOTES:
// measure 0
0000
0000
0000
0000
,  // measure 1
0000
0000
0000
0000
,  // measure 2
0000
0000
0000
0000
,  // measure 3
0000
0000
0000
0000
,  // measure 4
0110
0000
0000
0000
,  // measure 5
0000
0000
0000
0000
0000
0000
0000
0000
0000
0000
0000
0000
0001
0100
0001
0020
,  // measure 6
0000
0030
0000
0000
,  // measure 7
0100
1000
0100
1000
0100
0000
0001
0100
0001
0100
0001
0000
0010
1000
0010
1000
,  // measure 8
0001
0000
0000
0000
1000
0000
0001
0100
0000
0001
0000
0010
0000
0100
0010
0100
,  // measure 9
0010
0001
1000
0001
1000
0000
0010
1000
0000
0010
0000
0100
0000
0010
1000
0010
,  // measure 10
1000
0001
0100
0001
0010
0000
0100
0010
0000
0001
0000
1000
0000
0001
0100
0001
,  // measure 11
0100
0010
1000
0010
0100
0000
0010
1000
0000
0001
0000
0010
0000
0000
0100
0010
,  // measure 12
0001
1000
0001
0000
1000
0000
0010
0100
0000
0001
0000
0010
0000
0100
0010
0100
,  // measure 13
0010
0001
1000
0001
0100
0000
0010
1000
0000
0010
0000
0100
0000
0010
1000
0010
,  // measure 14
1000
0001
0100
0001
0010
0000
0100
0010
0000
0001
0000
1000
0000
0010
0100
0010
,  // measure 15
0100
0001
1000
0001
0010
0001
0000
1100
0000
0101
0000
1010
0000
0001
0200
0000
,  // measure 16
0000
0000
0301
0000
1000
0100
1000
0001
,  // measure 17
0000
1000
0000
0010
0000
0100
0000
0010
,  // measure 18
0000
1000
0000
0000
0001
0010
0001
1000
,  // measure 19
0010
0100
1000
0100
0001
2000
0000
0200
,  // measure 20
0000
0000
3300
0000
0001
0010
0001
1000
,  // measure 21
0000
0010
0000
0100
0000
0001
0000
1000
,  // measure 22
0000
1100
0000
0000
0001
1000
0100
1000
,  // measure 23
0000
0002
0000
0203
0000
2300
0000
0200
,  // measure 24
0000
3300
1000
0100
0010
1000
0001
0000
,  // measure 25
1000
0010
2000
3002
2003
0002
0000
0000
,  // measure 26
3003
0000
1000
0100
0010
0001
1000
0000
,  // measure 27
0001
1000
1001
0001
1000
1001
0000
0000
,  // measure 28
0000
0000
1000
0100
0010
0001
1000
0001
,  // measure 29
0100
0010
2000
3002
0023
0032
0000
0010
,  // measure 30
0000
0013
0200
0000
0000
1300
0000
0000
,  // measure 31
0010
0000
0100
0000
0001
2000
0000
0000
,  // measure 32
0000
0000
0000
0000
3001
1000
0100
1000
0001
0100
0001
1000
0100
1000
0001
0100
,  // measure 33
0001
0000
0000
1000
0000
0000
0010
0000
0000
1000
0000
0000
0001
0000
0000
0010
0000
0000
0001
0000
0000
1000
0000
0000
0010
0000
0000
1000
0000
0000
0001
0000
0000
1000
0000
0000
0001
0000
0000
0000
0000
0000
1000
0000
0001
0000
1000
0000
,  // measure 34
0001
0000
0000
0000
0000
0000
1000
0000
0001
0000
1000
0000
0002
0000
0000
0000
0000
0000
0000
0000
0000
0000
0000
0000
0013
0000
0000
0000
0000
0000
0100
0000
0000
0000
0000
0000
1000
0000
0000
0000
0000
0000
0001
0000
0000
0100
0000
0000
,  // measure 35
0001
0010
0002
0000
1000
0000
1003
0000
,  // measure 36
0100
0000
0010
0000
0002
0000
0000
0000
0103
0000
0010
0000
1000
0000
0100
1000
,  // measure 37
0100
1000
0020
0000
0100
0000
0130
0000
,  // measure 38
0010
1000
1002
0000
0000
0013
0000
0100
,  // measure 39
0010
0001
0100
1000
0100
0010
1000
0000
,  // measure 40
0001
1000
0200
0000
0000
0310
0000
0010
,  // measure 41
0001
1000
2002
0000
0000
0000
0000
0000
,  // measure 42
3003
0000
0000
0000
1020
0000
0000
0000
1030
0000
0001
0000
1000
0000
0100
0010
,  // measure 43
0100
1000
0020
0000
0100
0000
0130
0000
,  // measure 44
0001
0000
1000
0000
0200
0000
0000
0000
0310
0000
0100
0000
1000
0000
0001
1000
,  // measure 45
0001
0010
0002
0000
0100
0000
0103
0000
,  // measure 46
0010
1000
0100
0000
0000
0011
0000
0010
,  // measure 47
0001
1000
0010
0001
0010
1000
0001
0000
,  // measure 48
1000
0001
0200
0000
0000
0310
0000
0100
,  // measure 49
0010
0000
1000
0000
0011
0000
0000
0101
0000
0000
0022
0000
0000
0000
0000
0000
,  // measure 50
0000
0033
0002
0000
0103
0000
0001
0000
,  // measure 51
0100
0020
1030
0100
,  // measure 52
0010
0200
1300
0100
,  // measure 53
0010
0000
0000
0000
0002
0000
0000
0000
1003
0000
0000
0000
0001
0010
0001
0010
,  // measure 54
0001
0010
0001
0010
0001
0000
1000
0010
0000
1000
0000
0100
0000
0010
0001
0010
,  // measure 55
0001
1000
0001
0100
0010
0000
1000
0010
0000
0100
0000
0001
0000
0010
0100
0010
,  // measure 56
0100
0010
0001
1000
0010
0000
0100
0001
0000
0010
0000
0100
0000
0010
0001
0010
,  // measure 57
0001
1000
0010
0100
0001
0000
1000
0010
0000
0110
0000
1001
0000
0010
0200
0000
,  // measure 58
0000
0000
1300
0000
0001
0100
0010
0100
,  // measure 59
0001
0000
1000
0001
0020
0032
0203
0320
,  // measure 60
0000
0130
0000
0001
1000
0100
0010
0100
,  // measure 61
1000
0000
0001
0000
1001
0100
0010
1001
,  // measure 62
0000
0000
0000
0000
1000
0100
1000
0010
,  // measure 63
1000
0001
0010
0110
0000
0011
0000
0101
,  // measure 64
0000
0011
0000
0001
0200
0000
0000
0310
,  // measure 65
0000
0000
0100
0000
0010
0000
2000
0200
,  // measure 66
0000
0000
0000
0000
0000
0000
3300
0000
1000
0001
0010
0001
1000
0010
1000
0001
,  // measure 67
0010
0001
1000
0010
1000
0001
0100
0001
1000
0100
1000
0001
0100
0001
1000
0100
,  // measure 68
1000
0000
0000
0001
1000
0001
1000
0000
0000
1000
0001
1000
0001
0000
0000
0000
0000
0000
1000
0000
0000
0100
0000
0000
,  // measure 69
0010
0000
0001
0100
0001
0000
1000
0000
0020
0000
0000
0000
0100
0000
0000
0000
,  // measure 70
0130
0000
0010
1000
0200
0000
0310
0100
,  // measure 71
1000
0000
0001
0100
0001
0000
0100
0000
0020
0000
0000
0000
1000
0000
0000
0000
,  // measure 72
1030
0000
0001
1000
0200
0000
0000
0310
,  // measure 73
0000
0100
1000
0001
1000
0100
0001
0100
,  // measure 74
1000
0000
0001
1000
0020
0000
0000
0130
,  // measure 75
0000
0010
0100
0001
2002
0000
0000
0000
,  // measure 76
3003
0000
0000
0000
0201
0000
0310
1000
,  // measure 77
0100
0000
0010
0100
0010
0000
0100
0000
2000
0000
0000
0000
0001
0000
0000
0000
,  // measure 78
3001
0000
1000
0001
0200
0000
0310
0100
,  // measure 79
0001
0000
1000
0100
1000
0000
0001
0000
0200
0000
0000
0000
0010
0000
0000
0000
,  // measure 80
0310
0000
0100
0001
2000
0000
0000
3100
,  // measure 81
0000
1000
0100
1000
0001
0100
1000
0100
,  // measure 82
0001
0000
1000
0001
0010
0000
0000
0100
,  // measure 83
0000
0000
0010
0000
0100
0000
1000
0000
1001
0000
0000
0011
0000
0000
0102
0000
,  // measure 84
0000
0000
2003
0000
,  // measure 85
0000
0000
3200
0000
,  // measure 86
0000
0000
0320
0000
,  // measure 87
0000
0000
0002
0000
,  // measure 88
0000
0000
0033
0000
;

//---------------dance-single - ----------------
#NOTEDATA:;
#CHARTNAME:;
#STEPSTYPE:dance-single;
#DESCRIPTION:;
#CHARTSTYLE:;
#DIFFICULTY:Medium;
#METER:75;
#RADARVALUES:0.366034,0.568474,0.114194,0.221252,0.046391,359.000000,343.000000,16.000000,31.000000,0.000000,0.000000,0.000000,0.000000,0.000000,0.366034,0.568474,0.114194,0.221252,0.046391,359.000000,343.000000,16.000000,31.000000,0.000000,0.000000,0.000000,0.000000,0.000000;
#CREDIT:;
#NOTES:
// measure 0
0000
0000
0000
0000
,  // measure 1
0000
0000
0000
0000
,  // measure 2
0000
0000
0000
0000
,  // measure 3
0000
0000
0000
0000
,  // measure 4
0110
0000
0000
0000
,  // measure 5
0000
0000
0000
0000
0000
0000
0000
0000
0000
0000
0000
0000
0001
0000
1000
0002
,  // measure 6
0000
0003
0000
0000
,  // measure 7
0100
0010
0100
0010
0100
0010
0100
0010
,  // measure 8
0100
0001
0010
0001
,  // measure 9
0100
0010
1000
0100
,  // measure 10
1000
0010
0100
0001
,  // measure 11
0010
0001
1000
0100
,  // measure 12
0010
0100
1000
0000
0100
0000
1000
0000
,  // measure 13
0010
0100
0001
0010
,  // measure 14
0001
0100
0001
1000
,  // measure 15
0100
0000
0000
0000
0010
0001
0000
0100
0000
0010
0000
1000
0000
0001
1000
0000
,  // measure 16
0000
0021
0130
0010
,  // measure 17
0001
0100
0010
1000
,  // measure 18
0001
0010
0001
1000
,  // measure 19
0100
0000
1000
0010
0100
0002
0000
0020
,  // measure 20
0000
0033
0100
0010
,  // measure 21
0001
1000
0010
0100
,  // measure 22
0001
1001
0000
0000
1000
0000
0010
0000
,  // measure 23
0100
0001
0000
0010
0000
1000
0000
0010
,  // measure 24
0000
1001
0010
1001
,  // measure 25
0100
0000
0001
0100
0001
0200
0000
0000
,  // measure 26
0300
1010
0010
0110
,  // measure 27
0100
0000
0001
0001
1000
0001
0000
0000
,  // measure 28
0000
1100
0100
0110
,  // measure 29
0010
0000
0001
1000
0001
1000
0000
0001
,  // measure 30
0000
0100
0020
0000
0000
1030
0000
0000
,  // measure 31
0100
0000
1000
0000
0010
0200
0000
0000
,  // measure 32
0000
0000
0301
1000
0010
1000
0001
0010
,  // measure 33
0001
1000
0010
1000
0001
0010
1001
0000
,  // measure 34
0110
0000
1001
0000
0000
1000
0010
0001
,  // measure 35
0010
1000
0002
0000
0000
0000
0003
0000
,  // measure 36
0010
0100
1000
0000
0000
0100
1000
0010
,  // measure 37
0001
0010
2000
0000
0000
0000
3000
0000
,  // measure 38
0001
1000
0200
0000
0000
0310
0000
0100
,  // measure 39
0010
0001
0100
0010
1000
0001
0010
0000
,  // measure 40
0100
0010
0001
0000
0000
0100
0000
0010
,  // measure 41
1000
0001
2002
0000
0000
0000
0000
0000
,  // measure 42
3003
0000
0020
0000
0000
1030
0001
0010
,  // measure 43
1000
0010
0002
0000
0000
0000
0003
0000
,  // measure 44
0010
0100
2000
0000
0000
3100
1000
0010
,  // measure 45
0001
0010
2000
0000
0000
0000
0000
3000
,  // measure 46
0001
0010
0100
0000
0000
0010
0000
0100
,  // measure 47
0010
0001
1000
0001
1000
0001
1000
0000
,  // measure 48
0001
0100
0010
0000
0000
1000
0000
0010
,  // measure 49
0100
0000
0001
0000
0010
0000
0000
0100
0000
0000
2000
0000
0000
0000
0000
0000
,  // measure 50
0000
3001
0000
0000
,  // measure 51
0000
0000
0000
0000
,  // measure 52
0000
0000
0000
0000
,  // measure 53
0000
0000
0000
0000
,  // measure 54
0000
1000
0001
0100
,  // measure 55
0010
0100
0001
0100
,  // measure 56
0010
1000
0100
0010
,  // measure 57
0100
0000
0000
0000
1000
0010
0000
0100
0000
0001
0000
1000
0000
0010
0200
0000
,  // measure 58
0000
0300
0100
1000
,  // measure 59
0010
0000
0100
0000
0010
0100
0001
1000
,  // measure 60
0000
0010
0000
0100
0001
0000
1000
0000
,  // measure 61
0010
0000
0100
0000
0010
0010
1000
0100
,  // measure 62
0000
0000
0010
0100
,  // measure 63
1000
0000
0001
0000
0100
0010
0100
0001
,  // measure 64
0000
0010
0000
0100
0010
0000
0000
0001
,  // measure 65
0000
0000
0010
0000
0100
0000
1000
0002
,  // measure 66
0000
0000
0000
0000
1003
0001
0010
0001
,  // measure 67
1000
0010
1000
0001
0010
0001
1000
0010
,  // measure 68
1010
0000
0101
0000
2001
0000
0000
3001
,  // measure 69
0010
1000
0010
0001
0200
0000
0000
0000
,  // measure 70
0300
0000
0010
1000
0200
0000
0000
1300
,  // measure 71
0010
0001
0010
1000
0020
0000
0000
0000
,  // measure 72
0030
0000
0100
0010
0002
0000
0000
0103
,  // measure 73
0000
0010
1000
0001
0010
0010
0001
0100
,  // measure 74
0010
0000
0100
0010
1000
0000
0000
0001
,  // measure 75
0000
1000
0100
0020
0000
0000
0000
0000
,  // measure 76
0000
0000
0030
0000
0200
0000
0000
0310
,  // measure 77
0001
0010
1000
0010
0200
0000
0000
0000
,  // measure 78
0300
0000
0010
0001
0100
0000
0000
0001
,  // measure 79
0100
1000
0100
0010
2000
0000
0000
0000
,  // measure 80
3000
0000
0010
1000
0002
0000
0000
0013
,  // measure 81
0000
0100
0010
0001
0010
0010
0001
0100
,  // measure 82
0010
0000
0100
0010
1000
0000
0000
0001
,  // measure 83
0000
0000
1000
0000
0100
0000
0010
0000
0100
0000
0000
1000
0000
0000
0020
0000
,  // measure 84
0000
0000
0230
0000
,  // measure 85
0000
0000
0000
0000
,  // measure 86
0000
0000
0000
0000
,  // measure 87
0000
0000
0000
0000
,  // measure 88
0000
0000
0300
0000
;

//---------------dance-single - ----------------
#NOTEDATA:;
#CHARTNAME:;
#STEPSTYPE:dance-single;
#DESCRIPTION:;
#CHARTSTYLE:;
#DIFFICULTY:Easy;
#METER:45;
#RADARVALUES:0.265094,0.392008,0.242663,0.171292,0.000000,260.000000,226.000000,34.000000,24.000000,0.000000,0.000000,0.000000,0.000000,0.000000,0.265094,0.392008,0.242663,0.171292,0.000000,260.000000,226.000000,34.000000,24.000000,0.000000,0.000000,0.000000,0.000000,0.000000;
#CREDIT:;
#NOTES:
// measure 0
0000
0000
0000
0000
,  // measure 1
0000
0000
0000
0000
,  // measure 2
0000
0000
0000
0000
,  // measure 3
0000
0000
0000
0000
,  // measure 4
2002
0000
0000
0000
,  // measure 5
0000
0000
0000
0000
,  // measure 6
3003
0000
0000
0000
,  // measure 7
0010
0000
0000
0010
0000
0000
0010
0000
,  // measure 8
0000
1000
0010
1000
,  // measure 9
0010
0100
0010
0100
,  // measure 10
0010
0100
0001
0100
,  // measure 11
0001
0010
0100
1000
,  // measure 12
0001
1000
0010
1000
,  // measure 13
0010
0100
0001
0100
,  // measure 14
0001
0010
0001
0010
,  // measure 15
0001
0010
0100
1000
,  // measure 16
0001
1001
0001
1000
,  // measure 17
0010
1000
0010
0100
,  // measure 18
0001
0010
0100
0010
,  // measure 19
0001
1000
0100
0020
,  // measure 20
0000
0130
0010
0001
,  // measure 21
0100
0010
1000
0001
,  // measure 22
0100
0001
0000
0000
1000
0000
0100
0000
,  // measure 23
1000
0010
1000
0001
,  // measure 24
0010
1001
1000
1001
,  // measure 25
0001
1001
1000
0010
,  // measure 26
0100
0101
0100
0101
,  // measure 27
0001
0101
1010
0000
,  // measure 28
0000
1100
0100
1100
,  // measure 29
1000
1100
0100
0010
,  // measure 30
0001
0000
1001
0000
0000
1000
0000
0000
,  // measure 31
0001
0000
0100
0000
0000
0002
0000
0000
,  // measure 32
0000
0003
2020
0000
0000
0000
0000
0000
,  // measure 33
0000
0000
0000
3000
,  // measure 34
0030
0110
0000
0010
,  // measure 35
1000
0002
0000
0003
,  // measure 36
0010
0001
0000
0010
,  // measure 37
0100
2000
0000
3000
,  // measure 38
0100
0000
1000
0000
0000
0010
0000
0000
,  // measure 39
0100
0010
1000
0001
,  // measure 40
0010
0000
0001
0000
0000
1000
0000
0000
,  // measure 41
0100
2002
0000
0000
,  // measure 42
3003
1001
0000
1000
,  // measure 43
0100
0020
0000
0000
,  // measure 44
0130
2000
0000
3001
,  // measure 45
1000
0020
0000
0000
,  // measure 46
0130
0000
0010
0000
0000
1000
0000
0000
,  // measure 47
0010
0100
0001
1000
,  // measure 48
0100
0000
1000
0000
0000
0010
0000
0000
,  // measure 49
0100
2002
0000
0000
,  // measure 50
0000
3003
0000
0000
,  // measure 51
0000
0000
0000
0000
,  // measure 52
0000
0000
0000
0000
,  // measure 53
0000
0000
0000
0000
,  // measure 54
0000
0001
0100
0010
,  // measure 55
1000
0010
0100
0001
,  // measure 56
1000
0100
1000
0010
,  // measure 57
0100
0001
1000
0001
,  // measure 58
0020
0030
0110
0010
,  // measure 59
0011
0001
1001
1000
,  // measure 60
0001
0100
0110
0010
,  // measure 61
1010
1000
1001
1001
,  // measure 62
0000
0000
0011
0010
,  // measure 63
0110
0100
1100
0100
,  // measure 64
1000
0000
0010
0000
0100
0000
0000
0010
,  // measure 65
0000
0000
1000
0000
0001
0000
0000
0010
,  // measure 66
0000
0000
0200
0000
,  // measure 67
0000
0000
0000
0000
,  // measure 68
0300
0000
1001
0000
,  // measure 69
0001
1000
0020
0000
,  // measure 70
0030
1000
0200
0000
,  // measure 71
1300
0010
0200
0000
,  // measure 72
0300
0000
0010
0000
1000
0000
0000
0001
,  // measure 73
0000
0010
0001
0001
,  // measure 74
1000
0000
0001
0000
0100
0000
0000
0010
,  // measure 75
0000
0100
0002
0000
,  // measure 76
0000
0003
0011
0000
,  // measure 77
0001
1000
0020
0000
,  // measure 78
0030
0100
0002
0000
,  // measure 79
0013
0100
2000
0000
,  // measure 80
3000
0000
0100
0000
1000
0000
0000
0010
,  // measure 81
0000
0100
0010
0010
,  // measure 82
0010
0000
1000
0000
0001
0000
0000
1000
,  // measure 83
0000
0010
0110
1001
,  // measure 84
0110
0000
1001
0000
;

//---------------dance-single - ----------------
#NOTEDATA:;
#CHARTNAME:;
#STEPSTYPE:dance-single;
#DESCRIPTION:;
#CHARTSTYLE:;
#DIFFICULTY:Beginner;
#METER:15;
#RADARVALUES:0.103998,0.180927,0.057097,0.000000,0.000000,102.000000,94.000000,8.000000,0.000000,0.000000,0.000000,0.000000,0.000000,0.000000,0.103998,0.180927,0.057097,0.000000,0.000000,102.000000,94.000000,8.000000,0.000000,0.000000,0.000000,0.000000,0.000000,0.000000;
#CREDIT:;
#NOTES:
// measure 0
0000
0000
0000
0000
,  // measure 1
0000
0000
0000
0000
,  // measure 2
0000
0000
0000
0000
,  // measure 3
0000
0000
0000
0000
,  // measure 4
0010
0000
0000
0000
,  // measure 5
0000
0000
0000
0000
,  // measure 6
0000
0000
0000
0000
,  // measure 7
1000
0000
0000
0000
,  // measure 8
0000
0001
0000
0000
,  // measure 9
0000
1000
0000
0000
,  // measure 10
0000
0010
0000
0000
,  // measure 11
0000
0100
0000
0000
,  // measure 12
0000
0010
0000
0000
,  // measure 13
0000
1000
0000
0000
,  // measure 14
0000
0001
0000
0000
,  // measure 15
0000
1001
0000
0000
,  // measure 16
0000
0010
0000
0000
,  // measure 17
0000
0000
0000
0000
,  // measure 18
0000
0100
0000
0000
,  // measure 19
0000
0010
0000
1000
,  // measure 20
0000
0001
0000
0000
,  // measure 21
0000
1000
0000
0000
,  // measure 22
0000
1001
0000
0000
,  // measure 23
0000
0010
0000
0000
,  // measure 24
0000
0100
0000
0100
,  // measure 25
0000
0100
0000
0000
,  // measure 26
0000
0010
0000
0010
,  // measure 27
0000
0010
0000
0000
,  // measure 28
0000
1000
0000
1000
,  // measure 29
0000
1000
0000
0000
,  // measure 30
0000
0001
0000
0000
,  // measure 31
0000
1000
0000
0000
,  // measure 32
0000
0110
0000
0000
,  // measure 33
0000
0000
0000
0010
,  // measure 34
0010
0010
0000
1000
,  // measure 35
0000
0001
0000
0000
,  // measure 36
0000
1000
0000
0001
,  // measure 37
0000
0100
0000
0000
,  // measure 38
0000
0010
0000
0000
,  // measure 39
0000
0100
0000
0000
,  // measure 40
0000
0001
0000
1000
,  // measure 41
0000
1001
0000
0000
,  // measure 42
0000
0100
0000
0010
,  // measure 43
0000
0100
0000
0000
,  // measure 44
0000
0001
0000
1000
,  // measure 45
0000
0001
0000
0000
,  // measure 46
0000
1000
0000
0000
,  // measure 47
0000
0010
0000
0000
,  // measure 48
0000
0100
0000
0000
,  // measure 49
0000
0001
0001
0001
,  // measure 50
0000
1001
0000
0000
,  // measure 51
0000
0000
0000
0000
,  // measure 52
0000
0000
0000
0000
,  // measure 53
0000
0000
0000
0000
,  // measure 54
0000
0010
0000
0000
,  // measure 55
0000
1000
0000
0000
,  // measure 56
0000
0001
0000
0000
,  // measure 57
0000
1001
0000
0000
,  // measure 58
0000
0000
0010
0000
,  // measure 59
0000
0000
0100
0000
,  // measure 60
0000
0000
0001
0000
,  // measure 61
0000
0000
1000
1000
,  // measure 62
0000
0000
0001
0000
,  // measure 63
0000
0000
1000
0000
,  // measure 64
0000
0000
0010
0000
,  // measure 65
0000
0000
0100
0000
,  // measure 66
0000
0000
1001
0000
,  // measure 67
0000
0000
0000
0000
,  // measure 68
0100
0100
0100
0000
,  // measure 69
0010
0000
1000
0000
,  // measure 70
0000
0000
0001
0000
,  // measure 71
0100
0000
0010
0000
,  // measure 72
0000
0000
1000
0000
,  // measure 73
0000
0000
0001
0000
,  // measure 74
0000
0000
0010
0000
,  // measure 75
0001
0000
0100
0000
,  // measure 76
0000
0000
0010
0000
,  // measure 77
1000
0000
0001
0000
,  // measure 78
0000
0000
1000
0000
,  // measure 79
0001
0000
0100
0000
,  // measure 80
0000
0000
0010
0000
,  // measure 81
0000
0000
0100
0000
,  // measure 82
0000
0000
0001
0000
,  // measure 83
0000
0000
1000
0000
,  // measure 84
0000
0000
0110
0000
;
