#VERSION:0.83;
#TITLE:NewAige;
#SUBTITLE:;
#ARTIST:BEMANI Sound Team "HuΣeR";
#TITLETRANSLIT:;
#SUBTITLETRANSLIT:;
#ARTISTTRANSLIT:HuΣeR;
#GENRE:;
#ORIGIN:;
#CREDIT:;
#BANNER:NewAige.png;
#BACKGROUND:NewAige-bg.png;
#PREVIEWVID:;
#JACKET:NewAige-jacket.png;
#CDIMAGE:;
#DISCIMAGE:;
#LYRICSPATH:;
#CDTITLE:cdtitle.png;
#MUSIC:NewAige.ogg;
#OFFSET:-0.186000;
#SAMPLESTART:24.540998;
#SAMPLELENGTH:14.999998;
#SELECTABLE:YES;
#BPMS:0.000=128.000;
#STOPS:;
#DELAYS:;
#WARPS:;
#TIMESIGNATURES:0.000=4=4;
#TICKCOUNTS:0.000=4;
#COMBOS:0.000=1;
#SPEEDS:0.000=1.000=0.000=0;
#SCROLLS:0.000=1.000;
#FAKES:;
#LABELS:0.000=Song Start;
#BGCHANGES:;
#KEYSOUNDS:;
#ATTACKS:
;

//---------------dance-single - ----------------
#NOTEDATA:;
#CHARTNAME:;
#STEPSTYPE:dance-single;
#DESCRIPTION:;
#CHARTSTYLE:;
#DIFFICULTY:Hard;
#METER:60;
#RADARVALUES:0.353015,0.433786,0.304411,0.205925,0.026860,276.000000,242.000000,34.000000,23.000000,0.000000,0.000000,0.000000,0.000000,0.000000,0.353015,0.433786,0.304411,0.205925,0.026860,276.000000,242.000000,34.000000,23.000000,0.000000,0.000000,0.000000,0.000000,0.000000;
#CREDIT:;
#NOTES:
// measure 0
0000
0000
0000
0000
,  // measure 1
0000
0000
0000
0000
,  // measure 2
0000
0000
0000
0000
,  // measure 3
0000
0000
0000
0000
,  // measure 4
0000
0000
0000
0000
,  // measure 5
1001
0000
0001
0010
0000
0000
0001
0001
,  // measure 6
1000
0000
0000
0000
0001
0000
0100
0000
0000
0000
0000
0010
0000
0000
0010
0000
,  // measure 7
0010
0000
1000
0100
0000
0000
0010
0010
,  // measure 8
0100
0000
1000
0010
0100
0000
0001
0000
,  // measure 9
2001
0010
0100
0010
,  // measure 10
0100
0010
0100
3000
,  // measure 11
0001
1000
0001
1000
0001
1000
0001
1000
,  // measure 12
0001
0000
0000
1000
0010
0000
0100
0000
0001
0000
0000
0000
1000
0000
0000
0000
,  // measure 13
0210
0000
0301
0000
1000
0001
0010
0000
,  // measure 14
0200
0000
0310
0000
0001
0010
0100
0000
,  // measure 15
0020
0000
0031
0000
1000
0100
0010
0000
,  // measure 16
0200
0000
0310
0000
0001
0010
0100
0000
,  // measure 17
2100
0000
3010
0000
1000
0001
0010
0000
,  // measure 18
0200
0000
0310
0000
0001
1000
0100
0000
,  // measure 19
0020
0000
0130
0000
0010
0001
0100
0000
,  // measure 20
0020
0130
1001
0110
,  // measure 21
1002
0000
0103
0000
0001
0100
0010
0000
,  // measure 22
0200
0000
0310
0000
0010
1000
0001
0000
,  // measure 23
0020
0000
0130
0000
0010
0001
1000
0000
,  // measure 24
0200
0000
1300
0000
0001
0010
1000
0000
,  // measure 25
1002
0000
0103
0000
0010
1000
0100
0000
,  // measure 26
0020
0000
0130
0000
0010
0001
1000
0000
,  // measure 27
0020
0000
0130
0000
0010
0100
0001
0000
,  // measure 28
2000
0000
0000
0000
3100
0000
0000
0000
0010
0000
0001
0100
0000
0000
0010
0000
,  // measure 29
1001
0000
1000
0000
,  // measure 30
0001
0000
0000
0000
0100
0010
0100
0000
,  // measure 31
0010
0000
1000
0000
,  // measure 32
0001
0000
0000
0000
0010
0001
0010
0000
,  // measure 33
0001
0000
0000
0000
1000
0000
0001
0000
0100
0000
0000
0200
0000
0000
0000
0000
,  // measure 34
0300
0000
0000
0000
0010
0000
0100
0000
0001
0000
0000
0002
0000
0000
0000
0000
,  // measure 35
0003
0000
0000
0000
1000
0000
0100
0000
0010
0000
0000
0020
0000
0000
0000
0000
,  // measure 36
0030
0000
0100
1000
0001
0000
1000
0000
,  // measure 37
2010
0100
0010
0100
,  // measure 38
0010
0100
0010
3100
,  // measure 39
1002
0100
0010
0100
,  // measure 40
0013
0000
0100
1000
0020
0000
0130
0000
,  // measure 41
1001
0001
0001
0000
,  // measure 42
1000
0001
0100
0001
,  // measure 43
0010
0010
0010
0000
,  // measure 44
0011
0000
0010
0100
1000
0000
0001
0000
,  // measure 45
1000
1100
1000
1001
,  // measure 46
0001
0101
0001
0011
,  // measure 47
0010
0110
0100
1100
,  // measure 48
1000
0010
0001
0010
0100
0001
1000
0100
,  // measure 49
0010
1100
1000
0101
,  // measure 50
1000
0011
0001
1010
,  // measure 51
1000
1100
1000
0011
,  // measure 52
1001
0000
1000
0010
0100
0001
1001
0000
,  // measure 53
1000
0001
0110
0000
0010
0000
0101
0000
,  // measure 54
0100
0110
0010
1001
,  // measure 55
1000
1100
0010
1001
,  // measure 56
0001
0100
0001
0010
1000
0010
0100
1000
,  // measure 57
1001
0000
0000
0000
;

//---------------dance-single - ----------------
#NOTEDATA:;
#CHARTNAME:;
#STEPSTYPE:dance-single;
#DESCRIPTION:;
#CHARTSTYLE:;
#DIFFICULTY:Challenge;
#METER:90;
#RADARVALUES:0.578126,0.613971,0.196972,0.277551,0.752075,452.000000,430.000000,22.000000,31.000000,4.000000,0.000000,0.000000,0.000000,0.000000,0.578126,0.613971,0.196972,0.277551,0.752075,452.000000,430.000000,22.000000,31.000000,4.000000,0.000000,0.000000,0.000000,0.000000;
#CREDIT:;
#OFFSET:-0.186000;
#BPMS:0.000000=128.000000
,4.000000=64.000000
,20.000000=128.000000
,192.000000=64.000000
,194.000000=128.000000
;
#STOPS:;
#DELAYS:;
#WARPS:;
#TIMESIGNATURES:0.000000=4=4
;
#TICKCOUNTS:0.000000=4
;
#COMBOS:0.000000=1
;
#SPEEDS:0.000000=1.000000=0.000000=0
;
#SCROLLS:0.000000=1.000000
;
#FAKES:;
#LABELS:0.000000=Song Start
;
#NOTES:
// measure 0
0000
0000
0000
0000
,  // measure 1
1001
0000
0000
0000
0000
0000
0000
0000
0001
0000
0000
0000
0000
0000
0000
0000
1000
0000
0000
0000
0010
0000
0000
0000
0100
0000
0000
0000
0001
0010
0000
0000
,  // measure 2
0100
0000
0010
0000
0001
1000
1010
0101
,  // measure 3
0011
0000
0000
0000
0001
0000
0001
0000
0000
0000
0000
0000
1000
0000
0001
0000
0100
0000
0000
0000
0010
0000
0010
0000
0000
0000
0000
0100
0000
0000
0010
0000
,  // measure 4
1000
0000
0000
0000
0001
0000
0001
0000
0000
0000
0000
0000
0010
0000
0100
0000
1000
0000
0000
0000
0100
0000
0100
0000
0010
0000
0000
0001
0000
0000
0000
0000
,  // measure 5
1000
0010
0100
0001
1000
0010
0100
0001
,  // measure 6
1000
0100
0010
0001
1000
0100
0020
0230
,  // measure 7
0310
0010
0100
0100
1000
1000
0001
0001
,  // measure 8
1000
0000
0000
0001
0100
0000
0010
0000
1000
0100
0010
0001
1000
0000
0000
0000
,  // measure 9
1002
0000
0000
0103
0000
0000
0000
0000
0010
1000
0010
0100
0000
0001
0100
0000
,  // measure 10
0020
0000
0000
0130
0000
0000
0010
0000
1000
0000
0001
1000
0000
1000
0100
0000
,  // measure 11
0020
0000
0000
0130
0000
0000
0010
0100
1000
0001
1000
0010
0000
1000
0001
0000
,  // measure 12
0020
0000
0000
0031
0000
0000
0010
0001
0100
0010
1000
0001
0000
1000
0100
0000
,  // measure 13
1002
0000
0000
0103
0000
0000
0000
0000
0001
1000
0100
1000
0000
0001
1000
0000
,  // measure 14
0020
0000
0000
0130
0000
0000
0001
0000
0100
0000
0010
1000
0000
1000
0100
0000
,  // measure 15
2000
0000
0000
3001
0000
0000
1000
0001
0100
0001
0010
0100
0000
0010
0001
0000
,  // measure 16
0200
0000
0000
0310
0000
0000
0000
0000
0100
0000
0010
1000
0000
0001
0010
0000
,  // measure 17
1200
0000
0000
0310
0000
0000
0000
0000
0100
0010
0001
1000
0000
0010
0100
0000
,  // measure 18
0002
0000
0000
0013
0000
0000
0100
0000
0010
0000
0001
0100
0000
0010
1000
0000
,  // measure 19
0020
0000
0000
0130
0000
0000
0100
0010
1000
0100
0010
0100
0000
0010
0100
0000
,  // measure 20
0200
0000
0000
0310
0000
0000
0010
0001
1000
0010
0100
0001
0000
0001
1000
0000
,  // measure 21
1020
0000
0000
0130
0000
0000
0000
0000
0010
0100
0001
0010
0000
0100
0010
0000
,  // measure 22
0002
0000
0000
1003
0000
0000
0010
0000
1000
0000
0010
0100
0000
0010
1000
0100
,  // measure 23
0020
0000
0000
0130
0000
0000
0000
0000
0010
0001
0100
0010
0000
1000
0001
0000
,  // measure 24
0020
0000
0000
0031
0000
0000
0000
0000
1100
0000
0010
0001
0000
0100
0010
0000
,  // measure 25
1001
0000
1000
0000
0000
1000
0000
0000
0000
0000
0001
0000
0000
0001
0000
0000
,  // measure 26
0000
0000
0100
0000
0000
0100
0000
0000
0010
0100
0010
1000
0000
0001
0010
0000
,  // measure 27
0000
0000
0100
0000
0000
0100
0000
0000
0000
0000
0010
0000
0000
0010
0000
0000
,  // measure 28
0000
0000
0001
0000
0000
0001
0000
0000
0000
0000
1000
0000
0000
0001
1000
0000
,  // measure 29
0110
0000
0000
0000
0100
0010
1000
0000
0001
0000
0000
0002
0000
0000
0000
0000
,  // measure 30
0000
0000
0000
0000
0013
0100
1000
0000
0100
0000
0000
2000
0000
0000
0010
0000
,  // measure 31
3010
0000
0000
0000
0100
0010
1000
0000
0100
0000
0000
0200
0000
0000
0000
0000
,  // measure 32
0000
0000
0000
0000
0310
0001
1000
0000
1001
0000
0000
0000
0110
0000
0000
0000
,  // measure 33
1001
0001
1000
0001
1000
0001
1000
0001
,  // measure 34
1000
0010
0100
0001
0010
0100
1000
0001
,  // measure 35
1000
0010
1000
0010
1000
0010
1000
0010
,  // measure 36
1000
1010
0101
0M0M
,  // measure 37
0001
0000
1000
0001
0000
0000
1000
0000
0000
0001
0000
1000
0000
0000
0000
0000
0000
0000
0000
0000
0001
1000
0000
0001
,  // measure 38
0000
0000
1000
0001
0000
1000
0000
0000
0001
1000
0000
0001
0000
0000
0001
1000
0000
0001
0000
0000
1000
0001
0000
0001
,  // measure 39
0100
0000
0010
1000
0000
0000
0010
0000
0000
0100
0000
0001
0000
0000
0000
0000
0000
0000
0000
0000
0010
0001
0000
0001
,  // measure 40
0200
0000
0000
0000
0310
0000
1000
0000
0100
0000
0000
0010
0000
0000
0000
0000
,  // measure 41
0010
0000
0000
0100
0000
0000
1001
0000
0000
0100
0000
0010
0000
0000
0000
0000
0000
0000
0000
0000
0010
0100
0000
0010
,  // measure 42
0000
0000
0100
0010
0000
0100
0000
0000
0010
0100
0000
0010
0000
0000
0100
0010
0000
0100
0000
0000
0010
1000
0000
1000
,  // measure 43
0001
0000
0001
0010
0000
0000
0100
0000
0000
0010
0000
0001
0000
0000
0000
0000
0000
0000
0000
0000
1000
0001
0000
0001
,  // measure 44
0100
0000
0001
1000
0200
0000
0310
0001
2000
0000
3001
0100
0020
0000
0130
0001
,  // measure 45
1001
0000
1000
0010
0000
0000
0100
0000
0000
0001
0000
0010
0000
0000
0000
0000
0000
0000
0000
0000
0010
0001
0000
1000
,  // measure 46
0000
0000
1000
0010
0000
0100
0000
0000
0010
1000
0000
0001
0000
0000
0010
0100
0000
1000
0000
0000
0001
1000
0000
1000
,  // measure 47
0001
0000
0010
0100
0000
0000
0010
0000
0000
0001
0000
0100
0000
0000
0000
0000
0000
0000
0000
0000
0010
1000
0000
1000
,  // measure 48
0001
0000
0000
0000
0000
0000
0000
0000
0000
0000
0000
0000
0000
0000
0000
0000
0000
0000
1000
0000
0000
0000
0000
0000
0010
0000
0000
0000
0000
0000
0000
0000
0000
0000
0000
0000
0100
0000
0000
0000
0000
0000
0000
0000
0000
0000
0000
0000
0001
0000
0000
0000
0000
0000
0000
0000
0000
0000
0000
0000
0011
0000
0000
0000
0000
0000
0000
0000
0000
0000
0000
0000
12MM
0000
0000
0000
0000
0000
0000
0000
0000
0000
0000
0000
0000
0000
0000
0000
0000
0000
0000
0000
0000
0000
0000
0000
0310
0000
0000
0000
0000
0000
0000
0000
0000
0000
0000
0000
0000
0000
0000
0000
0000
0000
0000
0000
0000
0000
0000
0000
0100
0000
0000
0000
0000
0000
0000
0000
0000
0000
0000
0000
0000
0000
0000
0000
0000
0000
0000
0000
0000
0000
0000
0000
1001
0000
0000
0000
0000
0000
0000
0000
0000
0000
0000
0000
0000
0000
0000
0000
0000
0000
0000
0000
0000
0000
0000
0000
1000
0000
0000
0000
0000
0000
0000
0000
0000
0000
0000
0000
0000
0000
0000
0000
0001
0000
0000
0000
0000
0000
0000
0000
,  // measure 49
0000
0000
0000
0000
0000
0000
0000
0000
0001
0010
0000
0100
0000
0000
0100
1000
0000
0010
0000
0000
0010
0100
0000
0001
,  // measure 50
0000
0000
0001
1000
0000
0100
0000
0000
0010
0001
0000
0001
1000
0000
0001
0100
0000
0000
0010
0000
0000
1000
0000
0100
,  // measure 51
0000
0000
0000
0000
0000
0000
0000
0000
0000
0000
0000
0000
0000
0000
0000
0000
0010
0000
0001
0000
0000
0000
0001
0000
1000
0000
0000
0000
0000
0000
1000
0000
0000
0100
0000
0000
0020
0000
0000
0000
0000
0000
0130
0000
0000
0010
0000
0000
,  // measure 52
0002
0000
0013
0100
2000
0000
3001
1000
2002
0000
0000
0000
3003
0000
0000
0000
;

//---------------dance-single - ----------------
#NOTEDATA:;
#CHARTNAME:;
#STEPSTYPE:dance-single;
#DESCRIPTION:;
#CHARTSTYLE:;
#DIFFICULTY:Medium;
#METER:45;
#RADARVALUES:0.282668,0.331719,0.232785,0.304411,0.000000,221.000000,195.000000,26.000000,34.000000,0.000000,0.000000,0.000000,0.000000,0.000000,0.282668,0.331719,0.232785,0.304411,0.000000,221.000000,195.000000,26.000000,34.000000,0.000000,0.000000,0.000000,0.000000,0.000000;
#CREDIT:;
#NOTES:
// measure 0
0000
0000
0000
0000
,  // measure 1
0000
0000
0000
0000
,  // measure 2
0000
0000
0000
0000
,  // measure 3
0000
0000
0000
0000
,  // measure 4
0000
0000
0000
0000
,  // measure 5
1001
0000
0001
0100
0000
0000
0001
0000
,  // measure 6
1000
0000
0100
1000
0000
0000
0100
0000
,  // measure 7
1001
0000
0010
0100
0000
0000
0100
0010
,  // measure 8
1000
0000
0001
1000
0200
0000
1300
0000
,  // measure 9
2002
0000
0000
0000
,  // measure 10
0000
0000
0000
3003
,  // measure 11
0220
0000
0000
0000
,  // measure 12
0330
0000
0100
0010
1000
0000
0001
0000
,  // measure 13
1002
1000
1000
1003
,  // measure 14
2001
0001
0001
3001
,  // measure 15
1002
1000
1000
1003
,  // measure 16
2001
3001
1002
1003
,  // measure 17
0120
0100
0100
0130
,  // measure 18
0210
0010
0010
0310
,  // measure 19
0120
0100
0100
0130
,  // measure 20
0210
0310
0120
0130
,  // measure 21
0102
0100
0100
0100
,  // measure 22
0100
0100
0100
0103
,  // measure 23
2010
0010
0010
0010
,  // measure 24
0010
0010
0010
3010
,  // measure 25
1002
1000
1000
1000
,  // measure 26
1000
1000
1000
1003
,  // measure 27
2001
0001
0001
0001
,  // measure 28
3002
1003
0020
0130
,  // measure 29
1001
0000
0001
0000
,  // measure 30
1000
0000
0000
0000
0010
0100
0010
0000
,  // measure 31
1000
0000
0001
0000
,  // measure 32
1000
0000
0000
0000
0100
0010
0100
0000
,  // measure 33
0010
0000
0001
0010
0200
0000
2000
0000
,  // measure 34
0000
3300
0100
1000
0020
0000
0200
0000
,  // measure 35
0330
0000
0010
1000
0002
0000
2000
0000
,  // measure 36
3003
0000
0001
0010
0100
0000
0010
0000
,  // measure 37
2002
0000
0000
0000
,  // measure 38
0000
0000
0000
3003
,  // measure 39
0210
0010
0010
0010
,  // measure 40
0310
1001
0110
0010
,  // measure 41
1000
0010
0100
0000
,  // measure 42
0010
1000
0001
0010
,  // measure 43
0001
0001
1000
0000
,  // measure 44
0001
0000
1000
0010
0100
0000
0001
0000
,  // measure 45
0010
1001
0001
0000
,  // measure 46
1000
0010
1000
0001
,  // measure 47
0010
0001
0100
0000
,  // measure 48
0010
0100
0001
1000
,  // measure 49
1001
0000
0001
0100
0000
0000
0010
1000
,  // measure 50
0100
0000
1000
0010
0000
0000
0100
0010
,  // measure 51
1000
0000
0001
0010
0000
0000
0100
0010
,  // measure 52
0001
0000
0001
0100
1000
0100
0001
0000
,  // measure 53
1000
0000
1001
0000
0000
0000
0001
1000
,  // measure 54
0010
0000
1000
0100
0000
0000
0010
0001
,  // measure 55
0100
0000
0010
1000
0000
0000
0001
0100
,  // measure 56
0020
0230
0302
2003
,  // measure 57
3001
0000
0000
0000
;

//---------------dance-single - ----------------
#NOTEDATA:;
#CHARTNAME:;
#STEPSTYPE:dance-single;
#DESCRIPTION:;
#CHARTSTYLE:;
#DIFFICULTY:Easy;
#METER:20;
#RADARVALUES:0.175228,0.255168,0.107439,0.107439,0.000000,137.000000,125.000000,12.000000,12.000000,0.000000,0.000000,0.000000,0.000000,0.000000,0.175228,0.255168,0.107439,0.107439,0.000000,137.000000,125.000000,12.000000,12.000000,0.000000,0.000000,0.000000,0.000000,0.000000;
#CREDIT:;
#NOTES:
// measure 0
0000
0000
0000
0000
,  // measure 1
0000
0000
0000
0000
,  // measure 2
0000
0000
0000
0000
,  // measure 3
0000
0000
0000
0000
,  // measure 4
0000
0000
0000
0000
,  // measure 5
1001
0001
0000
1000
,  // measure 6
0001
0100
0000
0001
,  // measure 7
1000
0100
0000
1000
,  // measure 8
0001
0100
0010
0000
,  // measure 9
2002
0000
0000
0000
,  // measure 10
0000
0000
0000
3003
,  // measure 11
0220
0000
0000
0000
,  // measure 12
0330
0000
0000
0000
,  // measure 13
1001
0000
0001
1000
,  // measure 14
0010
0000
1000
0000
,  // measure 15
0100
0000
1000
0001
,  // measure 16
1000
0000
0010
0100
,  // measure 17
0010
0000
0100
0000
,  // measure 18
0001
0000
0010
0001
,  // measure 19
1000
0000
0100
1000
,  // measure 20
0100
0000
1000
0001
,  // measure 21
0110
0000
0010
0100
,  // measure 22
0010
0000
1000
0000
,  // measure 23
0001
0000
0010
0001
,  // measure 24
0010
0000
0001
0100
,  // measure 25
0001
0000
1000
0000
,  // measure 26
0100
0000
1000
0010
,  // measure 27
1000
0000
0010
0000
,  // measure 28
0100
0000
0010
0100
,  // measure 29
0001
0000
0001
0000
,  // measure 30
0001
0000
0001
1000
,  // measure 31
0001
0000
0001
0000
,  // measure 32
0001
0000
0001
0100
,  // measure 33
0001
0010
0200
0000
,  // measure 34
0300
0010
0002
0000
,  // measure 35
0003
1000
0020
0000
,  // measure 36
0030
0100
0001
1000
,  // measure 37
0220
0000
0000
0000
,  // measure 38
0000
0000
0000
0330
,  // measure 39
2002
0000
0000
0000
,  // measure 40
0000
3000
0003
0000
,  // measure 41
1000
1000
1000
0000
,  // measure 42
0001
0000
1000
0000
,  // measure 43
0010
0010
0010
0000
,  // measure 44
0100
0010
1000
1001
,  // measure 45
0001
0011
0000
0001
,  // measure 46
0000
1000
0000
0010
,  // measure 47
0000
0100
0000
0001
,  // measure 48
1000
0100
0010
0001
,  // measure 49
1001
1000
0000
0001
,  // measure 50
0100
0001
0000
0010
,  // measure 51
0001
1000
0000
0010
,  // measure 52
0200
0000
0000
0000
,  // measure 53
0300
1001
0000
0001
,  // measure 54
1000
0010
0000
0100
,  // measure 55
0001
0010
0000
0001
,  // measure 56
1000
0100
0010
0001
,  // measure 57
1001
0000
0000
0000
;

//---------------dance-single - ----------------
#NOTEDATA:;
#CHARTNAME:;
#STEPSTYPE:dance-single;
#DESCRIPTION:;
#CHARTSTYLE:;
#DIFFICULTY:Beginner;
#METER:10;
#RADARVALUES:0.088254,0.127584,0.062673,0.000000,0.000000,69.000000,62.000000,7.000000,0.000000,0.000000,0.000000,0.000000,0.000000,0.000000,0.088254,0.127584,0.062673,0.000000,0.000000,69.000000,62.000000,7.000000,0.000000,0.000000,0.000000,0.000000,0.000000,0.000000;
#CREDIT:;
#NOTES:
// measure 0
0000
0000
0000
0000
,  // measure 1
1001
0000
0000
0000
,  // measure 2
0000
0000
0000
0000
,  // measure 3
0010
0000
0000
0000
,  // measure 4
0000
0000
0000
0000
,  // measure 5
0110
0000
0000
0000
,  // measure 6
1000
0000
0000
0000
,  // measure 7
0001
0000
0000
0000
,  // measure 8
0010
0000
0000
0000
,  // measure 9
1001
0000
0000
0000
,  // measure 10
0000
0000
0000
0000
,  // measure 11
0010
0000
0000
0000
,  // measure 12
0100
0000
0000
0000
,  // measure 13
1001
0000
0000
0000
,  // measure 14
0001
0000
0000
0000
,  // measure 15
0100
0000
0000
0000
,  // measure 16
0001
0000
1000
0000
,  // measure 17
0001
0000
0000
0000
,  // measure 18
0010
0000
0000
0000
,  // measure 19
0001
0000
0000
0000
,  // measure 20
1000
0000
0100
0000
,  // measure 21
1000
0000
0000
0000
,  // measure 22
0010
0000
0000
0000
,  // measure 23
0100
0000
0000
0000
,  // measure 24
0001
0000
1000
0000
,  // measure 25
0001
0000
0000
0000
,  // measure 26
0010
0000
0000
0000
,  // measure 27
0100
0000
0000
0000
,  // measure 28
1000
0000
0001
0000
,  // measure 29
0110
0000
0000
0000
,  // measure 30
0000
0000
0010
0000
,  // measure 31
0000
0000
0000
0000
,  // measure 32
0000
0000
0010
0000
,  // measure 33
0000
0100
0000
0000
,  // measure 34
0000
0010
0000
0000
,  // measure 35
0000
1000
0000
0000
,  // measure 36
0000
0001
0000
0000
,  // measure 37
1000
0000
0000
0000
,  // measure 38
0000
0000
0000
0000
,  // measure 39
0001
0000
0000
0000
,  // measure 40
0000
0100
0100
0000
,  // measure 41
0010
0000
0000
0000
,  // measure 42
1000
0000
1000
0000
,  // measure 43
1000
0000
0000
0000
,  // measure 44
0001
0000
1000
0000
,  // measure 45
0001
0000
0000
0000
,  // measure 46
0010
0000
0000
0000
,  // measure 47
0001
0000
0000
0000
,  // measure 48
1000
0000
0100
0000
,  // measure 49
1000
0000
0000
0000
,  // measure 50
0010
0000
0000
0000
,  // measure 51
0100
0000
0000
0000
,  // measure 52
0001
0000
1000
0000
,  // measure 53
0110
0000
0000
0000
,  // measure 54
0010
0000
0000
0000
,  // measure 55
0100
0000
0000
0000
,  // measure 56
0001
0000
1000
0000
,  // measure 57
1001
0000
0000
0000
;
