#VERSION:0.83;
#TITLE:NO LIMIT;
#SUBTITLE:-オレ達に限界は無い-;
#ARTIST:SUPER STAR 満-MITSURU- vs. 伝説のダンサー マイク;
#TITLETRANSLIT:;
#SUBTITLETRANSLIT:-oretachi ni genkai wa nai-;
#ARTISTTRANSLIT:;
#GENRE:;
#ORIGIN:;
#CREDIT:;
#BANNER:NO LIMIT -oretachi ni genkai wa nai-.png;
#BACKGROUND:NO LIMIT -oretachi ni genkai wa nai--bg.png;
#PREVIEWVID:;
#JACKET:NO LIMIT -oretachi ni genkai wa nai--jacket.png;
#CDIMAGE:;
#DISCIMAGE:;
#LYRICSPATH:;
#CDTITLE:;
#MUSIC:NO LIMIT -oretachi ni genkai wa nai-.mp3;
#OFFSET:-0.792000;
#SAMPLESTART:90.391998;
#SAMPLELENGTH:12.800003;
#SELECTABLE:YES;
#BPMS:0.000=150.000;
#STOPS:;
#DELAYS:;
#WARPS:;
#TIMESIGNATURES:0.000=4=4;
#TICKCOUNTS:0.000=4;
#COMBOS:0.000=1;
#SPEEDS:0.000=1.000=0.000=0;
#SCROLLS:0.000=1.000;
#FAKES:;
#LABELS:0.000=Song Start;
#BGCHANGES:;
#KEYSOUNDS:;
#ATTACKS:
;

//---------------dance-single - ----------------
#NOTEDATA:;
#CHARTNAME:;
#STEPSTYPE:dance-single;
#DESCRIPTION:;
#CHARTSTYLE:;
#DIFFICULTY:Hard;
#METER:70;
#RADARVALUES:0.441590,0.563821,0.354449,0.156617,0.177225,375.000000,332.000000,43.000000,19.000000,0.000000,0.000000,0.000000,0.000000,0.000000,0.441590,0.563821,0.354449,0.156617,0.177225,375.000000,332.000000,43.000000,19.000000,0.000000,0.000000,0.000000,0.000000,0.000000;
#CREDIT:;
#NOTES:
// measure 0
0000
0000
0000
0000
,  // measure 1
0000
0000
0000
0000
,  // measure 2
0000
0000
0000
0000
,  // measure 3
0000
0000
0000
0000
,  // measure 4
0001
0001
0001
0001
,  // measure 5
1000
1000
1000
1000
,  // measure 6
0010
0000
0100
0000
,  // measure 7
0010
0100
0001
1001
,  // measure 8
0000
0000
1000
0000
0000
0000
0100
0000
0010
0000
0000
0010
0000
0000
0100
0000
,  // measure 9
1000
0000
0000
1000
0000
0000
0001
0000
0000
0000
0100
0000
0010
0000
0100
0000
,  // measure 10
0000
0000
0001
0000
0000
0000
1000
0000
0100
0000
0000
0100
0000
0000
0010
0000
,  // measure 11
0001
0000
0000
0001
0000
0000
1000
0000
0000
0000
0001
0000
0100
0000
1000
0000
,  // measure 12
0000
0000
0100
0000
0000
0000
0010
0000
1000
0000
0000
1000
0000
0000
0100
0000
,  // measure 13
0010
0000
0000
0010
0000
0000
0100
0000
0000
0000
1000
0000
0010
0000
1000
0000
,  // measure 14
0000
0000
0001
0000
0000
0000
0010
0000
0001
0000
0000
0001
0000
0000
0100
0000
,  // measure 15
0010
0000
0000
0010
0000
0000
0100
0000
0000
0000
0001
0000
0010
0000
1000
0000
,  // measure 16
0000
0000
0110
0000
0000
0000
0001
0000
1001
0000
0000
1000
0000
0000
0001
0000
,  // measure 17
0101
0000
0000
0100
0000
0000
0100
0000
0000
0000
0010
0000
1000
0000
0010
0000
,  // measure 18
0000
0000
1001
0000
0000
0000
1000
0000
1100
0000
0000
0100
0000
0000
0100
0000
,  // measure 19
0110
0000
0000
0010
0000
0000
0010
0000
0000
0000
0100
0000
0010
0000
0001
0000
,  // measure 20
0000
0000
1010
0000
0000
0000
0100
0000
0101
0000
0000
0001
0000
0000
0001
0000
,  // measure 21
1001
0000
0000
1000
0000
0000
1000
0000
0000
0000
0100
0000
0010
0000
0100
0000
,  // measure 22
0000
0000
1001
0000
0000
0000
0001
0000
0100
0000
0000
0100
0000
0000
0010
0000
,  // measure 23
1000
0000
0000
1000
0100
0000
0000
0100
0010
0000
0000
0010
0001
0000
0000
0000
,  // measure 24
1001
0000
0001
0000
,  // measure 25
1000
0000
0010
1000
,  // measure 26
0100
0000
1000
0000
,  // measure 27
0010
0000
0100
0001
,  // measure 28
0010
0000
0100
0000
,  // measure 29
0010
0000
0001
1000
,  // measure 30
0100
0000
1000
0000
,  // measure 31
0010
0000
0100
0000
,  // measure 32
2001
0010
0001
3010
,  // measure 33
1002
0010
1000
0013
,  // measure 34
1020
0130
0021
0130
,  // measure 35
1000
0100
0010
0001
0100
0010
1001
0000
,  // measure 36
0002
0000
0103
0000
0100
0010
1000
0000
,  // measure 37
0200
0000
1300
0000
1000
0100
0010
0000
,  // measure 38
0200
0000
0310
0000
0100
0000
1000
0010
,  // measure 39
0200
0000
0000
0000
0000
0000
0001
0301
,  // measure 40
1001
0000
0000
0000
0001
0000
0010
0000
0100
0000
0000
0010
0000
0000
0001
0000
,  // measure 41
0000
0000
1000
0000
0001
0000
0100
0000
0010
0000
0000
1000
0000
0000
0000
0000
,  // measure 42
0001
0000
0000
0000
1000
0000
0010
0000
1000
0000
0000
0100
0000
0000
0010
0000
,  // measure 43
0000
0000
0100
0000
0010
0000
0100
0000
1000
0000
0000
0001
0000
0000
0001
0000
,  // measure 44
0010
0000
0000
0000
0100
0000
1000
0000
0010
0000
0000
0100
0000
0000
0001
0000
,  // measure 45
0000
0000
1000
0000
0001
0000
0010
0000
0100
0000
0000
0010
0000
0000
0001
0000
,  // measure 46
0100
0000
0000
0000
0010
0000
1000
0000
0010
0000
0000
0100
0000
0000
0001
0000
,  // measure 47
0000
0000
1000
0000
0010
0000
0001
0000
0010
0000
0000
0100
0000
0000
0000
0000
,  // measure 48
1002
0000
0000
0000
0013
0000
0100
0000
1000
0000
0000
0100
0000
0000
0010
0000
,  // measure 49
0000
0000
0100
0000
1000
0000
0010
0000
0100
0000
0000
0100
0000
0000
0010
1000
,  // measure 50
0020
0000
0000
0000
1030
0000
0001
0000
0010
0000
0000
0100
0000
0000
0010
0000
,  // measure 51
0000
0000
0100
0000
0010
0000
0001
0000
1000
0000
0000
0001
0100
0010
0100
0010
,  // measure 52
0200
0000
0000
0000
0310
0000
1000
0000
0100
0000
0000
1000
0000
0000
0001
0000
,  // measure 53
0000
0000
0100
0000
0001
0000
0010
0000
0100
0000
0000
0010
0000
0000
0002
0000
,  // measure 54
2003
0000
0000
0000
3010
0000
0100
0000
0001
0000
0000
0001
0000
0000
0010
0000
,  // measure 55
0000
0000
0000
0000
0000
0000
0100
0000
0000
0010
0000
0000
0100
0000
0000
0000
0100
0000
0000
0000
0010
0000
0000
0000
0001
0000
0000
0000
0001
0000
0000
0000
1000
0000
0000
0000
0010
0000
0000
0000
0010
0000
0000
0000
0100
0000
0000
0000
,  // measure 56
0001
0100
0010
1000
0001
0000
1000
0000
,  // measure 57
1002
0000
0000
0010
0013
0000
0000
0000
,  // measure 58
0001
0010
0100
1000
0001
0000
1010
0000
,  // measure 59
1200
0000
0000
0010
0310
0000
0000
0000
,  // measure 60
0100
0010
0001
1000
0010
0000
0000
0000
,  // measure 61
0201
0000
0000
0010
0310
0000
0000
0000
,  // measure 62
0100
0010
1000
0001
0100
0000
0101
0000
,  // measure 63
0021
0000
0000
0100
0200
0000
0330
0000
,  // measure 64
1001
1001
1001
1001
,  // measure 65
0110
0110
0110
0110
,  // measure 66
0101
0101
1010
1010
,  // measure 67
1100
0011
1001
0000
,  // measure 68
0001
1000
0010
0000
0100
0000
0101
0000
,  // measure 69
0001
0100
0010
0000
1000
0000
1010
0000
,  // measure 70
1000
0100
0010
0000
0001
0000
1000
0010
,  // measure 71
0200
0000
0000
0000
0000
0000
0010
0310
,  // measure 72
0110
0000
0000
0000
;

//---------------dance-single - ----------------
#NOTEDATA:;
#CHARTNAME:;
#STEPSTYPE:dance-single;
#DESCRIPTION:;
#CHARTSTYLE:;
#DIFFICULTY:Challenge;
#METER:95;
#RADARVALUES:0.639422,0.741870,0.428636,0.296748,0.420393,543.000000,491.000000,52.000000,36.000000,0.000000,0.000000,0.000000,0.000000,0.000000,0.639422,0.741870,0.428636,0.296748,0.420393,543.000000,491.000000,52.000000,36.000000,0.000000,0.000000,0.000000,0.000000,0.000000;
#CREDIT:;
#NOTES:
// measure 0
0000
0000
0000
0000
,  // measure 1
0000
0000
0000
0000
,  // measure 2
0000
0000
0000
0000
,  // measure 3
0000
0000
0000
0000
,  // measure 4
0010
1000
0100
0001
,  // measure 5
0010
1000
0100
0001
,  // measure 6
0010
1000
0010
1000
0001
0010
0001
0010
0100
1000
0100
1000
0001
0100
0001
0100
,  // measure 7
0010
0010
0010
1001
,  // measure 8
1000
0000
0100
0000
1000
0000
0010
0000
0110
0000
0000
0101
0000
0000
0001
0000
,  // measure 9
1100
0000
0000
1001
0000
0000
0011
0000
0000
0000
0010
0000
0100
0000
1000
0000
,  // measure 10
0001
0000
0100
0000
0001
0000
0010
0000
0110
0000
0000
1100
0000
0000
1000
0000
,  // measure 11
0101
0000
0000
0110
0000
0000
1010
0000
0000
0000
1000
0000
0100
0000
0010
0000
,  // measure 12
0001
0000
1000
0000
0010
0000
1000
0000
1100
0000
0000
0110
0000
0000
0001
0000
,  // measure 13
1010
0000
0000
0110
0000
0000
0101
0000
0000
0000
0001
0000
0100
0000
0010
0000
,  // measure 14
1000
0000
0001
0000
0010
0000
0001
0000
0101
0000
0000
0110
0000
0000
1000
0000
,  // measure 15
0011
0000
0000
0110
0000
0000
1100
0000
0000
0000
1000
0000
0100
0000
0010
0000
,  // measure 16
0001
0000
0100
0000
0010
0000
0100
0001
1000
0000
0000
1010
0000
0000
1000
0001
,  // measure 17
0010
0000
0000
0011
0000
0000
0200
0000
0000
0000
1300
0000
0010
0000
0100
0000
,  // measure 18
0001
0000
0010
0000
0100
0000
0010
0001
1000
0000
0000
1100
0000
0000
1000
0001
,  // measure 19
0100
0000
0000
0101
0000
0000
0020
0000
0000
0000
1030
0000
0100
0000
0010
0000
,  // measure 20
0001
0000
1000
0000
0010
0000
1000
0001
0010
0000
0000
0011
0000
0000
0100
1000
,  // measure 21
0001
0000
0000
0101
0000
0000
0200
0000
0000
0000
0310
0000
1000
0000
0001
0000
,  // measure 22
1000
0100
0001
0100
1000
0100
0001
0100
,  // measure 23
1000
0000
0001
0100
0001
0000
1000
0100
1000
0001
0010
0001
0010
0000
0100
0000
,  // measure 24
2000
0000
3010
0100
0002
0000
0013
0000
,  // measure 25
0200
1000
0000
0000
0320
0000
0032
0000
,  // measure 26
2003
0000
3100
0010
0002
0000
0203
0000
,  // measure 27
0320
1000
0000
0000
0230
0000
0302
0000
,  // measure 28
2003
0000
3100
0010
0200
0000
1300
0000
,  // measure 29
0002
0100
0000
0000
0023
0000
0230
0000
,  // measure 30
2300
0000
3010
0100
0020
0000
1030
0000
,  // measure 31
0002
0010
0000
0000
0203
0000
0320
0000
,  // measure 32
1030
0100
0001
0100
1000
0100
0010
0000
,  // measure 33
0001
0010
1000
0010
0001
0010
0100
1000
,  // measure 34
0001
1000
0000
0010
0100
0010
0000
1000
,  // measure 35
0100
0010
0001
1000
0001
0100
0110
0000
,  // measure 36
0001
0100
0001
0100
0010
1000
0010
1000
,  // measure 37
0001
0010
0001
0010
0100
1000
0100
1000
,  // measure 38
0001
0100
0001
0100
0010
1000
0010
1000
0001
0010
0001
0010
0100
1000
0100
1000
,  // measure 39
0002
0000
0000
0000
0000
0000
1003
0001
,  // measure 40
1001
0000
0000
0000
1000
0000
0001
0000
0010
0000
0000
0010
0000
0000
1100
0000
,  // measure 41
0000
0000
0010
0000
0001
1000
0001
0000
0010
0000
0000
1100
0000
0000
0000
0000
,  // measure 42
1001
0000
0000
0000
0001
0000
1000
0000
0010
0000
0000
0010
0000
0000
0101
0000
,  // measure 43
0000
0000
0010
0000
1000
0001
1000
0000
0010
0000
0000
0100
0000
0000
0001
0000
,  // measure 44
1001
0000
0000
0000
1000
0000
0100
0000
0010
0000
0000
0001
0000
0000
1100
0000
,  // measure 45
0000
0000
1000
0000
0001
0010
0001
0000
1000
0000
0000
0101
0000
0000
0000
0000
,  // measure 46
1001
0000
0000
0000
0001
0000
0100
0000
0010
0000
0000
1000
0000
0000
0101
0000
,  // measure 47
0000
0000
0001
0000
1000
0010
1000
0000
0001
0000
0000
0010
0000
0000
0100
0000
,  // measure 48
1100
0000
0000
0000
0010
0000
0001
0000
1000
0000
0000
0010
0000
0000
0101
0000
,  // measure 49
0000
0000
0001
0000
1000
0010
1000
0000
0001
0000
0000
1100
0000
0000
1000
0001
,  // measure 50
1000
0000
0000
0000
0010
0000
1000
0000
0001
0000
0000
0010
0000
0000
1100
0000
,  // measure 51
0000
0000
1000
0000
0001
0010
0001
0000
1000
0000
0010
0100
0001
0100
0001
1000
,  // measure 52
0001
0000
0000
0000
0100
0000
0010
0000
1000
0000
0000
0001
0000
0000
1100
0000
,  // measure 53
0000
0000
0010
0000
0001
1000
0001
0000
0010
0000
0000
1100
0000
0000
0000
0000
,  // measure 54
1001
0000
0000
0000
0100
0000
0010
0000
1000
0000
0000
0001
0000
0000
1100
0000
,  // measure 55
0000
0000
0000
0000
0000
0000
0100
0000
0000
0010
0000
0000
0100
0000
0000
0000
1000
0000
0000
0000
0001
0000
0000
0000
0010
0000
0000
0000
0001
0000
0000
0000
1000
0000
0000
0000
0010
0000
0000
0000
0100
0000
0000
0000
0100
0000
0000
0000
,  // measure 56
0001
0000
0100
0010
0100
0000
0001
0000
1000
0000
0100
0000
0010
0001
0010
0001
,  // measure 57
1000
0000
0001
0100
0001
0000
0010
0000
0110
0000
0000
0000
1100
0000
0000
0000
,  // measure 58
1000
0000
0100
0010
0100
0000
1000
0000
0001
0000
0100
0000
0010
1000
0001
1000
,  // measure 59
0200
0000
0000
0310
0000
0000
0001
0000
0012
0000
0000
0000
1003
0100
0010
0001
,  // measure 60
2000
0000
0000
0000
3001
0100
0010
1000
0020
0000
0000
0000
0130
0001
1000
0010
,  // measure 61
0200
0000
0000
0301
0000
0000
0010
0000
0012
0000
0000
0000
1003
0100
0010
0100
,  // measure 62
2000
0000
0001
0000
3001
0010
0100
1000
0200
0000
0010
0000
0310
0000
0001
1000
,  // measure 63
0002
0000
0000
0013
0000
0000
0100
0000
1100
0000
0000
1000
0001
0000
0001
0000
,  // measure 64
1000
0100
0001
0100
1000
0100
0010
0000
,  // measure 65
0001
0010
1000
0010
0001
0010
0100
0000
,  // measure 66
1000
0010
0001
0010
1000
0010
0100
0100
,  // measure 67
0001
0100
1000
0100
0020
0000
1030
0000
,  // measure 68
0001
0010
0001
0010
1000
0010
1000
0010
,  // measure 69
0100
1000
0100
1000
0001
0100
0001
0100
,  // measure 70
0010
1000
0010
1000
0001
0010
0001
0010
0100
1000
0001
0100
0010
0100
0001
1000
,  // measure 71
0200
0000
0000
0000
0000
0000
1300
0001
,  // measure 72
1001
0000
0000
0000
;

//---------------dance-single - ----------------
#NOTEDATA:;
#CHARTNAME:;
#STEPSTYPE:dance-single;
#DESCRIPTION:;
#CHARTSTYLE:;
#DIFFICULTY:Easy;
#METER:30;
#RADARVALUES:0.214318,0.296748,0.148374,0.032972,0.000000,182.000000,164.000000,18.000000,4.000000,0.000000,0.000000,0.000000,0.000000,0.000000,0.214318,0.296748,0.148374,0.032972,0.000000,182.000000,164.000000,18.000000,4.000000,0.000000,0.000000,0.000000,0.000000,0.000000;
#CREDIT:;
#NOTES:
// measure 0
0000
0000
0000
0000
,  // measure 1
0000
0000
0000
0000
,  // measure 2
0000
0000
0000
0000
,  // measure 3
0000
0000
0000
0000
,  // measure 4
1000
0000
1000
0000
,  // measure 5
0001
0000
0001
0000
,  // measure 6
1000
0000
0001
0000
,  // measure 7
1000
0001
1000
0110
,  // measure 8
1000
0000
0001
0000
,  // measure 9
1000
0000
0000
0000
,  // measure 10
0100
0000
0010
0000
,  // measure 11
0100
0000
0000
0000
,  // measure 12
0001
0000
0100
0000
,  // measure 13
0010
0000
0000
0000
,  // measure 14
1000
0000
0100
0000
,  // measure 15
0010
0000
0000
0000
,  // measure 16
1001
0000
0001
0000
,  // measure 17
1000
0000
0000
1000
,  // measure 18
1001
0000
0001
0000
,  // measure 19
0010
0000
0000
0100
,  // measure 20
1001
0000
0001
0000
,  // measure 21
0010
0000
0000
0100
,  // measure 22
1001
0000
0001
0000
,  // measure 23
1000
0010
0100
0001
,  // measure 24
1000
0000
0001
0000
,  // measure 25
1000
0000
0001
1000
,  // measure 26
0010
0000
0100
0000
,  // measure 27
0001
0000
0100
0000
,  // measure 28
0010
0000
1000
0000
,  // measure 29
0100
0000
1000
0010
,  // measure 30
0100
0000
0001
0000
,  // measure 31
1000
0000
0001
0000
,  // measure 32
0100
0100
0100
0100
,  // measure 33
0010
0010
0010
0010
,  // measure 34
1001
0000
0110
0000
,  // measure 35
1000
0010
0100
1001
,  // measure 36
0001
0000
1000
0000
,  // measure 37
0010
0000
0100
0000
,  // measure 38
0001
0000
1000
0000
,  // measure 39
0220
0000
0000
0330
,  // measure 40
1001
0001
1000
0000
,  // measure 41
0000
0001
1000
0000
,  // measure 42
0100
1000
0010
0000
,  // measure 43
0000
0100
0010
1000
,  // measure 44
0001
0010
0001
1000
,  // measure 45
0000
0001
1000
0000
,  // measure 46
0100
1000
0010
0000
,  // measure 47
0100
0000
0010
0000
,  // measure 48
1001
0000
0000
0000
,  // measure 49
0000
0001
1000
0010
,  // measure 50
1001
0000
0100
0000
,  // measure 51
0000
1000
0001
0100
,  // measure 52
1001
0000
0010
0000
,  // measure 53
0000
1000
0010
0100
,  // measure 54
1001
0000
0010
0000
,  // measure 55
0000
1001
0110
1001
,  // measure 56
0001
0100
0010
0000
,  // measure 57
1000
0000
0100
0000
,  // measure 58
1000
0100
0010
0100
,  // measure 59
1000
0000
0001
0000
,  // measure 60
0100
0010
1000
0000
,  // measure 61
0001
0000
0100
0000
,  // measure 62
0010
0100
0001
1000
,  // measure 63
0100
0000
0100
0000
,  // measure 64
1000
1000
1000
1000
,  // measure 65
0001
0001
0001
0001
,  // measure 66
1000
1000
0001
0001
,  // measure 67
1000
0001
1000
0000
,  // measure 68
0010
0000
0100
0000
,  // measure 69
0001
0000
1000
0000
,  // measure 70
0010
0000
0100
0000
,  // measure 71
2002
0000
0000
0000
,  // measure 72
3003
0000
0000
0000
;

//---------------dance-single - ----------------
#NOTEDATA:;
#CHARTNAME:;
#STEPSTYPE:dance-single;
#DESCRIPTION:;
#CHARTSTYLE:;
#DIFFICULTY:Beginner;
#METER:15;
#RADARVALUES:0.108337,0.178049,0.090673,0.000000,0.000000,92.000000,81.000000,11.000000,0.000000,0.000000,0.000000,0.000000,0.000000,0.000000,0.108337,0.178049,0.090673,0.000000,0.000000,92.000000,81.000000,11.000000,0.000000,0.000000,0.000000,0.000000,0.000000,0.000000;
#CREDIT:;
#NOTES:
// measure 0
0000
0000
0000
0000
,  // measure 1
0000
0000
0000
0000
,  // measure 2
0000
0000
0000
0000
,  // measure 3
0000
0000
0000
0000
,  // measure 4
1000
0000
0000
0000
,  // measure 5
0001
0000
0000
0000
,  // measure 6
1000
0000
0001
0000
,  // measure 7
0110
0000
0000
0000
,  // measure 8
1001
0000
0000
0000
,  // measure 9
1000
0000
0000
0000
,  // measure 10
0001
0000
0000
0000
,  // measure 11
1000
0000
0000
0000
,  // measure 12
0010
0000
0000
0000
,  // measure 13
0100
0000
0000
0000
,  // measure 14
0010
0000
0000
0000
,  // measure 15
1000
0000
0000
0000
,  // measure 16
0001
0000
0000
0000
,  // measure 17
1000
0000
1000
0000
,  // measure 18
0001
0000
0000
0000
,  // measure 19
0100
0000
0100
0000
,  // measure 20
0010
0000
0000
0000
,  // measure 21
1000
0000
1000
0000
,  // measure 22
0001
0000
0000
0000
,  // measure 23
1000
0000
0001
0000
,  // measure 24
0110
0000
0000
0000
,  // measure 25
0000
0000
0000
0000
,  // measure 26
0001
0000
0000
0000
,  // measure 27
0000
0000
0000
0000
,  // measure 28
1000
0000
0000
0000
,  // measure 29
0000
0000
0000
0000
,  // measure 30
0010
0000
0000
0000
,  // measure 31
0000
0000
0000
0000
,  // measure 32
0100
0000
0000
0000
,  // measure 33
0100
0000
0000
0000
,  // measure 34
0010
0000
0010
0000
,  // measure 35
0010
0000
0000
0000
,  // measure 36
1000
0000
0000
0000
,  // measure 37
0001
0000
0000
0000
,  // measure 38
0100
0000
0000
0010
,  // measure 39
1001
0000
0000
0000
,  // measure 40
0100
0000
0000
0000
,  // measure 41
0000
0010
0000
0000
,  // measure 42
1000
0000
0000
0000
,  // measure 43
0000
0001
0000
0000
,  // measure 44
0100
0000
0000
0000
,  // measure 45
0000
0010
0000
0000
,  // measure 46
0100
0000
0000
0000
,  // measure 47
0001
0000
1000
0000
,  // measure 48
0100
0000
0000
0000
,  // measure 49
1000
0000
0000
0000
,  // measure 50
0001
0000
0000
0000
,  // measure 51
0100
0000
0000
0010
,  // measure 52
0010
0000
0000
0000
,  // measure 53
0100
0000
0000
0001
,  // measure 54
1000
0000
0001
0000
,  // measure 55
0100
0000
0000
0000
,  // measure 56
0001
0000
1000
0000
,  // measure 57
0010
0000
0000
0000
,  // measure 58
0100
0000
0001
0000
,  // measure 59
0010
0000
0000
0000
,  // measure 60
0100
0000
1000
0000
,  // measure 61
0001
0000
0000
0000
,  // measure 62
1000
0000
0001
0000
,  // measure 63
0100
0000
0000
0000
,  // measure 64
0110
0000
0000
0000
,  // measure 65
0110
0000
0000
0000
,  // measure 66
0110
0000
0000
0000
,  // measure 67
0110
0000
0000
0000
,  // measure 68
1001
0000
0000
0000
,  // measure 69
1000
0000
0000
0000
,  // measure 70
0001
0000
1000
0000
,  // measure 71
0110
0000
0000
0000
,  // measure 72
1001
0000
0000
0000
;

//---------------dance-single - ----------------
#NOTEDATA:;
#CHARTNAME:;
#STEPSTYPE:dance-single;
#DESCRIPTION:;
#CHARTSTYLE:;
#DIFFICULTY:Medium;
#METER:65;
#RADARVALUES:0.373290,0.534147,0.222561,0.090673,0.103038,317.000000,290.000000,27.000000,11.000000,0.000000,0.000000,0.000000,0.000000,0.000000,0.373290,0.534147,0.222561,0.090673,0.103038,317.000000,290.000000,27.000000,11.000000,0.000000,0.000000,0.000000,0.000000,0.000000;
#CREDIT:;
#NOTES:
// measure 0
0000
0000
0000
0000
,  // measure 1
0000
0000
0000
0000
,  // measure 2
0000
0000
0000
0000
,  // measure 3
0000
0000
0000
0000
,  // measure 4
1000
0001
1000
1000
,  // measure 5
0010
0100
0010
0010
,  // measure 6
0100
0000
0010
0000
,  // measure 7
0100
0010
1000
1001
,  // measure 8
0001
0000
1000
0000
0000
0000
0001
0000
1000
0000
0000
1000
0000
0000
1000
0000
,  // measure 9
0001
0000
0000
0001
0000
0000
0001
0000
0000
0000
1000
0000
0001
0000
0000
0000
,  // measure 10
0000
0000
0100
0000
0000
0000
0010
0000
1000
0000
0000
1000
0000
0000
1000
0000
,  // measure 11
0010
0000
0000
0010
0000
0000
0010
0000
0000
0000
0100
0000
0001
0000
0000
0000
,  // measure 12
0000
0000
0010
0000
0000
0000
0100
0000
0010
0000
0000
0010
0000
0000
0010
0000
,  // measure 13
0100
0000
0000
0100
0000
0000
0100
0000
0000
0000
0010
0000
0001
0000
0000
0000
,  // measure 14
0000
0000
1000
0000
0000
0000
0001
0000
0100
0000
0000
0100
0000
0000
0100
0000
,  // measure 15
0001
0000
0000
0001
0000
0000
0001
0000
0000
0000
1000
0000
0001
0000
0100
0000
,  // measure 16
0101
0001
0100
0010
,  // measure 17
1000
0000
0010
0000
0100
0000
0010
0000
1000
0000
0000
0010
0000
0000
0100
0000
,  // measure 18
0001
1000
0100
0010
,  // measure 19
0100
0000
0000
0000
1000
0000
0000
0000
0010
0000
0000
0100
0000
0000
0010
0000
,  // measure 20
1000
0001
0010
0001
,  // measure 21
1000
0000
0000
0000
0001
0000
0000
0000
0100
0000
0000
0001
0000
0000
0010
0000
,  // measure 22
0100
0010
0001
1000
,  // measure 23
1001
0110
1001
0110
,  // measure 24
0001
0000
1000
0000
,  // measure 25
0010
0000
1000
0010
,  // measure 26
0100
0000
0001
0000
,  // measure 27
0010
0000
0001
0000
,  // measure 28
1000
0000
0001
0000
,  // measure 29
1000
0000
0010
0100
,  // measure 30
0001
0000
0100
0000
,  // measure 31
0010
0000
1000
0000
,  // measure 32
2001
0010
0001
3010
,  // measure 33
1002
0010
1000
0013
,  // measure 34
0101
0000
1100
0000
,  // measure 35
1000
0100
0010
0011
,  // measure 36
0001
0100
0001
0000
0100
0000
0010
0000
,  // measure 37
1000
0010
1000
0000
0010
0000
0100
0000
,  // measure 38
0010
0100
0010
0000
0100
0000
0010
2000
,  // measure 39
0002
0000
0000
0000
0000
0000
0000
3003
,  // measure 40
1001
0000
0000
0000
0001
0000
1000
0000
0010
0000
0000
0010
0000
0000
1000
0000
,  // measure 41
0000
0010
0100
0000
0001
0000
1000
0000
,  // measure 42
0100
0000
0000
0000
1000
0000
0100
0000
0010
0000
0000
0010
0000
0000
0100
0000
,  // measure 43
0000
0000
0010
0000
0100
0000
1000
0000
0100
0000
0000
1000
0000
0000
0010
0000
,  // measure 44
0100
0000
0000
0000
0010
0000
0100
0000
0001
0000
0000
0001
0000
0000
0001
0000
,  // measure 45
0000
1000
0001
0000
0010
0000
0001
0000
,  // measure 46
0100
0000
0000
0000
0010
0000
1000
0000
0001
0000
0000
0001
0000
0000
0001
0000
,  // measure 47
0000
0000
1000
0000
0000
0010
0000
0000
0100
0000
0000
0001
0000
0000
0000
0000
,  // measure 48
1000
0000
0000
0000
0001
0000
0010
0000
0001
0000
0000
0001
0000
0000
0010
0000
,  // measure 49
0000
0001
0100
0000
0010
0000
0100
0000
,  // measure 50
0001
0000
0000
0000
1000
0000
0100
0000
1000
0000
0000
1000
0000
0000
0100
0000
,  // measure 51
0000
0100
0010
0000
0100
0000
0100
1000
,  // measure 52
0010
0000
0000
0000
0100
0000
0010
0000
1000
0000
0000
1000
0000
0000
0001
0000
,  // measure 53
0000
1000
0001
0000
0100
0000
0010
0000
,  // measure 54
0100
0000
0000
0000
0010
0000
0100
0000
0001
0000
0000
0001
0000
0000
0100
0000
,  // measure 55
0000
0000
0000
0001
0000
0000
0100
0000
0000
0000
0010
0000
1000
0000
0000
0000
1000
0000
0001
0000
0000
0000
0001
0000
,  // measure 56
1000
0010
0100
0001
1000
0000
0000
0000
,  // measure 57
0002
0000
0013
0000
,  // measure 58
0100
1000
0001
0010
0100
0000
0010
0000
,  // measure 59
0002
0000
1003
0000
,  // measure 60
0010
0100
0001
1000
0100
0000
0000
0000
,  // measure 61
0020
0000
0031
0000
,  // measure 62
0010
0100
1000
0001
0100
0000
0010
0000
,  // measure 63
2000
0000
0002
3003
,  // measure 64
1001
0110
1001
0110
,  // measure 65
1010
0101
1010
0101
,  // measure 66
0011
1100
0011
1100
,  // measure 67
1001
1001
1001
0000
,  // measure 68
1000
0010
1000
0000
0010
0000
0100
0000
,  // measure 69
0001
0100
0001
0000
0100
0000
0010
0000
,  // measure 70
0100
0010
0100
0000
0010
0000
0001
2000
,  // measure 71
0020
0000
0000
0000
,  // measure 72
3030
0000
0000
0000
;
