#VERSION:0.83;
#TITLE:Mortal Kombat;
#SUBTITLE:;
#ARTIST:Heatbeat;
#TITLETRANSLIT:;
#SUBTITLETRANSLIT:;
#ARTISTTRANSLIT:;
#GENRE:;
#ORIGIN:;
#CREDIT:;
#BANNER:Mortal Kombat.png;
#BACKGROUND:Mortal Kombat-bg.png;
#PREVIEWVID:;
#JACKET:Mortal Kombat-jacket.png;
#CDIMAGE:;
#DISCIMAGE:;
#LYRICSPATH:;
#CDTITLE:cdtitle.png;
#MUSIC:Mortal Kombat.ogg;
#OFFSET:-0.976000;
#SAMPLESTART:70.532219;
#SAMPLELENGTH:13.913048;
#SELECTABLE:YES;
#BPMS:0.000=138.000;
#STOPS:;
#DELAYS:;
#WARPS:;
#TIMESIGNATURES:0.000=4=4;
#TICKCOUNTS:0.000=4;
#COMBOS:0.000=1;
#SPEEDS:0.000=1.000=0.000=0;
#SCROLLS:0.000=1.000;
#FAKES:;
#LABELS:0.000=Song Start;
#BGCHANGES:;
#KEYSOUNDS:;
#ATTACKS:
;

//---------------dance-single - ----------------
#NOTEDATA:;
#CHARTNAME:;
#STEPSTYPE:dance-single;
#DESCRIPTION:;
#CHARTSTYLE:;
#DIFFICULTY:Hard;
#METER:85;
#RADARVALUES:0.479630,0.642719,0.221098,0.114643,0.241570,410.000000,383.000000,27.000000,14.000000,0.000000,0.000000,0.000000,0.000000,0.000000,0.479630,0.642719,0.221098,0.114643,0.241570,410.000000,383.000000,27.000000,14.000000,0.000000,0.000000,0.000000,0.000000,0.000000;
#CREDIT:;
#NOTES:
// measure 0
0000
0000
0000
0000
,  // measure 1
0000
0000
0000
0000
,  // measure 2
0000
0000
0000
0000
,  // measure 3
0000
0000
0000
0000
,  // measure 4
0001
0001
1000
0001
,  // measure 5
0100
0100
0010
0100
,  // measure 6
0001
0001
1000
0010
,  // measure 7
2000
3002
0200
0303
,  // measure 8
0001
0100
0010
1000
,  // measure 9
0001
0010
0001
1000
,  // measure 10
0010
0100
0001
1000
,  // measure 11
0001
1000
0200
1000
,  // measure 12
1300
0100
0010
0001
,  // measure 13
1000
0001
0010
0001
,  // measure 14
1000
0010
0100
0001
,  // measure 15
1020
0001
1000
0031
,  // measure 16
1001
0000
0001
0000
0010
0100
1000
0001
,  // measure 17
0100
0000
0010
0000
0100
0010
1000
0100
,  // measure 18
0010
0000
0100
0000
1000
0010
1000
0001
,  // measure 19
0010
0000
0100
0000
0010
0100
1000
0001
,  // measure 20
0100
0000
0001
0000
1000
0001
0010
0001
,  // measure 21
1000
0000
0010
0000
0100
0010
1000
0001
,  // measure 22
0010
0000
0001
0000
1000
0100
0010
0001
,  // measure 23
0201
1000
0001
1300
,  // measure 24
0001
0001
1000
0010
0100
0001
0010
0100
,  // measure 25
0010
0010
0100
0010
0001
1000
0010
0100
,  // measure 26
0001
0001
1000
0100
0010
0100
1000
0001
,  // measure 27
0100
0100
0010
1000
0001
0010
0100
0010
,  // measure 28
0001
0001
0010
0001
0100
0010
1000
0100
,  // measure 29
0010
0010
0100
1000
0010
0100
0001
0010
,  // measure 30
0100
0100
0010
0001
0100
0010
1000
0001
,  // measure 31
2002
0000
0000
0000
0000
0000
0000
3003
,  // measure 32
1000
0000
0000
1000
0000
0000
0001
0000
0000
1000
0000
0000
0001
0000
1000
0000
,  // measure 33
0100
0000
0000
0100
0000
0000
0010
0000
0000
0100
0000
0000
0010
0000
0001
0000
,  // measure 34
0100
0000
0000
0100
0000
0000
0010
0000
0000
0100
0000
0000
0010
0000
1000
0000
,  // measure 35
0002
2003
0020
3030
,  // measure 36
0100
0000
0000
0100
0000
0000
0010
0000
0000
0100
0000
0000
0010
0000
1000
0000
,  // measure 37
0001
0000
0000
0001
0000
0000
0010
0000
0000
0001
0000
0000
0100
0000
0010
0000
,  // measure 38
1000
0000
0000
1000
0000
0000
0001
0000
0000
0010
0000
0000
0001
0000
0100
0000
,  // measure 39
0010
0000
0000
1000
0000
0000
0010
0000
0100
0010
0100
0000
1001
0000
0000
0000
,  // measure 40
0001
0100
0000
0001
0100
0000
0001
0100
0000
0100
0001
0000
1000
0000
0001
0000
,  // measure 41
0010
0001
0000
0010
0001
0000
0010
0001
0000
0001
0010
0000
0001
0000
1000
0000
,  // measure 42
0010
0100
0000
0010
0100
0000
0100
0010
0000
0010
0100
0000
0010
0000
1000
0000
,  // measure 43
0100
1000
0000
1000
0100
0000
1000
0001
0000
0001
0100
0000
0010
0000
0000
0000
,  // measure 44
0210
0000
0000
0000
0301
0000
1000
0001
0000
0001
1000
0000
0010
0000
0100
0000
,  // measure 45
0001
0100
0000
0001
0100
0000
0100
0001
0000
0001
0100
0000
0010
0000
1000
0000
,  // measure 46
0100
0010
0000
0100
0010
0000
0010
0100
0000
0100
0010
0000
0001
0000
1000
0000
,  // measure 47
0001
1000
0000
0001
1000
0000
0001
1000
0000
1000
0001
0000
0100
0000
0000
0000
,  // measure 48
0010
0000
0000
0010
0000
0000
1000
0000
0000
1000
0000
0000
0010
0000
0100
0000
,  // measure 49
0001
0000
0000
0001
0000
0000
1000
0000
0000
1000
0000
0000
0100
0000
0010
0000
,  // measure 50
0100
0000
0000
0100
0000
0000
0010
0000
0000
0010
0000
0000
0001
0000
0100
0000
,  // measure 51
0010
0000
0000
0010
0000
0000
0100
0000
0001
1000
0000
1000
0001
0000
0000
0000
,  // measure 52
1000
0010
1000
0010
0100
0001
0100
0001
,  // measure 53
0010
0001
0010
0001
1000
0100
1000
0100
,  // measure 54
1000
0010
0100
0001
1000
0010
0100
0001
,  // measure 55
1000
0001
1000
0001
1000
0001
1000
0001
1000
0001
1000
0001
0010
0000
0000
0000
,  // measure 56
0100
0000
0010
0000
0001
0000
0100
0010
,  // measure 57
1000
0000
0010
0000
0100
0000
0001
1000
,  // measure 58
0100
0000
0010
0000
0100
0000
1000
0010
,  // measure 59
0100
0000
0001
0000
1000
0000
0001
0010
,  // measure 60
0110
0000
0000
0011
0000
0000
1010
0000
,  // measure 61
0000
1100
0000
0000
1001
0000
0001
0100
,  // measure 62
0110
0000
0000
1010
0000
0000
0101
0000
,  // measure 63
0000
0011
0000
0000
0110
0000
0100
0010
,  // measure 64
0011
0000
0000
1100
0000
0000
1010
0000
,  // measure 65
0000
0101
0000
0000
1001
0000
0001
0100
,  // measure 66
0110
0000
0000
0101
0000
0000
0011
0000
,  // measure 67
0000
1010
0000
0000
1001
0000
0100
0010
,  // measure 68
2002
3003
0000
0000
;

//---------------dance-single - ----------------
#NOTEDATA:;
#CHARTNAME:;
#STEPSTYPE:dance-single;
#DESCRIPTION:;
#CHARTSTYLE:;
#DIFFICULTY:Medium;
#METER:75;
#RADARVALUES:0.418799,0.502997,0.458573,0.106454,0.106454,358.000000,302.000000,56.000000,13.000000,0.000000,0.000000,0.000000,0.000000,0.000000,0.418799,0.502997,0.458573,0.106454,0.106454,358.000000,302.000000,56.000000,13.000000,0.000000,0.000000,0.000000,0.000000,0.000000;
#CREDIT:;
#NOTES:
// measure 0
0000
0000
0000
0000
,  // measure 1
0000
0000
0000
0000
,  // measure 2
0000
0000
0000
0000
,  // measure 3
0000
0000
0000
0000
,  // measure 4
0001
0100
0010
1000
,  // measure 5
0001
0100
0010
1000
,  // measure 6
0001
0100
0010
1000
,  // measure 7
0002
2003
0020
3030
,  // measure 8
0101
0001
0001
0001
,  // measure 9
1000
1000
1000
1000
,  // measure 10
0010
0010
0010
0010
,  // measure 11
0100
0100
0100
0100
,  // measure 12
0001
0100
0001
0100
,  // measure 13
0010
1000
0010
1000
,  // measure 14
0001
1000
0001
1000
,  // measure 15
0101
1010
0101
1010
,  // measure 16
1001
0000
0001
0000
0010
0000
0100
0010
,  // measure 17
0001
0000
0100
0000
0010
0000
1000
0010
,  // measure 18
0100
0000
0010
0000
1000
0000
0001
0010
,  // measure 19
0100
0000
0010
0000
0001
0000
1000
0001
,  // measure 20
0100
0000
0001
0000
0010
0000
0100
1000
,  // measure 21
0010
0000
0100
0000
0010
0000
1000
0010
,  // measure 22
0100
0000
0001
0000
1000
0000
0001
1000
,  // measure 23
1001
0110
1001
0110
,  // measure 24
1010
0101
1010
1001
,  // measure 25
0011
1100
0011
1001
,  // measure 26
0101
1010
0101
1001
,  // measure 27
0011
1100
0011
1001
,  // measure 28
0001
0000
0100
0000
0010
1000
0100
0010
,  // measure 29
0001
0000
0010
0000
0100
0010
0001
0100
,  // measure 30
0010
0000
1000
0000
0001
0010
0100
1000
,  // measure 31
2002
0000
0000
0000
0000
0000
0000
3003
,  // measure 32
0001
0000
0000
0001
0000
0000
0001
0000
0000
0001
0000
0000
0001
0000
1000
0000
,  // measure 33
0010
0000
0000
0010
0000
0000
0010
0000
0000
0010
0000
0000
0100
0000
0010
0000
,  // measure 34
1000
0000
0000
1000
0000
0000
1000
0000
0000
1000
0000
0000
1000
0000
0001
0000
,  // measure 35
0200
0320
2000
3030
,  // measure 36
0010
0000
0000
0010
0000
0000
0010
0000
0000
0010
0000
0000
0100
0000
0001
0000
,  // measure 37
1000
0000
0000
1000
0000
0000
1000
0000
0000
1000
0000
0000
0001
0000
1000
0000
,  // measure 38
0010
0000
0000
0010
0000
0000
0010
0000
0000
0010
0000
0000
0100
0000
0010
0000
,  // measure 39
1000
0000
0000
1000
0000
0000
1000
0000
0001
0000
0010
0000
1001
0000
0000
0000
,  // measure 40
1000
0000
0000
0000
0010
0000
0000
0100
0000
0000
0001
0000
1000
0000
0100
0000
,  // measure 41
0010
0000
0000
0000
0100
0000
0000
0010
0000
0000
0001
0000
1000
0000
0010
0000
,  // measure 42
0100
0000
0000
0000
0010
0000
0000
1000
0000
0000
0001
0000
0010
0000
0001
0000
,  // measure 43
1000
0000
0001
0000
0100
0010
0100
0000
,  // measure 44
2002
0000
0000
0000
3003
0000
0000
0000
0001
0000
0000
1000
0000
0000
0010
0000
,  // measure 45
0000
0000
0100
0000
0001
0000
0000
0000
1000
0000
0000
0100
0000
0000
0010
0000
,  // measure 46
0000
0000
0100
0000
1000
0000
0000
0000
0001
0000
0000
1000
0000
0000
0010
0000
,  // measure 47
0000
0100
0001
0000
0020
0000
0030
0000
,  // measure 48
1001
0000
0000
1000
0000
0000
1000
0000
0000
1000
0000
0000
1000
0000
0001
0000
,  // measure 49
0100
0000
0000
0100
0000
0000
0100
0000
0000
0100
0000
0000
0100
0000
0010
0000
,  // measure 50
1000
0000
0000
1000
0000
0000
1000
0000
0000
1000
0000
0000
0010
0000
0100
0000
,  // measure 51
0001
0000
0000
0001
0000
0000
0001
0000
1000
0000
0001
0000
0100
0000
0000
0000
,  // measure 52
0001
0100
0010
0000
0100
0010
1000
0000
,  // measure 53
0001
1000
0010
0000
1000
0001
0010
0000
,  // measure 54
0001
1000
0001
1000
0001
1000
0001
1000
,  // measure 55
0010
0100
0001
0010
0001
1000
1001
0000
,  // measure 56
0100
0000
0010
0000
1000
0000
0001
1000
,  // measure 57
0001
0000
0010
0000
0100
0000
0010
0001
,  // measure 58
0100
0000
0010
0000
1000
0000
0001
1000
,  // measure 59
0100
0000
1000
0000
0010
0000
0100
0010
,  // measure 60
1010
0000
0000
0101
0000
0000
1010
0000
,  // measure 61
0000
0101
0000
0000
1010
0000
1001
0000
,  // measure 62
0011
0000
0000
1100
0000
0000
0011
0000
,  // measure 63
0000
1100
0000
0000
0011
0000
1001
0000
,  // measure 64
0101
0000
0000
0011
0000
0000
1010
0000
,  // measure 65
0000
1100
0000
0000
1001
0000
1010
0000
,  // measure 66
0101
0000
0000
0011
0000
0000
1100
0000
,  // measure 67
0000
1001
0000
0000
0110
0000
1001
0000
,  // measure 68
0220
0330
0000
0000
;

//---------------dance-single - ----------------
#NOTEDATA:;
#CHARTNAME:;
#STEPSTYPE:dance-single;
#DESCRIPTION:;
#CHARTSTYLE:;
#DIFFICULTY:Challenge;
#METER:95;
#RADARVALUES:0.636387,0.897902,0.524083,0.049133,0.438101,544.000000,480.000000,64.000000,6.000000,21.000000,3.000000,2.000000,0.000000,0.000000,0.636387,0.897902,0.524083,0.049133,0.438101,544.000000,480.000000,64.000000,6.000000,21.000000,3.000000,2.000000,0.000000,0.000000;
#CREDIT:;
#OFFSET:-0.976000;
#BPMS:0.000000=138.000000
;
#STOPS:240.000000=0.434776
,240.500000=0.434784
,241.000000=0.434784
,241.500000=0.434784
,242.000000=0.217392
,243.500000=0.434784
,244.000000=0.434784
,244.500000=0.434784
,245.000000=0.434784
,245.500000=0.217392
,247.000000=0.434784
,247.500000=0.434784
,248.000000=0.434784
,248.500000=0.434784
,249.000000=0.217392
,250.500000=0.434784
,251.000000=0.434784
,251.500000=0.434784
,252.000000=0.434784
,252.500000=0.217392
;
#DELAYS:;
#WARPS:;
#TIMESIGNATURES:0.000000=4=4
;
#TICKCOUNTS:0.000000=4
;
#COMBOS:0.000000=1
;
#SPEEDS:0.000000=1.000000=0.000000=0
;
#SCROLLS:0.000000=1.000000
;
#FAKES:;
#LABELS:0.000000=Song Start
;
#NOTES:
// measure 0
0000
0000
0000
0000
,  // measure 1
0000
0000
0000
0000
,  // measure 2
0000
0000
0000
0000
,  // measure 3
0000
0000
0000
0000
,  // measure 4
0001
0000
0010
0000
0100
1000
0010
0100
,  // measure 5
0001
0000
1000
0000
0001
1000
0010
0100
,  // measure 6
0001
0000
1000
0000
0100
0010
0001
1000
,  // measure 7
0002
0200
0010
0303
,  // measure 8
1001
1000
0001
1000
0001
1000
0010
0100
,  // measure 9
0001
1000
0001
1000
0001
1000
0010
0100
,  // measure 10
0001
1000
0001
1000
0001
1000
0100
0010
,  // measure 11
0001
1000
0001
1000
0001
1000
0100
0010
,  // measure 12
0001
1000
0001
1000
0001
1000
0010
0100
,  // measure 13
0001
1000
0001
1000
0001
1000
0100
0010
,  // measure 14
0001
1000
0001
1000
0001
1000
0010
0100
,  // measure 15
0101
0011
0101
0011
,  // measure 16
0001
1000
0001
1000
0001
1000
0010
1000
,  // measure 17
0001
1000
0010
1000
0001
0010
0001
1000
,  // measure 18
0001
1000
0100
1000
0001
1000
0010
1000
,  // measure 19
0001
1000
0100
1000
0001
0010
0001
1000
,  // measure 20
0001
1000
0100
1000
0001
1000
0010
1000
,  // measure 21
0001
1000
0100
1000
0001
0010
0001
1000
,  // measure 22
0001
1000
0100
1000
0001
1000
0001
0010
,  // measure 23
0011
0101
0011
0101
,  // measure 24
0100
0100
0010
1000
0001
0010
1000
0010
,  // measure 25
0001
0001
0010
0100
1000
0100
0001
0100
,  // measure 26
1000
1000
0001
0100
0010
1000
0010
0001
,  // measure 27
0010
0010
0100
0001
1000
0100
0001
0100
,  // measure 28
0010
0010
0100
1000
0100
0001
0100
0010
,  // measure 29
0001
0001
1000
0010
0100
1000
0100
0001
,  // measure 30
0100
0100
0010
1000
0001
0010
0100
1000
,  // measure 31
4004
0000
0000
0000
0000
0000
0000
3003
,  // measure 32
0011
0000
0000
0011
0000
0000
0011
0000
0000
0011
0000
0000
0010
0000
0100
0000
,  // measure 33
1100
0000
0000
1100
0000
0000
1100
0000
0000
1100
0000
0000
1000
0000
0001
0000
,  // measure 34
1001
0000
0000
1001
0000
0000
1001
0000
0000
1001
0000
0000
0001
0000
0010
0000
,  // measure 35
0002
0000
0200
0000
0010
0000
0000
0303
,  // measure 36
1010
0000
0000
1010
0000
0000
1010
0000
0000
1010
0000
0000
0010
0000
1000
0000
,  // measure 37
1001
0000
0000
1001
0000
0000
1001
0000
0000
1001
0000
0000
0001
0000
0010
0000
,  // measure 38
0110
0000
0000
0110
0000
0000
0110
0000
0000
0110
0000
0000
0100
0000
0010
0000
,  // measure 39
0011
0000
0000
1100
0000
0000
0110
0000
0001
1000
0001
0000
M11M
0000
0000
0000
,  // measure 40
0001
0100
0000
0010
1000
0000
0001
0100
0000
0100
0010
0000
1000
0001
0010
0000
,  // measure 41
0100
0010
0000
0001
0010
0000
0100
1000
0000
1000
0001
0000
0100
0010
0100
0000
,  // measure 42
0001
0100
0000
0010
1000
0000
0100
0010
0000
0010
0100
0000
1000
0100
0010
0000
,  // measure 43
0100
0010
0000
0010
0001
0000
0100
0001
0000
0100
0001
0000
1000
0000
0000
0000
,  // measure 44
MMMM
MMMM
MMMM
MMMM
0001
0000
1000
0010
0000
0100
0001
0000
0010
0100
1000
0000
,  // measure 45
0001
0010
0000
0100
1000
0000
0100
0010
0000
0010
0100
0000
0010
0001
0100
0000
,  // measure 46
0100
0010
0000
1000
0001
0000
0010
0100
0000
0010
0001
0000
1000
0001
0100
0000
,  // measure 47
0001
1000
0000
1000
0010
0000
0010
0100
0000
0010
0100
0000
1001
0000
0000
0000
,  // measure 48
1000
0000
0000
1000
0000
0000
0001
0000
0000
0001
0000
0000
0100
0000
0010
0000
,  // measure 49
1000
0000
0000
1000
0000
0000
0010
0000
0000
0010
0000
0000
0100
0000
0001
0000
,  // measure 50
0010
0000
0000
0010
0000
0000
0100
0000
0000
0100
0000
0000
0010
0000
0001
0000
,  // measure 51
0100
0000
0000
0100
0000
0000
0010
0000
1000
0001
0000
0001
1000
0000
0001
0000
,  // measure 52
1000
0010
1000
0010
1000
0010
1000
0010
1000
0010
1000
0010
1000
0000
0001
0000
,  // measure 53
0010
0100
0010
0100
0010
0100
0010
0100
0010
0100
0010
0100
0010
0000
0001
0000
,  // measure 54
1000
0010
1000
0010
1000
0010
1000
0010
1000
0010
1000
0010
1000
0000
0001
0000
,  // measure 55
0100
0010
0100
0010
0100
0010
0100
0010
0100
0010
0100
0010
1MMM
0000
0000
0000
,  // measure 56
0001
1000
0001
1000
0000
0001
0100
0000
0010
0100
0000
0001
1000
0000
0001
0000
,  // measure 57
1000
0010
1000
0010
0000
0100
0001
0000
0010
0100
0000
1000
0001
0000
0100
0000
,  // measure 58
0010
1000
0010
1000
0000
0100
0010
0000
0100
1000
0000
0010
0100
0000
0001
0000
,  // measure 59
1000
0100
1000
0100
0000
0010
0001
0000
0100
1000
0000
1000
0010
1000
0010
1000
,  // measure 60
1010
0101
1010
0101
1001
0011
0110
1100
,  // measure 61
0011
1100
0011
1001
0101
0110
1010
0110
,  // measure 62
1010
0110
1010
0101
0011
0110
0011
0110
,  // measure 63
0011
0002
2000
0000
0010
0000
0000
0000
,  // measure 64
0000
0000
3003
0000
;

//---------------dance-single - ----------------
#NOTEDATA:;
#CHARTNAME:;
#STEPSTYPE:dance-single;
#DESCRIPTION:;
#CHARTSTYLE:;
#DIFFICULTY:Easy;
#METER:25;
#RADARVALUES:0.159097,0.306261,0.065510,0.057322,0.000000,136.000000,128.000000,8.000000,7.000000,0.000000,0.000000,0.000000,0.000000,0.000000,0.159097,0.306261,0.065510,0.057322,0.000000,136.000000,128.000000,8.000000,7.000000,0.000000,0.000000,0.000000,0.000000,0.000000;
#CREDIT:;
#NOTES:
// measure 0
0000
0000
0000
0000
,  // measure 1
0000
0000
0000
0000
,  // measure 2
0000
0000
0000
0000
,  // measure 3
0000
0000
0000
0000
,  // measure 4
1000
0000
0001
0000
,  // measure 5
0100
0000
0010
0000
,  // measure 6
1000
0000
0001
0000
,  // measure 7
0100
0010
0200
0300
,  // measure 8
1001
0000
0000
0000
,  // measure 9
0001
0000
0000
0000
,  // measure 10
0001
0000
0000
0000
,  // measure 11
0001
0000
0200
0000
,  // measure 12
0310
0000
0000
0000
,  // measure 13
0010
0000
0000
0000
,  // measure 14
0010
0000
0000
0000
,  // measure 15
1000
1000
1000
1000
,  // measure 16
1001
0000
0000
0000
,  // measure 17
0010
0000
0100
0000
,  // measure 18
0001
0000
0000
0000
,  // measure 19
1000
0000
0200
0000
,  // measure 20
1300
0000
0000
0000
,  // measure 21
0010
0000
0100
0000
,  // measure 22
0010
0000
0000
0000
,  // measure 23
0100
0100
0100
0100
,  // measure 24
1001
0000
0001
0000
,  // measure 25
0010
0000
0001
0000
,  // measure 26
1000
0000
0100
0000
,  // measure 27
1000
0000
0010
0000
,  // measure 28
0100
0001
0000
1000
,  // measure 29
0000
0010
0000
0100
,  // measure 30
0000
0001
0000
1000
,  // measure 31
0220
0000
0000
0330
,  // measure 32
0010
0000
0010
0000
,  // measure 33
1000
0000
1000
0000
,  // measure 34
0001
0000
0001
0000
,  // measure 35
1000
1000
2000
3000
,  // measure 36
0001
0000
0001
0000
,  // measure 37
0100
0000
0100
0000
,  // measure 38
0010
0000
0010
0000
,  // measure 39
1000
0000
1000
1001
,  // measure 40
0001
0000
1000
0000
,  // measure 41
0010
0000
1000
0000
,  // measure 42
0100
0000
1000
0000
,  // measure 43
0001
0000
0100
0000
,  // measure 44
0020
0130
0000
0010
,  // measure 45
0000
1000
0000
0001
,  // measure 46
0000
0010
0000
0001
,  // measure 47
0000
0100
0010
1000
,  // measure 48
0001
0000
0000
0000
,  // measure 49
0001
0000
0000
0000
,  // measure 50
1000
0000
0000
0000
,  // measure 51
1000
0000
0000
0000
,  // measure 52
0010
0000
0100
0000
,  // measure 53
0001
0000
1000
0000
,  // measure 54
0010
0100
0001
1000
,  // measure 55
0010
0100
0001
1001
,  // measure 56
0110
0000
0000
0010
,  // measure 57
1000
0000
0000
0001
,  // measure 58
0010
0000
0000
0100
,  // measure 59
1000
0000
0000
0100
,  // measure 60
1000
0000
0000
1000
,  // measure 61
0000
0000
1000
0001
,  // measure 62
0100
0000
0000
0100
,  // measure 63
0000
0000
0100
0010
,  // measure 64
0100
0000
0000
0001
,  // measure 65
0000
0000
0010
0100
,  // measure 66
1000
0000
0000
0001
,  // measure 67
0000
0000
1000
0001
,  // measure 68
0110
0000
0000
0000
;

//---------------dance-single - ----------------
#NOTEDATA:;
#CHARTNAME:;
#STEPSTYPE:dance-single;
#DESCRIPTION:;
#CHARTSTYLE:;
#DIFFICULTY:Beginner;
#METER:20;
#RADARVALUES:0.112304,0.194893,0.040944,0.000000,0.000000,96.000000,91.000000,5.000000,0.000000,0.000000,0.000000,0.000000,0.000000,0.000000,0.112304,0.194893,0.040944,0.000000,0.000000,96.000000,91.000000,5.000000,0.000000,0.000000,0.000000,0.000000,0.000000,0.000000;
#CREDIT:;
#NOTES:
// measure 0
0000
0000
0000
0000
,  // measure 1
0000
0000
0000
0000
,  // measure 2
0000
0000
0000
0000
,  // measure 3
0000
0000
0000
0000
,  // measure 4
1000
0000
0000
0000
,  // measure 5
0001
0000
0000
0000
,  // measure 6
1000
0000
0000
0000
,  // measure 7
0100
0100
0100
0000
,  // measure 8
1001
0000
0000
0000
,  // measure 9
1000
0000
0000
0000
,  // measure 10
1000
0000
0000
0000
,  // measure 11
1000
0000
0000
0000
,  // measure 12
0001
0000
0000
0000
,  // measure 13
0001
0000
0000
0000
,  // measure 14
0001
0000
0000
0000
,  // measure 15
0100
0100
0100
0100
,  // measure 16
1001
0000
0000
0000
,  // measure 17
0010
0000
0000
0000
,  // measure 18
1000
0000
0000
0000
,  // measure 19
0100
0000
0000
0000
,  // measure 20
1000
0000
0000
0000
,  // measure 21
0001
0000
0000
0000
,  // measure 22
0100
0000
0000
0000
,  // measure 23
0010
0010
0010
0010
,  // measure 24
1000
0000
0000
0010
,  // measure 25
0100
0000
0000
0001
,  // measure 26
0010
0000
0000
0100
,  // measure 27
1000
0000
0000
0100
,  // measure 28
1000
0000
1000
0000
,  // measure 29
0001
0000
0001
0000
,  // measure 30
0100
0000
0010
0000
,  // measure 31
1001
0000
0000
0000
,  // measure 32
0100
0000
0000
0000
,  // measure 33
0010
0000
0000
0000
,  // measure 34
1000
0000
0000
0000
,  // measure 35
0001
0001
0001
0000
,  // measure 36
1000
0000
0000
0000
,  // measure 37
0010
0000
0000
0000
,  // measure 38
0100
0000
0000
0000
,  // measure 39
0001
0000
1000
0001
,  // measure 40
1000
0000
0000
0000
,  // measure 41
0010
0000
0000
0000
,  // measure 42
0100
0000
0000
0000
,  // measure 43
0001
0000
0000
0000
,  // measure 44
1000
0000
0000
0000
,  // measure 45
0001
0000
0000
0000
,  // measure 46
0010
0000
0000
0000
,  // measure 47
0001
0000
1000
0000
,  // measure 48
0010
0000
0000
0000
,  // measure 49
0100
0000
0000
0000
,  // measure 50
0001
0000
0000
0000
,  // measure 51
1000
0000
0000
0000
,  // measure 52
0100
0000
0000
0000
,  // measure 53
1000
0000
0000
0000
,  // measure 54
0010
0000
0000
0000
,  // measure 55
0100
0000
0000
1001
,  // measure 56
0001
0000
0000
0000
,  // measure 57
0001
0000
0000
0000
,  // measure 58
1000
0000
0000
0000
,  // measure 59
1000
0000
0000
0000
,  // measure 60
0010
0000
0000
0010
,  // measure 61
0000
0000
0010
0000
,  // measure 62
0100
0000
0000
0100
,  // measure 63
0000
0000
0100
0000
,  // measure 64
0001
0000
0000
0001
,  // measure 65
0000
0000
0001
0000
,  // measure 66
1000
0000
0000
1000
,  // measure 67
0000
0000
1000
0001
,  // measure 68
0110
0000
0000
0000
;
