#VERSION:0.83;
#TITLE:L-an!ma;
#SUBTITLE:;
#ARTIST:Master of Lapis;
#TITLETRANSLIT:;
#SUBTITLETRANSLIT:;
#ARTISTTRANSLIT:;
#GENRE:;
#ORIGIN:;
#CREDIT:;
#BANNER:L-an!ma.png;
#BACKGROUND:L-an!ma-bg.png;
#PREVIEWVID:;
#JACKET:L-an!ma-jacket.png;
#CDIMAGE:;
#DISCIMAGE:;
#LYRICSPATH:;
#CDTITLE:;
#MUSIC:L-an!ma.ogg;
#OFFSET:-0.065000;
#SAMPLESTART:66.647873;
#SAMPLELENGTH:13.779907;
#SELECTABLE:YES;
#BPMS:0.000=209.000;
#STOPS:;
#DELAYS:;
#WARPS:;
#TIMESIGNATURES:0.000=4=4;
#TICKCOUNTS:0.000=4;
#COMBOS:0.000=1;
#SPEEDS:0.000=1.000=0.000=0;
#SCROLLS:0.000=1.000;
#FAKES:;
#LABELS:0.000=Song Start;
#BGCHANGES:;
#KEYSOUNDS:;
#ATTACKS:
;

//---------------dance-single - ----------------
#NOTEDATA:;
#CHARTNAME:;
#STEPSTYPE:dance-single;
#DESCRIPTION:;
#CHARTSTYLE:;
#DIFFICULTY:Hard;
#METER:105;
#RADARVALUES:0.652023,0.949858,0.291935,0.405861,0.238533,641.000000,600.000000,41.000000,57.000000,0.000000,0.000000,0.000000,0.000000,0.000000,0.652023,0.949858,0.291935,0.405861,0.238533,641.000000,600.000000,41.000000,57.000000,0.000000,0.000000,0.000000,0.000000,0.000000;
#CREDIT:;
#NOTES:
// measure 0
0000
0000
0000
0000
,  // measure 1
0000
0000
0000
0000
,  // measure 2
0000
0000
0000
0000
,  // measure 3
0000
0000
0000
0000
,  // measure 4
1000
0200
0000
0000
,  // measure 5
0300
0010
0001
0100
,  // measure 6
0010
2000
0000
0000
,  // measure 7
3000
0001
0010
0001
,  // measure 8
1000
0000
0000
0100
0000
0000
0110
0000
,  // measure 9
0000
0000
0000
0100
,  // measure 10
1100
0000
0000
1000
0000
0000
0010
0000
,  // measure 11
0110
0000
0101
0000
,  // measure 12
1002
0000
0000
0023
0000
0000
0031
0100
,  // measure 13
1020
0000
0000
0230
0000
0000
0300
0000
,  // measure 14
2010
0000
0000
3200
0000
0000
0310
0100
,  // measure 15
2100
0000
0000
0002
0000
0000
3003
0000
,  // measure 16
0012
0000
0000
0203
0000
0000
0310
1000
,  // measure 17
1002
0000
0000
1003
0000
0000
0000
0000
,  // measure 18
0001
0100
0010
1000
0001
0010
0001
0000
0000
0000
0000
0000
,  // measure 19
0010
0001
1000
0010
0100
0001
1000
0000
0000
0000
0000
0000
,  // measure 20
0101
0000
0000
0000
0000
0000
0000
0000
1000
0000
0000
0100
0000
0000
0010
0000
,  // measure 21
0100
0000
0000
1000
0000
0000
0010
0000
0100
0000
0001
0000
0000
0000
0000
0000
0000
0000
0000
0000
0000
0000
0000
0000
,  // measure 22
1000
0001
0100
0001
0010
0100
0010
0000
0000
0000
0000
0000
,  // measure 23
0100
0010
0001
1000
0010
0100
0001
0000
0000
0000
0000
0000
,  // measure 24
1000
1000
0001
0010
0010
0001
1000
0100
,  // measure 25
1100
0100
0100
0110
0010
0010
0011
0001
,  // measure 26
0001
1001
1000
1000
1001
0010
1001
0000
,  // measure 27
0001
0100
0000
0010
1000
0000
1000
0100
,  // measure 28
0000
0010
0001
0000
1000
0000
0001
0000
,  // measure 29
0100
0100
0001
0010
0010
0001
0100
0100
,  // measure 30
0001
0010
0010
0001
1000
1000
0001
0001
,  // measure 31
1000
0001
0010
0100
0010
0001
1000
0010
,  // measure 32
0100
0010
1000
0001
0010
0001
1000
0100
,  // measure 33
1000
0100
0000
0010
0001
0000
1000
0100
,  // measure 34
1000
0001
0000
1000
0000
0000
0000
1000
0001
0000
0001
0000
1000
0000
0001
1000
,  // measure 35
0000
0001
0000
1000
0000
0001
0000
1000
0000
0001
0000
1000
0001
0000
0000
0000
,  // measure 36
0001
1000
0000
0001
0000
1000
0000
0001
0000
1000
0000
0001
0000
1000
0000
0201
,  // measure 37
0000
0000
0300
0021
,  // measure 38
0000
0000
0000
0000
0000
0030
0000
0000
1200
0000
0000
0000
0000
0000
0000
0000
,  // measure 39
0300
1002
0000
0000
,  // measure 40
1003
0010
0100
0010
,  // measure 41
1000
0000
0001
0000
0010
0001
1000
0010
,  // measure 42
0100
0001
1000
0010
,  // measure 43
0100
0001
0010
0100
,  // measure 44
1000
0001
1000
0001
1000
0001
1000
0001
,  // measure 45
1000
0001
1000
0001
1000
0100
0010
0001
,  // measure 46
1000
0001
1000
0001
1000
0001
1000
0001
,  // measure 47
1000
0100
0010
0001
0010
0010
0001
0001
,  // measure 48
0100
0010
1000
0001
0010
0100
0010
0001
,  // measure 49
1000
0010
1000
0001
0010
0100
0010
0001
,  // measure 50
0010
0001
1000
0010
0100
0010
1000
0001
,  // measure 51
0010
0100
0010
0001
1000
0010
1000
0001
,  // measure 52
0010
0001
1000
0010
0100
0010
1000
0001
,  // measure 53
0010
0100
0010
0010
0010
0100
0010
0001
,  // measure 54
1000
0001
0100
0010
1000
0001
0010
0001
,  // measure 55
1000
0010
0100
0001
1000
0010
0001
0010
,  // measure 56
1000
0001
0001
0100
0010
0010
1000
0100
,  // measure 57
0100
0000
0010
0000
0100
0000
0100
0000
1000
0000
0001
0100
0001
0100
0010
1000
,  // measure 58
0020
0000
1030
0000
0001
1000
0100
0000
,  // measure 59
0010
0200
2300
3020
,  // measure 60
0130
0001
0020
0000
0130
0000
0010
0000
,  // measure 61
0001
2000
3002
0203
,  // measure 62
0310
1000
0100
0000
1000
0000
0001
0000
,  // measure 63
0100
0020
0230
0302
,  // measure 64
0013
0000
0001
0000
1000
0000
0000
0000
0100
0000
0000
0000
0010
0000
0001
1000
,  // measure 65
0002
0000
0023
0000
,  // measure 66
0130
0000
0110
0000
0010
0001
0101
0000
,  // measure 67
0001
0000
1001
0000
1000
0010
0110
0000
,  // measure 68
0010
0000
1010
0000
1000
0001
0011
0000
,  // measure 69
0100
0000
0011
0000
0010
0001
0101
0000
,  // measure 70
0010
0000
1010
0000
1000
0100
0110
0000
,  // measure 71
0100
0000
1100
0000
0100
1000
1010
0000
,  // measure 72
0100
0001
0010
0001
0100
0010
1000
0001
,  // measure 73
0010
0100
0010
0100
0010
0100
0010
0100
,  // measure 74
0010
0001
1000
0100
1000
0010
0100
0001
,  // measure 75
1000
0001
1000
0001
1000
0001
1000
0001
,  // measure 76
1000
0010
0100
0010
0100
0010
0100
0010
,  // measure 77
1000
0001
1000
0001
1000
0100
0010
0001
,  // measure 78
1000
0000
0000
0000
0000
0000
0001
0100
,  // measure 79
1000
0100
0001
0010
0000
0000
0000
0000
,  // measure 80
0000
0000
0000
0000
,  // measure 81
0000
0000
0000
0000
,  // measure 82
1001
0000
0000
0000
0000
0000
1000
0010
,  // measure 83
0001
0010
1000
0100
0000
0000
0000
0000
,  // measure 84
1001
0000
0000
0000
,  // measure 85
0000
0000
0000
0000
,  // measure 86
1001
0000
0000
1000
0000
0001
0100
0000
0000
0010
0000
1000
,  // measure 87
0100
0000
0000
0010
0000
0100
1000
0000
0000
0010
0000
0100
,  // measure 88
0001
0000
0000
0010
0000
0100
1000
0000
0000
0100
0000
1000
,  // measure 89
0010
0000
0000
1000
0000
0001
0010
0000
0100
1000
0000
1000
,  // measure 90
0001
0000
0000
0100
0000
0010
1000
0000
0000
0100
0000
0010
,  // measure 91
0001
0000
0000
0010
0000
0001
0100
0000
0000
0010
0000
0100
,  // measure 92
0001
1000
0100
1000
0001
0010
0100
1000
,  // measure 93
0001
0100
0010
0100
0000
0010
1000
0001
,  // measure 94
0010
0000
0100
0010
0200
0000
0000
0000
0310
0000
0100
0010
0200
0000
0000
0000
,  // measure 95
2300
0000
0000
0000
3002
0000
0000
0000
1003
0001
0100
0000
0020
0000
0000
0000
,  // measure 96
0130
0001
0010
0001
0000
0010
0001
1000
,  // measure 97
0100
0000
1000
0000
0010
0000
0100
0000
0000
0000
0010
0100
0010
0000
1000
0000
,  // measure 98
0001
0000
0000
0000
1000
0000
0000
0000
0001
0000
0010
0001
0010
0000
0100
0000
,  // measure 99
0010
1000
0010
0001
,  // measure 100
1000
0000
0000
0010
0000
0000
1000
0000
0000
0100
0000
0000
1000
0000
0001
0000
,  // measure 101
0100
0000
0000
0001
0000
0000
0100
0000
0000
1000
0000
0000
0100
0000
0010
0000
,  // measure 102
1000
0000
0000
0010
0000
0000
0100
0000
0000
0001
0000
0000
0010
0000
0100
0000
,  // measure 103
1000
0000
0000
0010
0000
0000
1000
0000
0000
0010
0000
0000
0100
0000
0001
0000
,  // measure 104
0021
0000
0000
0000
,  // measure 105
0000
0000
0000
0030
0100
0010
0000
0021
,  // measure 106
0000
0000
1030
0100
0000
2002
0000
0000
,  // measure 107
0000
3003
0002
0023
,  // measure 108
0230
1300
1100
1000
,  // measure 109
0010
0200
0302
0023
,  // measure 110
0230
0310
0011
0001
,  // measure 111
0100
0020
2030
3002
,  // measure 112
1003
0100
0010
0100
1000
0010
0100
0001
,  // measure 113
0010
0100
0010
0001
0100
0010
1000
0001
,  // measure 114
2000
3200
0320
0032
,  // measure 115
0203
0320
2030
0002
,  // measure 116
3003
0000
0000
0000
;

//---------------dance-single - ----------------
#NOTEDATA:;
#CHARTNAME:;
#STEPSTYPE:dance-single;
#DESCRIPTION:;
#CHARTSTYLE:;
#DIFFICULTY:Challenge;
#METER:125;
#RADARVALUES:0.798499,1.805527,0.192250,0.484186,1.036015,785.000000,758.000000,27.000000,68.000000,42.000000,0.000000,2.000000,0.000000,0.000000,0.798499,1.805527,0.192250,0.484186,1.036015,785.000000,758.000000,27.000000,68.000000,42.000000,0.000000,2.000000,0.000000,0.000000;
#CREDIT:;
#OFFSET:-0.065000;
#BPMS:0.000000=104.500000
,24.000000=209.000000
,136.000000=104.500000
,152.000000=209.000000
,256.000000=104.500000
,272.000000=209.000000
,344.000000=104.500000
,347.000000=209.000000
,348.500000=104.500000
,349.000000=209.000000
,351.000000=104.500000
,352.500000=209.000000
,379.000000=104.500000
;
#STOPS:152.000000=0.071770
,152.250000=0.071770
,152.500000=0.071770
,152.750000=0.071770
,153.000000=0.071770
,153.250000=0.071770
,153.500000=0.071770
,153.750000=0.071770
,154.000000=0.071770
,154.250000=0.071770
,154.500000=0.071770
,154.750000=0.071770
,155.000000=0.071770
,155.250000=0.071770
,155.500000=0.071770
,155.750000=0.071770
,156.000000=0.071770
,156.250000=0.071770
,156.500000=0.071770
,156.750000=0.071770
,157.000000=0.071770
,157.250000=0.071770
,157.500000=0.071770
,157.750000=0.071770
,158.000000=0.071770
,158.250000=0.071770
,158.500000=0.071770
,158.750000=0.071770
,159.000000=0.071770
,159.250000=0.071770
,159.500000=0.071770
,159.750000=0.071770
,160.000000=0.071770
,160.250000=0.071770
,160.500000=0.071770
,160.750000=0.071770
,161.000000=0.071770
,161.250000=0.071770
,161.500000=0.071770
,161.750000=0.071770
,162.000000=0.071770
,162.250000=0.071770
,162.500000=0.071770
,162.750000=0.071770
,163.000000=0.071770
,163.250000=0.071770
,163.500000=0.071770
,163.750000=0.071770
,164.000000=0.071770
,164.250000=0.071770
,164.500000=0.071770
,164.750000=0.071770
,165.000000=0.071770
,165.250000=0.071770
,165.500000=0.071770
,165.750000=0.071770
,166.000000=0.071770
,166.250000=0.071770
,166.500000=0.071770
,166.750000=0.071770
,167.000000=0.071770
,167.250000=0.071770
,167.500000=0.071770
,167.750000=0.071770
;
#DELAYS:;
#WARPS:;
#TIMESIGNATURES:0.000000=4=4
;
#TICKCOUNTS:0.000000=4
;
#COMBOS:0.000000=1
;
#SPEEDS:0.000000=1.000000=0.000000=0
;
#SCROLLS:0.000000=1.000000
;
#FAKES:;
#LABELS:0.000000=Song Start
;
#NOTES:
// measure 0
0000
0000
0000
0000
,  // measure 1
0000
0000
0000
0000
,  // measure 2
1000
0002
0000
0000
0000
0013
1000
0010
,  // measure 3
0001
0200
0000
0000
0000
0310
1000
0001
,  // measure 4
1000
0001
0100
0001
1000
0001
0100
0001
1000
0001
0100
0001
1000
0001
0100
0001
,  // measure 5
1000
0010
1000
0001
1000
0010
1000
0001
1000
0010
1000
0001
1000
0010
1000
0001
,  // measure 6
1002
0000
0000
0020
0000
0033
0100
1000
,  // measure 7
2100
0000
0000
0020
0000
0000
3030
0000
,  // measure 8
1020
0000
0000
0200
0000
0330
0010
1000
,  // measure 9
1002
0000
0000
0020
0000
0000
0033
0000
,  // measure 10
0102
0000
0000
0020
0000
0033
0010
0100
,  // measure 11
2100
0000
0000
3001
0000
0000
0000
0000
,  // measure 12
0100
0010
1000
0001
0010
0100
0010
0000
0000
0000
0000
0000
,  // measure 13
0001
0010
0100
1000
0010
0100
0001
0000
0000
0000
0000
0000
,  // measure 14
1000
0000
0000
0001
0000
0000
0000
0000
0000
0001
0000
0000
0100
0000
0000
0000
0010
0000
0000
0000
1000
0000
0000
0000
,  // measure 15
0001
0000
0000
0010
0000
0000
0100
0000
1000
0000
0002
0000
0000
0000
0000
0000
0000
0000
0003
0000
0000
0000
0000
0000
,  // measure 16
1000
0010
0001
0010
0100
0001
0010
0000
0000
0000
0000
0000
,  // measure 17
0100
1000
0100
0001
0100
0010
1000
0000
0000
0000
0000
0000
,  // measure 18
1000
0001
0100
0010
1000
0001
0010
0100
,  // measure 19
1001
0010
0010
1001
0100
0100
1001
0010
,  // measure 20
0010
1001
0100
0100
1001
M01M
1001
0000
,  // measure 21
0001
0100
0000
0010
1000
0000
0100
0010
,  // measure 22
0000
0100
1000
0000
0020
0000
0230
0000
,  // measure 23
0301
0001
0010
1000
1000
0010
0001
0001
,  // measure 24
0010
1000
1000
0010
0100
0010
0100
0010
,  // measure 25
0001
0100
0010
1000
0001
0010
0100
0010
0001
0100
0010
1000
,  // measure 26
0001
0010
0100
0010
0001
1000
0100
0010
0001
1000
0100
0010
,  // measure 27
0001
0100
0000
0010
1000
0000
0001
1000
,  // measure 28
1000
0001
0000
1000
0000
0000
0000
1000
0001
0000
0010
0000
0100
0000
1000
0010
,  // measure 29
0000
0100
0000
0010
0000
1000
0000
0100
0000
0010
0000
0001
1000
0000
0000
0000
,  // measure 30
0010
0100
0000
0010
0000
1000
0000
0100
0000
0010
0000
0001
0000
1000
0000
1002
,  // measure 31
0000
0000
0000
0000
0000
0000
0100
0000
0000
0000
0100
0000
0000
0000
0100
0003
0000
0000
2010
0000
0000
0000
0000
0000
,  // measure 32
0001
0000
0001
0000
3001
0000
0210
0000
0000
0010
0000
0010
,  // measure 33
0000
0310
0000
1002
0000
0000
1000
0000
1000
0000
1000
0000
,  // measure 34
1003
0010
1000
0001
0100
0010
1000
0001
0100
0010
1000
0001
1000
0100
0010
0001
,  // measure 35
1000
0010
0100
0001
1000
0010
0100
0001
1000
0010
0100
0001
1000
0100
0010
0001
,  // measure 36
1000
0001
1000
0000
0001
1000
0001
0000
0100
0010
0100
0000
0010
0100
0010
0000
1000
0001
1000
0000
0010
0100
0010
0000
1000
0001
1000
0001
0010
0100
0010
0100
,  // measure 37
0010
0001
0010
0000
1000
0100
1000
0000
0001
0010
0001
0000
1000
0100
1000
0000
0001
0100
0001
0000
1000
0010
1000
0000
0001
0100
0001
0100
0010
1000
0010
1000
,  // measure 38
0001
1000
0100
1000
0010
0100
0001
0010
0100
0010
0001
0100
0010
1000
0001
0010
,  // measure 39
0100
0010
0001
0100
0010
1000
0010
0100
0001
0100
0001
0010
0001
0010
0100
1000
,  // measure 40
0001
0100
0001
0010
0100
0010
0001
1000
0010
0100
0100
0100
0010
1000
0001
0010
,  // measure 41
0100
1000
0001
0100
0010
1000
0001
0010
0100
1000
0100
1000
1000
1000
1000
1000
,  // measure 42
1000
0101
0001
0001
1010
0010
0010
1001
,  // measure 43
1000
0000
1000
0000
0011
0000
0010
0000
0010
0100
0010
0001
0100
0010
1000
0001
,  // measure 44
0020
0000
0000
0000
0130
0000
0000
0010
0001
0000
1000
0000
0010
0000
0000
0000
,  // measure 45
0100
0001
2000
0000
3200
0000
0320
0000
,  // measure 46
0130
0000
1000
0000
1100
0000
0000
1000
0010
0000
0100
0000
0001
0000
0000
0000
,  // measure 47
1000
0001
0020
0000
2030
0000
3020
0000
,  // measure 48
0031
0000
0100
0000
0101
0000
0000
1000
0010
0000
0100
0000
0001
0000
0000
0000
,  // measure 49
1000
0001
0020
0000
0230
0000
0320
0000
,  // measure 50
0031
0000
0100
0000
2000
0000
0000
0000
3200
0000
0000
0000
0310
0000
1000
0001
,  // measure 51
0020
0130
2000
3001
,  // measure 52
0100
0000
0000
0001
0100
0000
0000
0100
0010
0000
0000
0010
1000
0000
0001
0000
,  // measure 53
0010
0000
0000
0100
0010
0000
0000
0010
0001
0000
0000
0001
1000
0000
0010
0000
,  // measure 54
0100
0000
0000
0100
0001
0000
0000
0001
0010
0000
0000
0100
1000
0000
0010
0000
,  // measure 55
0100
0000
0000
0010
1000
0000
0000
0001
0010
0000
0000
0100
1000
0000
0001
0000
,  // measure 56
0100
0000
0000
0001
1000
0000
0000
0010
0100
0000
0000
0001
1000
0000
0010
0000
,  // measure 57
0100
0000
0000
0010
1000
0000
0000
0001
0100
0000
0000
0010
1000
0000
0001
0000
,  // measure 58
0010
0000
0001
0100
0001
0100
0010
1000
0010
1000
0001
0010
0001
0100
0010
0100
,  // measure 59
0001
1000
0001
1000
0001
1000
0001
1000
0001
1000
0001
1000
0001
1000
0001
1000
,  // measure 60
0001
0010
0100
1000
0010
0100
0001
1000
0010
1000
0001
0100
0001
0010
0100
0010
,  // measure 61
0001
0000
1000
0010
1000
0000
0010
1000
0010
0000
1000
0010
1000
0000
0010
0000
,  // measure 62
0100
0000
0010
0100
0010
0100
0010
0100
0010
0100
0010
0100
0001
1000
0001
1000
,  // measure 63
0001
0010
0001
0010
0001
0010
0001
0010
0001
0010
0001
0010
0100
1000
0001
0010
,  // measure 64
0100
0000
0000
0000
0000
0000
0020
0032
0203
0320
2030
0002
3003
0000
0000
0000
,  // measure 65
0000
0000
0000
0000
,  // measure 66
M00M
0000
0000
000M
0000
0000
M000
0000
00M0
0000
0000
0000
0200
0000
2300
0000
3200
0000
0302
0000
0023
0000
0200
0000
0330
0000
0000
0000
0000
0000
0000
0000
,  // measure 67
MM00
0000
0000
0M00
0000
0000
M000
0000
00M0
0000
0000
0000
0000
0000
0000
0000
0000
0000
0000
0000
0000
0000
0000
0000
0000
0000
0000
0000
0000
0000
0000
0000
,  // measure 68
1001
0000
0000
1000
0010
0100
0001
0000
0000
0010
0100
1000
,  // measure 69
0100
0000
0000
0010
0001
0100
0010
0000
0000
0100
0010
1000
,  // measure 70
0001
0000
0000
0010
0001
1000
0010
0000
0000
0100
0010
1000
,  // measure 71
0100
0000
0000
0010
0001
0100
0010
0000
0000
1000
0001
0100
,  // measure 72
0010
0000
0000
0100
0010
1000
0001
0000
0000
0010
0001
1000
,  // measure 73
0100
0000
0000
1000
0010
0100
0001
0000
0000
1000
0001
0010
,  // measure 74
0100
0010
0001
1000
0000
0001
1000
0010
,  // measure 75
1000
0001
0010
0100
0000
0010
0001
1000
,  // measure 76
0010
0000
1000
0100
0001
0000
0000
0000
0010
0000
0001
0100
1000
0000
0000
0000
,  // measure 77
0200
0000
0000
0000
0320
0000
0000
0000
1030
0000
0001
1000
0100
0000
0000
0000
,  // measure 78
0010
0001
0100
0010
0000
0100
0010
1000
,  // measure 79
0001
0000
0010
0000
0100
0000
0010
0000
0000
0000
0100
0010
0100
0000
1000
0000
,  // measure 80
0020
0000
0000
0000
0230
0000
0000
0000
0301
0000
1000
0100
0010
0000
0100
0000
,  // measure 81
2000
3200
0320
0032
,  // measure 82
1003
0000
0000
0010
0000
0000
0100
0000
0000
0001
0000
0000
0010
0000
0001
0000
,  // measure 83
0100
0000
0000
0010
0000
0000
1000
0000
0000
0100
0000
0000
0010
0000
0100
0000
,  // measure 84
1000
0000
0000
0010
0000
0000
0100
0000
0000
0001
0000
0000
0010
0000
0001
0000
,  // measure 85
1000
0000
0000
0010
0000
0000
0100
0000
0000
0001
0000
0000
1000
0000
0001
0000
,  // measure 86
0022
0000
0000
0000
0000
0000
0000
0000
0000
0000
0000
0033
0001
0000
0100
0000
,  // measure 87
0000
2200
3300
0100
0001
0000
0202
0000
,  // measure 88
0000
0303
0002
0000
0023
0000
0130
0000
,  // measure 89
0010
0001
1000
0010
0000
0000
0100
0001
1000
0100
0000
0000
,  // measure 90
2000
3020
0230
0301
,  // measure 91
1000
0010
0001
0010
0000
0000
1000
0100
0001
0100
0000
0000
,  // measure 92
0020
0000
2030
0000
3200
0000
1300
0010
,  // measure 93
0100
0001
0010
0100
0010
0001
0100
0010
,  // measure 94
1000
0000
0001
0000
1000
0000
0100
0000
0001
0000
0100
0000
4MM4
0MM0
0MM0
0MM0
,  // measure 95
0MM0
0MM0
0MM0
0MM0
0MM0
0MM0
0MM0
0MM0
0MM0
0000
0MM0
3MM3
0000
0000
0000
0000
;

//---------------dance-single - ----------------
#NOTEDATA:;
#CHARTNAME:;
#STEPSTYPE:dance-single;
#DESCRIPTION:;
#CHARTSTYLE:;
#DIFFICULTY:Medium;
#METER:80;
#RADARVALUES:0.522839,0.702069,0.249213,0.534028,0.053403,514.000000,479.000000,35.000000,75.000000,0.000000,0.000000,0.000000,0.000000,0.000000,0.522839,0.702069,0.249213,0.534028,0.053403,514.000000,479.000000,35.000000,75.000000,0.000000,0.000000,0.000000,0.000000,0.000000;
#CREDIT:;
#NOTES:
// measure 0
0000
0000
0000
0000
,  // measure 1
0000
0000
0000
0000
,  // measure 2
0000
0000
0000
0000
,  // measure 3
0000
0000
0000
0000
,  // measure 4
0001
0020
0000
0000
,  // measure 5
0030
0001
0100
1000
,  // measure 6
0100
0020
0000
0000
,  // measure 7
0030
0100
0010
1000
,  // measure 8
0001
0000
0000
0010
0000
0000
0100
0000
,  // measure 9
0000
0000
0000
0010
,  // measure 10
0001
0000
0000
1000
0000
0000
0010
0000
,  // measure 11
1000
0000
0001
0000
,  // measure 12
0110
0000
0000
1010
0000
0000
1000
0001
,  // measure 13
0101
0000
0000
0021
0000
0000
0030
0000
,  // measure 14
1001
0000
0000
1010
0000
0000
1000
0100
,  // measure 15
1100
0000
0000
0012
0000
0000
0003
0000
,  // measure 16
0101
0000
0000
1010
0000
0000
1000
0001
,  // measure 17
0100
0000
0000
0100
0000
0000
0000
0000
,  // measure 18
0010
1000
0001
0010
0100
0000
0000
0000
,  // measure 19
0010
0001
1000
0010
0100
0000
0000
0000
,  // measure 20
0010
0000
0000
0000
0000
0000
0000
0000
1000
0000
0000
0100
0000
0000
0010
0000
,  // measure 21
0001
0100
0010
1000
0000
0000
0000
0000
,  // measure 22
0001
0010
0001
1000
0010
0000
0000
0000
,  // measure 23
0100
0010
1000
0100
0010
0000
0000
0000
,  // measure 24
0100
1000
0010
0100
,  // measure 25
0001
0010
0010
0001
1000
1000
0001
0100
,  // measure 26
0100
0001
1000
1000
0001
1000
1001
0000
,  // measure 27
1000
0100
0000
0010
0001
0000
0001
0100
,  // measure 28
0000
0100
0010
0000
2000
0000
3002
0000
,  // measure 29
0013
0001
1000
0001
0010
0100
0010
0001
,  // measure 30
1000
0001
0010
0100
0010
0001
0010
0001
,  // measure 31
1000
0100
0001
0100
,  // measure 32
0010
0001
0100
0010
,  // measure 33
1000
0010
0000
0100
0001
0000
0010
0100
,  // measure 34
1000
0000
0000
0000
0000
0000
0000
0001
0000
0000
0000
1000
0000
0000
0000
0010
,  // measure 35
0000
0000
0000
1000
0000
0001
0000
0100
0000
0010
0000
1000
0000
0001
0000
0000
,  // measure 36
0000
0000
1000
0000
0000
0000
0001
0000
0000
0000
0010
0000
0000
0000
0002
0020
,  // measure 37
0000
0000
0033
0202
,  // measure 38
0000
0303
2020
0000
,  // measure 39
3030
2200
0000
3300
,  // measure 40
1000
0100
0010
0100
,  // measure 41
1000
0000
0001
0000
1000
0100
0010
0001
,  // measure 42
1000
0001
0100
0001
,  // measure 43
1000
0000
0001
0000
0010
0100
1000
0001
,  // measure 44
2000
3020
2030
3020
,  // measure 45
2030
0000
3020
0000
1030
0010
0100
0001
,  // measure 46
0020
0032
0023
0032
,  // measure 47
0023
0000
0032
0000
1003
0001
1000
0001
,  // measure 48
0100
1000
0100
0000
0010
1000
0000
0001
,  // measure 49
0010
0100
0010
0000
0001
1000
0100
0010
,  // measure 50
0001
0000
1000
0010
0100
0001
0010
0000
,  // measure 51
0100
0010
0001
1000
0100
0000
0010
0100
,  // measure 52
1000
0010
0100
0010
1000
0001
0010
0100
,  // measure 53
0010
0000
0001
0010
0001
0000
1000
0000
,  // measure 54
0001
0100
0010
1000
0100
0000
1000
0000
,  // measure 55
0001
0000
1000
0001
0100
0001
0100
0001
,  // measure 56
0100
0010
1000
1000
0010
0100
0100
0010
,  // measure 57
0001
0001
0010
0100
0001
1000
0100
0010
,  // measure 58
0002
0000
1003
0000
0100
1000
0100
0000
,  // measure 59
1000
0020
0230
0302
,  // measure 60
0013
0100
2000
0000
3100
0000
1000
0000
,  // measure 61
0010
0200
0320
2030
,  // measure 62
3001
1000
0200
0000
1300
0000
0010
0000
,  // measure 63
0100
0002
0023
0230
,  // measure 64
0310
0001
2000
0000
3001
0000
0100
0010
,  // measure 65
2000
0000
0000
0000
0200
0000
0000
3300
,  // measure 66
0012
0010
0010
0013
,  // measure 67
2010
0010
0010
3010
,  // measure 68
0102
0100
0100
0103
,  // measure 69
2100
0100
0100
3100
,  // measure 70
1020
0000
0130
0000
0001
1000
0100
0000
,  // measure 71
0021
0000
0130
0000
0010
0001
1000
0000
,  // measure 72
0001
0100
0010
0000
0100
0010
1000
0000
,  // measure 73
0001
1000
0001
1000
0001
1000
0001
1000
,  // measure 74
0001
0100
0010
0000
1000
0100
0010
0000
,  // measure 75
0001
0010
0001
0010
0001
0010
0001
0010
,  // measure 76
0100
1000
0010
0100
0010
0100
0010
0100
,  // measure 77
0001
0010
0001
0010
0001
0010
0100
1000
,  // measure 78
0001
0000
0000
0000
0000
0000
1000
0001
,  // measure 79
1000
0001
1000
0001
0000
0000
0000
0000
,  // measure 80
0000
0000
0000
0000
,  // measure 81
0000
0000
0000
0000
,  // measure 82
0000
0000
0000
0000
0000
0000
1000
0001
,  // measure 83
1000
0001
1000
0001
0000
0000
0000
0000
,  // measure 84
0000
0000
0000
0000
,  // measure 85
0000
0000
0000
0000
,  // measure 86
0010
1010
0010
0110
,  // measure 87
0100
0101
0001
0011
,  // measure 88
0010
0110
0100
1100
,  // measure 89
1000
1001
0001
0101
,  // measure 90
0100
0110
0010
1010
,  // measure 91
1000
1001
1000
1001
,  // measure 92
0001
0000
1000
0000
0010
1000
0010
0000
,  // measure 93
0100
0000
0010
0000
1000
0001
1000
0000
,  // measure 94
0002
0013
0002
0103
,  // measure 95
1000
0000
0100
0000
1000
0100
0001
0000
,  // measure 96
0001
0000
0100
0000
0010
0100
0010
0000
,  // measure 97
0100
0000
1000
0000
0010
1000
0010
0000
,  // measure 98
2000
3020
0130
0001
,  // measure 99
2000
3002
0023
0230
,  // measure 100
0310
0000
0000
0000
0000
0000
0001
0000
0100
0000
0000
0010
0000
0000
1000
0000
,  // measure 101
0001
0000
0000
0000
0000
0000
1000
0000
0100
0000
0000
1000
0000
0000
0010
0000
,  // measure 102
0100
0000
0000
0000
0000
0000
0010
0000
1000
0000
0000
0001
0000
0000
0010
0000
,  // measure 103
0100
0000
0000
0000
0000
0000
0010
0000
0001
0000
0000
1000
0000
0000
0010
0000
,  // measure 104
2002
0000
0000
0000
,  // measure 105
0000
0000
3003
0000
0001
0100
0000
2020
,  // measure 106
0000
3030
1000
0100
0000
0022
0000
0000
,  // measure 107
0000
0033
0002
2003
,  // measure 108
3001
0000
0100
0000
,  // measure 109
0010
2000
3020
0230
,  // measure 110
0302
0003
0100
0000
,  // measure 111
0010
2000
3020
0230
,  // measure 112
0302
1003
0010
0100
,  // measure 113
0001
2000
3020
0230
,  // measure 114
0302
0000
0000
0000
,  // measure 115
0000
0000
0000
0000
,  // measure 116
0003
0000
0000
0000
;

//---------------dance-single - ----------------
#NOTEDATA:;
#CHARTNAME:;
#STEPSTYPE:dance-single;
#DESCRIPTION:;
#CHARTSTYLE:;
#DIFFICULTY:Easy;
#METER:65;
#RADARVALUES:0.419085,0.702069,0.256334,0.135287,0.000000,412.000000,376.000000,36.000000,19.000000,0.000000,0.000000,0.000000,0.000000,0.000000,0.419085,0.702069,0.256334,0.135287,0.000000,412.000000,376.000000,36.000000,19.000000,0.000000,0.000000,0.000000,0.000000,0.000000;
#CREDIT:;
#NOTES:
// measure 0
0000
0000
0000
0000
,  // measure 1
0000
0000
0000
0000
,  // measure 2
0000
0000
0000
0000
,  // measure 3
0000
0000
0000
0000
,  // measure 4
1000
0200
0000
0000
,  // measure 5
0000
1300
0010
0100
,  // measure 6
0001
0020
0000
0000
,  // measure 7
0000
0031
0010
0100
,  // measure 8
1000
0000
0000
0100
0000
0000
1000
0000
,  // measure 9
0000
0000
0000
0100
,  // measure 10
0010
0000
0000
0001
0000
0000
0100
0000
,  // measure 11
0010
0000
1000
0000
,  // measure 12
0001
0000
0000
0101
0000
0000
0001
0100
,  // measure 13
0010
0000
0000
1010
0000
0000
0000
0000
,  // measure 14
1000
0000
0000
0101
0000
0000
0001
0010
,  // measure 15
0100
0000
0000
1100
0000
0000
0000
0000
,  // measure 16
1000
0000
0000
0101
0000
0001
0000
0010
,  // measure 17
0100
0000
0000
0011
0000
0000
0000
0000
,  // measure 18
0001
1000
0010
0000
,  // measure 19
1000
0001
0010
0000
,  // measure 20
0110
0000
0100
0010
,  // measure 21
0001
0000
1000
0001
0000
0000
0000
0000
,  // measure 22
0100
0001
0010
0000
,  // measure 23
0100
0010
0001
0000
,  // measure 24
1000
0001
0100
0010
,  // measure 25
1000
0001
1000
0001
1000
0001
1000
0001
,  // measure 26
1000
0001
1000
0001
1000
1000
1000
0000
,  // measure 27
0001
0100
0010
1000
,  // measure 28
0010
0100
0001
1000
,  // measure 29
0001
1000
0000
1000
0001
0000
0001
1000
,  // measure 30
0000
1000
0001
0000
0001
1000
0001
0000
,  // measure 31
0001
0100
0010
1000
,  // measure 32
0010
0100
0001
0010
,  // measure 33
1000
0010
0100
0010
,  // measure 34
0002
0000
0000
0000
,  // measure 35
0000
0000
0000
0000
,  // measure 36
0000
0000
0000
0000
,  // measure 37
1003
0000
0000
0101
,  // measure 38
0000
0000
0011
0000
,  // measure 39
0000
1100
0000
0000
,  // measure 40
1001
0000
1000
0001
,  // measure 41
0000
0001
0100
0010
,  // measure 42
1000
0010
0000
0100
,  // measure 43
0001
0010
0100
1000
,  // measure 44
0001
0001
0001
0001
,  // measure 45
0001
0001
0001
1000
,  // measure 46
0001
0001
0001
0001
,  // measure 47
0001
0001
0100
0100
,  // measure 48
0010
1000
0010
0100
,  // measure 49
0001
0010
0100
0010
,  // measure 50
0001
1000
0100
1000
,  // measure 51
0010
0100
0001
0010
,  // measure 52
0100
0010
0001
1000
,  // measure 53
0010
0000
0100
0010
0100
0000
0010
0000
,  // measure 54
1000
0010
0100
0001
,  // measure 55
0010
0000
0001
1000
0010
1000
0010
1000
,  // measure 56
0010
1000
0000
0000
0011
0000
0000
1010
,  // measure 57
0000
0000
1100
0000
0000
1000
0001
0100
,  // measure 58
0010
0000
0000
0000
,  // measure 59
0000
0100
0010
1000
,  // measure 60
0001
0010
0100
0000
0000
0000
0000
0000
,  // measure 61
0000
0010
0001
1000
,  // measure 62
0010
0100
0001
0000
0000
0000
0000
0000
,  // measure 63
0000
1000
0001
0010
,  // measure 64
0100
1000
0010
0000
0000
0000
0000
0100
,  // measure 65
0002
0000
2003
0000
,  // measure 66
3001
1000
0010
1010
,  // measure 67
1000
0010
0100
0101
,  // measure 68
0001
0010
0100
1100
,  // measure 69
1000
0010
0100
0110
,  // measure 70
0010
1000
0001
0011
,  // measure 71
0001
0010
0100
1100
,  // measure 72
1000
0001
0100
0010
,  // measure 73
1000
0010
1000
0010
1000
0010
1000
0010
,  // measure 74
1000
0010
0100
0001
,  // measure 75
0010
0001
0010
0001
0010
0001
0010
0001
,  // measure 76
0010
0100
0010
0100
0010
0100
0010
0100
,  // measure 77
0010
0001
1000
0001
1000
0001
0010
0100
,  // measure 78
1000
0000
0000
0200
,  // measure 79
2300
0002
3003
0000
,  // measure 80
0000
0000
0000
0000
,  // measure 81
0000
0000
0000
0000
,  // measure 82
1001
0000
0000
0002
,  // measure 83
0203
0020
0330
0000
,  // measure 84
1001
0000
0000
0000
,  // measure 85
0000
0000
0000
0000
,  // measure 86
0100
0001
0100
0001
,  // measure 87
0100
0010
0100
0010
,  // measure 88
1000
0010
1000
0010
,  // measure 89
1000
0100
1000
0100
,  // measure 90
0010
0100
0010
0100
,  // measure 91
0010
0001
0010
0001
,  // measure 92
0010
0001
0100
0010
,  // measure 93
1000
0100
0010
0001
,  // measure 94
1000
0101
1000
0101
,  // measure 95
0001
0000
1000
0000
0001
0010
0100
0000
,  // measure 96
0010
0001
0100
0010
,  // measure 97
1000
0000
0100
0000
0010
0100
1000
0000
,  // measure 98
0001
0000
1010
0000
0010
0100
0001
1000
,  // measure 99
0001
0100
0010
1000
,  // measure 100
1001
0000
0001
1000
,  // measure 101
0010
0000
1000
0001
,  // measure 102
0100
0000
0001
0010
,  // measure 103
0100
0000
0010
0001
,  // measure 104
2002
0000
0000
0000
,  // measure 105
0000
0000
3003
0000
0001
0100
0000
2020
,  // measure 106
0000
3030
1000
0100
0000
0022
0000
0000
,  // measure 107
0000
0033
0001
0100
,  // measure 108
0110
0000
0000
0000
,  // measure 109
0000
0100
0010
1000
,  // measure 110
1001
0000
0000
0000
,  // measure 111
0000
0001
0010
0100
,  // measure 112
1100
0100
0010
0001
,  // measure 113
1000
0110
1001
1010
,  // measure 114
0202
0000
0000
0000
,  // measure 115
0000
0000
0000
0000
,  // measure 116
0303
0000
0000
0000
;

//---------------dance-single - ----------------
#NOTEDATA:;
#CHARTNAME:;
#STEPSTYPE:dance-single;
#DESCRIPTION:;
#CHARTSTYLE:;
#DIFFICULTY:Beginner;
#METER:30;
#RADARVALUES:0.146476,0.324689,0.078324,0.000000,0.000000,144.000000,133.000000,11.000000,0.000000,0.000000,0.000000,0.000000,0.000000,0.000000,0.146476,0.324689,0.078324,0.000000,0.000000,144.000000,133.000000,11.000000,0.000000,0.000000,0.000000,0.000000,0.000000,0.000000;
#CREDIT:;
#NOTES:
// measure 0
0000
0000
0000
0000
,  // measure 1
0000
0000
0000
0000
,  // measure 2
0000
0000
0000
0000
,  // measure 3
0000
0000
0000
0000
,  // measure 4
0010
0000
0000
0000
,  // measure 5
0000
0000
0000
0000
,  // measure 6
1000
0000
0000
0000
,  // measure 7
0000
0000
0000
0000
,  // measure 8
0001
0000
0000
0000
,  // measure 9
0000
0000
0000
0000
,  // measure 10
0100
0000
0000
0000
,  // measure 11
0000
0000
0000
0000
,  // measure 12
1001
0000
0000
0000
,  // measure 13
0010
0000
0000
0000
,  // measure 14
1001
0000
0000
0000
,  // measure 15
0100
0000
0000
0000
,  // measure 16
1001
0000
0000
0000
,  // measure 17
0010
0000
0000
0000
,  // measure 18
1000
0000
0000
0000
,  // measure 19
0001
0000
0000
0000
,  // measure 20
0100
0000
0010
0000
,  // measure 21
1000
1000
0000
0000
,  // measure 22
0001
0000
0000
0000
,  // measure 23
0010
0000
0000
0000
,  // measure 24
0001
0000
0000
0000
,  // measure 25
1001
0000
0000
0000
,  // measure 26
0000
0000
0000
0000
,  // measure 27
0001
0000
0000
1000
,  // measure 28
0000
0000
0010
0000
,  // measure 29
0100
0000
0000
0000
,  // measure 30
0000
0000
0000
0000
,  // measure 31
0010
0000
0000
0000
,  // measure 32
1000
0000
0000
0000
,  // measure 33
0001
0000
0100
0000
,  // measure 34
1001
0000
0000
0000
,  // measure 35
0000
0000
0000
0000
,  // measure 36
0000
0000
0000
0000
,  // measure 37
0010
0000
0000
1000
,  // measure 38
0000
0000
0100
0000
,  // measure 39
0000
1000
0000
0000
,  // measure 40
0001
0000
0000
0000
,  // measure 41
0000
0000
0000
0000
,  // measure 42
0100
0000
0000
0000
,  // measure 43
0000
0000
0000
0000
,  // measure 44
0010
0000
0010
0000
,  // measure 45
0010
0000
0010
0000
,  // measure 46
1000
0000
1000
0000
,  // measure 47
1000
0000
1000
0000
,  // measure 48
0001
0000
0000
0000
,  // measure 49
1000
0000
0000
0000
,  // measure 50
0010
0000
0000
0000
,  // measure 51
1000
0000
0000
0000
,  // measure 52
0100
0000
0000
0000
,  // measure 53
1000
0000
0000
0000
,  // measure 54
0001
0000
0000
0000
,  // measure 55
0010
0000
0000
0000
,  // measure 56
0001
0000
0000
1000
,  // measure 57
0000
0000
0001
1000
,  // measure 58
0001
0000
0000
0000
,  // measure 59
0000
0100
0100
0000
,  // measure 60
0010
0000
0000
0000
,  // measure 61
0000
1000
1000
0000
,  // measure 62
0001
0000
0000
0000
,  // measure 63
0000
0010
0010
0000
,  // measure 64
0100
0000
0000
0000
,  // measure 65
0010
0000
0001
0000
,  // measure 66
1001
0000
0000
0000
,  // measure 67
1000
0000
0000
0000
,  // measure 68
0001
0000
0000
0000
,  // measure 69
0100
0000
0000
0000
,  // measure 70
0010
0000
0000
0000
,  // measure 71
1000
0000
0000
0000
,  // measure 72
1001
0000
0001
0000
,  // measure 73
0100
0100
0100
0000
,  // measure 74
0001
0000
1000
0000
,  // measure 75
0010
0010
0010
0000
,  // measure 76
1000
1000
1000
0000
,  // measure 77
0001
0001
0001
0000
,  // measure 78
0110
0000
0000
0000
,  // measure 79
0000
0000
0000
0000
,  // measure 80
0000
0000
0000
0000
,  // measure 81
0000
0000
0000
0000
,  // measure 82
0000
0000
0000
0000
,  // measure 83
0000
0000
0000
0000
,  // measure 84
0000
0000
0000
0000
,  // measure 85
0000
0000
0000
0000
,  // measure 86
1000
0000
0000
0000
,  // measure 87
0001
0000
0000
0000
,  // measure 88
0100
0000
0000
0000
,  // measure 89
0010
0000
0000
0000
,  // measure 90
1000
0000
0000
0000
,  // measure 91
0010
0000
0000
0000
,  // measure 92
0100
0000
0000
0000
,  // measure 93
0001
0000
0000
0000
,  // measure 94
1000
0000
0001
0000
,  // measure 95
1000
1000
0001
0001
,  // measure 96
0100
0000
0000
0000
,  // measure 97
0010
0000
0000
0000
,  // measure 98
1000
0000
0000
0000
,  // measure 99
0010
0010
0100
0100
,  // measure 100
0001
0000
0000
0000
,  // measure 101
1000
0000
0000
0000
,  // measure 102
0100
0000
0000
0000
,  // measure 103
1000
0000
0000
0000
,  // measure 104
1001
0000
0000
0000
,  // measure 105
0000
0000
0000
0110
,  // measure 106
0000
0000
1001
0000
,  // measure 107
0000
0000
0001
0001
,  // measure 108
0001
0000
0000
0000
,  // measure 109
0000
1000
0001
0100
,  // measure 110
0010
0000
0000
0000
,  // measure 111
0000
0100
0010
1000
,  // measure 112
0001
0000
0000
0000
,  // measure 113
0000
1000
0100
0010
,  // measure 114
0001
0000
0000
0000
;
