#VERSION:0.83;
#TITLE:Innocent Walls;
#SUBTITLE:;
#ARTIST:TaQ;
#TITLETRANSLIT:;
#SUBTITLETRANSLIT:;
#ARTISTTRANSLIT:;
#GENRE:;
#ORIGIN:;
#CREDIT:;
#BANNER:Innocent Walls.png;
#BACKGROUND:Innocent Walls-bg.png;
#PREVIEWVID:;
#JACKET:Innocent Walls-jacket.png;
#CDIMAGE:;
#DISCIMAGE:;
#LYRICSPATH:;
#CDTITLE:;
#MUSIC:Innocent Walls.mp3;
#OFFSET:-0.421000;
#SAMPLESTART:31.388742;
#SAMPLELENGTH:12.387098;
#SELECTABLE:YES;
#BPMS:0.000=155.000;
#STOPS:;
#DELAYS:;
#WARPS:;
#TIMESIGNATURES:0.000=4=4;
#TICKCOUNTS:0.000=4;
#COMBOS:0.000=1;
#SPEEDS:0.000=1.000=0.000=0;
#SCROLLS:0.000=1.000;
#FAKES:;
#LABELS:0.000=Song Start;
#BGCHANGES:;
#KEYSOUNDS:;
#ATTACKS:
;

//---------------dance-single - ----------------
#NOTEDATA:;
#CHARTNAME:;
#STEPSTYPE:dance-single;
#DESCRIPTION:;
#CHARTSTYLE:;
#DIFFICULTY:Hard;
#METER:95;
#RADARVALUES:0.618874,0.728947,0.231792,0.015986,0.543513,542.000000,513.000000,29.000000,2.000000,0.000000,0.000000,0.000000,0.000000,0.000000,0.618874,0.728947,0.231792,0.015986,0.543513,542.000000,513.000000,29.000000,2.000000,0.000000,0.000000,0.000000,0.000000,0.000000;
#CREDIT:;
#NOTES:
// measure 0
0000
0000
0000
0000
,  // measure 1
0000
0000
0000
0000
,  // measure 2
0000
0000
0000
0000
,  // measure 3
0000
0000
0000
0000
,  // measure 4
1010
0000
0101
0000
0001
0010
0001
0000
,  // measure 5
1000
0000
0001
0000
0100
0010
0100
0000
,  // measure 6
0101
0000
0011
0000
0001
1000
0001
0000
,  // measure 7
0100
0100
0010
0100
0000
0001
1000
0000
,  // measure 8
1010
0000
1100
0000
1000
0010
1000
0000
,  // measure 9
0001
0000
0010
0000
0100
0010
0100
0000
,  // measure 10
1001
0000
0101
0000
0001
1000
0001
0000
,  // measure 11
0100
0000
0010
0100
0000
0100
0010
0000
,  // measure 12
1001
0000
1010
0000
1000
0001
0010
0000
,  // measure 13
0100
0000
0010
0000
0001
0100
1000
0000
,  // measure 14
1100
0000
0101
0000
0001
1000
0010
0000
,  // measure 15
1000
1000
0001
1000
0000
0001
0010
0000
,  // measure 16
0101
0000
1100
0000
0100
0010
0001
0000
,  // measure 17
0011
0000
0100
0000
0010
0001
0100
0000
,  // measure 18
1010
0001
1001
0100
,  // measure 19
0001
1000
0001
1000
0001
1000
0010
0000
,  // measure 20
1000
0000
0010
0000
0100
0001
0000
0010
0100
0000
1000
0000
0001
0100
0000
0010
,  // measure 21
1000
0000
0100
0000
1000
0010
0000
0100
0001
0000
0100
0000
0001
0010
0000
0100
,  // measure 22
0010
0000
0001
0000
1000
0010
0000
0100
0001
0000
1000
0000
0001
0010
0000
0100
,  // measure 23
0010
0000
0001
0000
0100
0010
0000
1000
0001
0000
0010
0000
0100
0010
0000
0001
,  // measure 24
1000
0000
0010
0000
1000
0010
0000
0100
0001
0000
0010
0000
0100
0010
0000
0001
,  // measure 25
1000
0000
0010
0000
0100
0001
0000
0010
0100
0000
0010
0000
0001
1000
0000
0000
,  // measure 26
0001
0000
0100
0000
0010
1000
0000
1000
0010
0000
0100
0000
0001
0010
0000
0010
,  // measure 27
0001
1000
0000
0010
0100
0000
0001
1000
0000
0010
0100
0000
0001
1000
0000
0000
,  // measure 28
0001
0000
0010
0000
0100
1000
0000
1000
0100
0000
0010
0000
0001
0100
0000
0100
,  // measure 29
0001
0000
1000
0000
0001
1000
0000
1000
0001
0000
0010
0000
0100
0010
0000
0010
,  // measure 30
0100
0000
1000
0000
0010
1000
0000
1000
0010
0000
0100
0000
0001
0010
0000
0010
,  // measure 31
0001
0000
1000
0000
0001
0100
0000
0010
1000
0000
0001
0000
0010
0100
0000
0010
,  // measure 32
0001
0000
1000
0000
0010
0100
0000
0100
0010
0000
1000
0000
0001
0010
0000
0010
,  // measure 33
0001
0000
1000
0000
0010
1000
0000
1000
0010
0000
0100
0000
0001
0010
0000
0010
,  // measure 34
0001
0000
1000
0000
0010
0100
0000
0100
0010
0000
1000
0000
0001
0100
0000
0100
,  // measure 35
0001
1000
0000
0010
0100
0000
0001
1000
0000
0010
0100
0000
0001
1000
0000
0010
,  // measure 36
0100
1000
0100
0001
,  // measure 37
0010
1000
0010
0001
,  // measure 38
1000
0001
0100
0001
,  // measure 39
0010
0000
0000
0100
0000
0000
0000
0000
,  // measure 40
0010
0001
1000
0100
,  // measure 41
1000
0010
0100
0001
,  // measure 42
0010
1000
0010
0001
,  // measure 43
1000
0000
0100
0000
0010
0000
0001
0000
1000
0000
0100
0000
0010
0001
0000
0001
,  // measure 44
1000
0010
0100
0000
0010
0000
1000
0000
,  // measure 45
0001
0010
0100
0000
0010
0000
0001
0000
,  // measure 46
1000
0100
0010
0000
0100
0000
1000
0000
,  // measure 47
0010
0100
0001
0010
0000
0100
0010
0000
,  // measure 48
0100
0010
0001
0000
0100
0000
0010
0000
,  // measure 49
0100
0010
1000
0000
0010
0000
0100
0000
,  // measure 50
1001
0010
1001
0100
,  // measure 51
2002
0000
0000
3003
,  // measure 52
1000
0000
0001
0000
0010
0100
0000
0010
0001
0000
0100
0000
0010
1000
0000
0100
,  // measure 53
0010
0000
0100
0000
1000
0010
0000
0100
0001
0000
0010
0000
0100
0010
0000
0100
,  // measure 54
1000
0000
0100
0000
0010
0001
0000
0010
0100
0000
1000
0000
0010
0100
0000
0010
,  // measure 55
1000
0100
0000
0100
0010
0000
0010
0001
0000
0001
0100
0000
0100
0010
0000
0010
,  // measure 56
1000
0000
0001
0000
0010
0100
0000
0010
0001
0000
0100
0000
0010
1000
0000
0100
,  // measure 57
0010
0000
0100
0000
1000
0010
0000
0100
0001
0000
0010
0000
0100
1000
0000
0100
,  // measure 58
0010
0000
0100
0000
1000
0010
0000
0100
0001
0000
0010
0000
0100
0010
0000
0001
,  // measure 59
1000
0001
0000
0100
0010
0000
1000
0001
0000
0100
0010
0000
1000
0001
0000
0000
,  // measure 60
1000
0000
0001
0000
0100
0010
0000
1000
0010
0000
0100
0000
0001
0100
0000
0100
,  // measure 61
0001
0000
1000
0000
0010
0100
0000
0010
1000
0000
0100
0000
0010
0001
0000
0001
,  // measure 62
0010
0000
0100
0000
1000
0010
0000
0100
0001
0000
1000
0000
0010
0100
0000
0100
,  // measure 63
0001
0000
1000
0000
0001
0000
1000
0000
0001
0000
1000
0000
0001
1000
0000
0001
,  // measure 64
1000
0000
0010
0000
0100
0001
0000
0010
0100
0000
1000
0000
0001
1000
0000
1000
,  // measure 65
0001
0000
0010
0000
0100
0010
0000
0100
1000
0000
0010
0000
0100
0001
0000
0001
,  // measure 66
0100
0000
0010
0000
1000
0001
0000
0010
0100
0000
0010
0000
0001
0010
0000
0100
,  // measure 67
1000
0010
0000
0010
0100
0000
0100
0001
0000
0001
0010
0001
0010
0001
0010
0001
,  // measure 68
1000
0000
0000
0000
,  // measure 69
0101
0000
1010
0000
1000
0010
0100
0000
,  // measure 70
0001
0000
0010
0000
0100
0010
0001
0000
,  // measure 71
0011
0000
1100
0000
0100
1000
0001
0000
,  // measure 72
1000
0000
0001
0000
0100
0010
1000
0000
,  // measure 73
1010
0000
1100
0000
0100
0010
0001
0000
,  // measure 74
0100
0000
0001
0000
0010
0100
1000
0000
,  // measure 75
0011
0100
1010
0100
,  // measure 76
1001
0000
0000
0000
;

//---------------dance-single - ----------------
#NOTEDATA:;
#CHARTNAME:;
#STEPSTYPE:dance-single;
#DESCRIPTION:;
#CHARTSTYLE:;
#DIFFICULTY:Challenge;
#METER:100;
#RADARVALUES:0.666831,0.905189,0.279749,0.239785,0.683388,584.000000,549.000000,35.000000,30.000000,0.000000,0.000000,2.000000,0.000000,0.000000,0.666831,0.905189,0.279749,0.239785,0.683388,584.000000,549.000000,35.000000,30.000000,0.000000,0.000000,2.000000,0.000000,0.000000;
#CREDIT:;
#OFFSET:-0.421000;
#BPMS:0.000000=155.000000
;
#STOPS:76.000000=0.096775
,76.250000=0.096773
,76.500000=0.096773
,76.750000=0.096773
,77.000000=0.096773
,77.250000=0.096773
,77.500000=0.193548
;
#DELAYS:;
#WARPS:;
#TIMESIGNATURES:0.000000=4=4
;
#TICKCOUNTS:0.000000=4
;
#COMBOS:0.000000=1
;
#SPEEDS:0.000000=1.000000=0.000000=0
;
#SCROLLS:0.000000=1.000000
;
#FAKES:;
#LABELS:0.000000=Song Start
;
#NOTES:
// measure 0
0000
0000
0000
0000
,  // measure 1
0000
0000
0000
0000
,  // measure 2
0000
0000
0000
0000
,  // measure 3
0000
0000
0000
0000
,  // measure 4
1010
0000
0000
0000
0011
0000
0000
0000
0010
0000
0100
0000
1000
0001
0000
0000
,  // measure 5
0100
0000
0010
0000
1000
0001
0010
0000
,  // measure 6
0011
0000
0000
0000
1010
0000
0000
0000
1000
0000
0001
0000
0010
0100
0000
0000
,  // measure 7
0010
0010
0100
0010
0000
0010
0001
0000
,  // measure 8
1100
0000
0000
0000
0101
0000
0000
0000
0001
0000
1000
0000
0100
0010
0000
0000
,  // measure 9
0100
0000
1000
0000
0010
0100
0001
0000
,  // measure 10
0101
0000
0000
0000
1100
0000
0000
0000
0100
0000
0010
0000
0001
1000
0000
0000
,  // measure 11
0001
0000
1000
0200
0000
0000
0000
0300
,  // measure 12
0110
0000
0000
0000
1001
0000
0000
0000
1000
0000
0010
0000
0100
0010
0000
0000
,  // measure 13
0100
0000
0001
0000
0010
0100
1000
0000
,  // measure 14
1001
0000
0000
0000
0110
0000
0000
0000
0100
0000
0001
0000
0010
0100
0000
0000
,  // measure 15
1000
1000
0001
1000
0000
0100
1000
0000
,  // measure 16
1100
0000
0000
0000
0011
0000
0000
0000
0001
0000
0100
0000
0010
1000
0000
0000
,  // measure 17
0101
0000
0001
0000
0010
0100
1000
0000
,  // measure 18
1100
0011
0101
1010
,  // measure 19
0001
1000
0001
1000
0001
1000
0001
0000
1000
0000
1000
0000
1000
0010
0000
0010
,  // measure 20
0100
0000
0100
0000
0100
0001
0000
0001
0010
0000
0010
0000
0010
0100
0000
0100
,  // measure 21
1000
0000
1000
0000
1000
0001
0000
0001
0100
0000
0100
0000
0100
0010
0000
0010
,  // measure 22
1000
0000
1000
0000
1000
0001
0000
0001
0010
0000
0010
0000
0010
0001
0000
0001
,  // measure 23
0100
0000
0100
0000
0100
0010
0000
0000
0100
0000
0100
0000
0100
0010
0000
0010
,  // measure 24
0100
0000
0100
0000
0100
0001
0000
0001
1000
0000
1000
0000
1000
0010
0000
0010
,  // measure 25
1000
0000
1000
0000
1000
0100
0000
0100
0010
0000
0010
0000
0010
0001
0000
0001
,  // measure 26
1000
0000
1000
0000
1000
0001
0000
0001
0100
0100
0000
0010
0010
0000
1000
1000
,  // measure 27
0000
0001
0001
0000
1000
1000
0000
0000
0001
0000
0001
0000
0001
1000
0000
1000
,  // measure 28
0010
0000
0010
0000
0010
0100
0000
0100
0001
0000
0001
0000
0001
1000
0000
1000
,  // measure 29
0010
0000
0010
0000
0010
1000
0000
1000
0001
0000
0001
0000
0001
0010
0000
0010
,  // measure 30
0001
0000
0001
0000
0001
1000
0000
1000
0100
0000
0100
0000
0100
0010
0000
0010
,  // measure 31
0001
0000
0001
0000
0001
0100
0000
0000
0010
0000
0010
0000
0010
0100
0000
0100
,  // measure 32
0001
0000
0001
0000
0001
1000
0000
1000
0100
0000
0100
0000
0100
1000
0000
1000
,  // measure 33
0001
0000
0001
0000
0001
0100
0000
0100
0010
0000
0010
0000
0010
0100
0000
0100
,  // measure 34
0001
0000
0001
0000
0001
1000
0000
1000
0010
0010
0000
0100
0100
0000
0001
0001
,  // measure 35
0000
1000
1000
0000
0001
0001
0000
0000
2000
0000
0000
0000
3010
0000
0000
0000
,  // measure 36
0200
0301
0002
0013
,  // measure 37
0200
1300
0002
1003
,  // measure 38
2000
0000
3001
0000
0200
0000
0000
0020
,  // measure 39
0000
0330
2000
3010
,  // measure 40
0200
0301
0002
0013
,  // measure 41
0200
1300
0002
1003
,  // measure 42
0020
0000
0130
0000
0001
0100
0010
1000
,  // measure 43
0001
0100
0020
0000
1030
0100
2000
0000
,  // measure 44
3020
0000
0000
0000
0130
0010
0000
0000
0100
0000
0001
0000
0020
0000
0000
0000
,  // measure 45
0230
0000
0000
0000
0310
0100
0000
0000
0010
0000
0001
0000
2000
0000
0000
0000
,  // measure 46
3002
0000
0000
0000
0103
0001
0000
0000
0010
0000
0010
0000
0001
0000
2000
0000
,  // measure 47
0000
0000
0000
3000
1010
0010
0200
0000
,  // measure 48
0302
0000
0000
0000
0013
0001
0000
0000
1001
0000
0001
0000
0020
0000
0000
0000
,  // measure 49
0230
0000
0000
0000
0310
0100
0000
0000
0110
0000
0010
0000
0001
0000
0000
0000
,  // measure 50
0110
0000
0100
0000
1000
0000
0000
4000
0004
0000
0000
0000
0000
0000
0000
0000
,  // measure 51
0000
0000
0000
0000
3003
0000
0000
0000
0001
0000
0001
0000
0001
0100
0000
0100
,  // measure 52
0010
0100
0010
0000
0010
0100
0000
0100
0001
0000
0001
0000
0001
1000
0000
1000
,  // measure 53
0100
1000
0100
0000
0100
1000
0000
1000
0010
0000
0010
0000
0010
0100
0000
0100
,  // measure 54
0001
1000
0001
0000
0001
1000
0000
1000
0010
0100
0000
0010
0100
0000
0010
0100
,  // measure 55
0000
0010
0100
0000
0100
0010
0000
0000
1000
0000
1000
0000
1000
0001
0000
0001
,  // measure 56
0010
0001
0010
0000
0010
0100
0000
0100
1000
0000
1000
0000
1000
0001
0000
0001
,  // measure 57
0100
0010
0100
0000
0100
0010
0000
0010
1000
0000
1000
0000
1000
0001
0000
0001
,  // measure 58
0010
0000
0010
0000
0010
0100
0000
0100
1000
1000
0000
0001
0001
0000
0100
0100
,  // measure 59
0000
0010
0020
0000
1000
1000
0000
0000
0130
0000
0100
0000
0100
0001
0000
0001
,  // measure 60
0010
0100
0010
0100
0010
0100
1000
0001
0100
0000
0100
0000
0100
0010
0000
0010
,  // measure 61
1000
0010
1000
0010
1000
0001
0010
0100
1000
0000
1000
0000
1000
0001
0000
0001
,  // measure 62
0010
0001
0010
0001
1000
0010
1000
0001
0010
0001
0010
0001
0010
0001
0010
0001
,  // measure 63
0010
0001
0010
0001
0010
0100
0000
0100
1000
0000
1000
0000
1000
0001
0000
0001
,  // measure 64
0100
0010
0100
0000
0100
0010
0100
0001
1000
0000
1000
0000
1000
0001
0000
0001
,  // measure 65
0010
0100
0010
0000
0010
0001
0000
0001
1000
0000
1000
0000
1000
0001
0000
0001
,  // measure 66
1000
0000
1000
0000
1000
0001
0000
0001
1000
1010
0000
0001
0011
0000
1000
1010
,  // measure 67
0000
0001
0010
0100
1000
0100
0010
0001
0200
0000
0000
0000
0000
0000
0000
0000
,  // measure 68
0000
0000
0000
0300
0110
0000
1010
0000
,  // measure 69
1000
0000
0010
0000
0100
0001
0000
0000
0010
0000
0000
0000
0001
0000
0000
0000
,  // measure 70
0100
0010
1000
0000
1010
0000
1100
0000
,  // measure 71
0100
0000
0010
0000
0001
1000
0000
0000
0010
0000
0100
0000
0001
0000
0010
0000
,  // measure 72
0000
0000
0010
0000
0002
0000
0000
0003
0101
0000
0000
0000
0011
0000
0000
0000
,  // measure 73
0010
0000
0100
0000
1000
0010
0000
0000
0100
0000
0000
0000
0001
0000
0000
0000
,  // measure 74
1000
0001
0010
0000
0011
0000
1100
0000
,  // measure 75
1010
0000
1000
0000
0100
0010
0000
0010
0100
0000
0000
0000
0000
0000
0000
0000
;

//---------------dance-single - ----------------
#NOTEDATA:;
#CHARTNAME:;
#STEPSTYPE:dance-single;
#DESCRIPTION:;
#CHARTSTYLE:;
#DIFFICULTY:Medium;
#METER:70;
#RADARVALUES:0.416769,0.516337,0.263764,0.039964,0.063943,365.000000,332.000000,33.000000,5.000000,0.000000,0.000000,0.000000,0.000000,0.000000,0.416769,0.516337,0.263764,0.039964,0.063943,365.000000,332.000000,33.000000,5.000000,0.000000,0.000000,0.000000,0.000000,0.000000;
#CREDIT:;
#NOTES:
// measure 0
0000
0000
0000
0000
,  // measure 1
0000
0000
0000
0000
,  // measure 2
0000
0000
0000
0000
,  // measure 3
0000
0000
0000
0000
,  // measure 4
1001
1001
0001
1000
,  // measure 5
0010
1000
0100
1000
,  // measure 6
1001
1001
0001
0100
,  // measure 7
0010
0100
0001
0010
,  // measure 8
1001
1001
0001
1000
,  // measure 9
0010
1000
0001
0010
,  // measure 10
1001
1001
0001
1000
,  // measure 11
0100
1000
0010
0100
,  // measure 12
0101
0101
0001
0100
,  // measure 13
0010
1000
0100
0010
,  // measure 14
0011
0011
0001
0100
,  // measure 15
0010
1000
0010
0100
,  // measure 16
0101
0101
0001
1000
,  // measure 17
1001
1000
0001
0010
,  // measure 18
1001
0010
1001
0100
,  // measure 19
0001
0100
0010
1000
0001
0100
0010
0000
,  // measure 20
1000
0010
1000
0000
0010
0000
0100
0000
,  // measure 21
0001
0100
0001
0000
0010
0000
0100
0000
,  // measure 22
1000
0100
1000
0000
0100
0000
1000
0000
,  // measure 23
0010
0100
0010
0000
0100
0000
0001
0000
,  // measure 24
1000
0010
1000
0000
0001
0000
0100
0000
,  // measure 25
0001
0010
0001
0000
0010
0000
0100
0000
,  // measure 26
0010
0100
0010
0000
0001
0000
1000
0000
,  // measure 27
0010
0100
0000
0000
0010
0000
0000
1000
0000
0000
0001
0000
0000
1000
0000
0000
,  // measure 28
0001
1000
0001
0000
0100
0000
0010
0000
,  // measure 29
1000
0010
0100
0000
0010
0000
1000
0000
,  // measure 30
0001
0010
0001
0000
0010
0000
0100
0000
,  // measure 31
0100
0010
0001
0000
0100
0000
0010
0000
,  // measure 32
1000
0010
1000
0000
0010
0000
0100
0000
,  // measure 33
0001
1000
0010
0000
1000
0000
0001
0000
,  // measure 34
0010
0001
0010
0000
0001
0000
0100
0000
,  // measure 35
0010
0100
0000
0000
0100
0000
0000
0001
0000
0000
1000
0000
0000
0001
0000
0000
,  // measure 36
1000
0001
0010
0001
,  // measure 37
0100
0001
1000
0100
,  // measure 38
1000
0010
0100
0001
,  // measure 39
2000
0000
0000
3000
,  // measure 40
0001
1000
0010
1000
,  // measure 41
0100
0010
0100
1000
,  // measure 42
0001
0100
0010
0100
,  // measure 43
0002
0000
0000
0003
,  // measure 44
1000
0001
0010
0001
,  // measure 45
0100
0010
1000
0010
,  // measure 46
0100
0001
0010
0100
,  // measure 47
0020
0000
0000
0030
,  // measure 48
0110
0010
0001
0100
,  // measure 49
0110
0010
1000
0100
,  // measure 50
0110
0010
1001
0010
,  // measure 51
2002
0000
0000
3003
,  // measure 52
0001
1000
0010
0000
1000
0010
1000
0000
,  // measure 53
0010
0100
0001
0000
0010
0100
0010
0000
,  // measure 54
0100
0010
0001
0000
1000
0100
1000
0000
,  // measure 55
0001
1000
0000
0000
1000
0000
0000
0010
0000
0000
0100
0000
0000
0001
0000
0000
,  // measure 56
1000
0010
0100
0000
0010
0100
0010
0000
,  // measure 57
0100
0001
1000
0000
0100
0001
0100
0000
,  // measure 58
1000
0010
0100
0000
0100
0010
1000
0000
,  // measure 59
1000
0001
0000
1000
0000
0000
0010
0000
0000
0100
0000
0000
0001
0000
0000
0000
,  // measure 60
0001
1000
0010
0000
0100
0100
0100
0000
,  // measure 61
0010
1000
0100
0000
0010
0010
0010
0000
,  // measure 62
0100
1000
0001
0000
0100
0100
0100
0000
,  // measure 63
0001
1000
0001
1000
0001
1000
0001
0000
,  // measure 64
0100
0010
1000
0000
0001
0001
0001
0000
,  // measure 65
0010
0100
1000
0000
0100
0100
0100
0000
,  // measure 66
1000
0010
0100
0000
0100
0010
1000
0000
,  // measure 67
0001
1000
0000
0001
1000
0000
0001
1000
0000
0001
1000
0000
0010
0000
0100
0000
,  // measure 68
0001
0000
0000
0000
,  // measure 69
1001
1001
0001
1000
,  // measure 70
0010
1000
0100
0010
,  // measure 71
0011
0011
0001
0100
,  // measure 72
0010
1000
0010
0100
,  // measure 73
0101
0101
0001
0100
,  // measure 74
0010
1000
0100
0010
,  // measure 75
0011
0011
1100
0011
,  // measure 76
1001
0000
0000
0000
;

//---------------dance-single - ----------------
#NOTEDATA:;
#CHARTNAME:;
#STEPSTYPE:dance-single;
#DESCRIPTION:;
#CHARTSTYLE:;
#DIFFICULTY:Easy;
#METER:45;
#RADARVALUES:0.264906,0.485965,0.159857,0.023979,0.000000,232.000000,212.000000,20.000000,3.000000,0.000000,0.000000,0.000000,0.000000,0.000000,0.264906,0.485965,0.159857,0.023979,0.000000,232.000000,212.000000,20.000000,3.000000,0.000000,0.000000,0.000000,0.000000,0.000000;
#CREDIT:;
#NOTES:
// measure 0
0000
0000
0000
0000
,  // measure 1
0000
0000
0000
0000
,  // measure 2
0000
0000
0000
0000
,  // measure 3
0000
0000
0000
0000
,  // measure 4
1000
1000
0000
0001
,  // measure 5
0000
0000
0000
0100
,  // measure 6
0010
0010
0000
1000
,  // measure 7
0000
0000
0000
0100
,  // measure 8
0010
0010
0000
0100
,  // measure 9
0000
0000
0000
0010
,  // measure 10
0001
0001
0000
0000
,  // measure 11
1000
0000
0001
0000
,  // measure 12
0100
0100
0000
0010
,  // measure 13
1000
0000
0000
0001
,  // measure 14
0010
0010
0000
0100
,  // measure 15
0010
0000
0000
0100
,  // measure 16
1100
0100
0000
0000
,  // measure 17
1001
0001
0000
0000
,  // measure 18
0101
0001
1001
1000
,  // measure 19
0001
0100
0001
0100
0001
0100
0001
0000
,  // measure 20
0001
0100
0010
1000
,  // measure 21
0010
0100
0001
1000
,  // measure 22
0100
0010
0100
1000
,  // measure 23
0001
0100
0001
1000
,  // measure 24
0100
1000
0010
0100
,  // measure 25
0001
0010
0100
0010
,  // measure 26
0001
1000
0010
0100
,  // measure 27
0002
0000
0000
0000
,  // measure 28
1003
0010
0100
0010
,  // measure 29
1000
0001
0010
0100
,  // measure 30
0010
0001
0100
0010
,  // measure 31
1000
0001
0010
0001
,  // measure 32
0100
0010
1000
0010
,  // measure 33
0100
0001
0010
0100
,  // measure 34
0010
0001
1000
0010
,  // measure 35
0100
0100
0100
0100
,  // measure 36
1001
0000
0001
0000
,  // measure 37
1000
0000
0010
0000
,  // measure 38
1000
0000
0100
0000
,  // measure 39
1000
0000
0000
0000
,  // measure 40
0001
0000
0100
0000
,  // measure 41
0010
0000
0100
0000
,  // measure 42
0001
0000
1000
0000
,  // measure 43
0100
0000
0000
0000
,  // measure 44
1000
0000
0000
0001
,  // measure 45
0100
0000
0000
0010
,  // measure 46
1000
0000
0000
0100
,  // measure 47
0010
0000
0000
0000
,  // measure 48
1001
0000
0000
0000
,  // measure 49
0110
0000
0000
0000
,  // measure 50
1001
0000
0110
0000
,  // measure 51
2002
0000
0000
3003
,  // measure 52
0001
1000
0010
0010
,  // measure 53
1000
0001
0010
0010
,  // measure 54
0100
1000
0100
0100
,  // measure 55
1000
0001
0100
0001
,  // measure 56
1000
0010
0100
0100
,  // measure 57
0010
1000
0001
0001
,  // measure 58
0010
0001
0100
0100
,  // measure 59
1001
0010
1001
0100
,  // measure 60
1001
0001
1000
0010
,  // measure 61
0100
0010
1000
1000
,  // measure 62
0001
0010
0100
0100
,  // measure 63
0010
0010
0010
0010
,  // measure 64
0100
0010
0001
0001
,  // measure 65
1000
0010
0100
0100
,  // measure 66
0110
0010
1001
0100
,  // measure 67
1001
0110
1001
0110
,  // measure 68
1001
0000
0000
0000
,  // measure 69
1000
1000
0000
0001
,  // measure 70
0100
0000
0000
0010
,  // measure 71
1000
1000
0000
0100
,  // measure 72
0010
0000
0000
0100
,  // measure 73
1000
1000
0000
0001
,  // measure 74
0100
0000
0000
0010
,  // measure 75
1000
1000
0000
0001
,  // measure 76
0100
0000
0000
0000
;

//---------------dance-single - ----------------
#NOTEDATA:;
#CHARTNAME:;
#STEPSTYPE:dance-single;
#DESCRIPTION:;
#CHARTSTYLE:;
#DIFFICULTY:Beginner;
#METER:20;
#RADARVALUES:0.115325,0.182237,0.055950,0.000000,0.000000,101.000000,94.000000,7.000000,0.000000,0.000000,0.000000,0.000000,0.000000,0.000000,0.115325,0.182237,0.055950,0.000000,0.000000,101.000000,94.000000,7.000000,0.000000,0.000000,0.000000,0.000000,0.000000,0.000000;
#CREDIT:;
#NOTES:
// measure 0
0000
0000
0000
0000
,  // measure 1
0000
0000
0000
0000
,  // measure 2
0000
0000
0000
0000
,  // measure 3
0000
0000
0000
0000
,  // measure 4
0010
0010
0000
0000
,  // measure 5
0000
0000
0000
1000
,  // measure 6
0001
0001
0000
0000
,  // measure 7
0000
0000
0000
1000
,  // measure 8
0010
0010
0000
0000
,  // measure 9
0000
0000
0000
0100
,  // measure 10
0001
0001
0000
0000
,  // measure 11
1000
0000
0000
0000
,  // measure 12
0001
0001
0000
0000
,  // measure 13
0000
0000
0000
1000
,  // measure 14
0100
0100
0000
0000
,  // measure 15
0000
0000
0000
0000
,  // measure 16
0010
0010
0000
0000
,  // measure 17
0001
0000
0000
1000
,  // measure 18
0001
0000
1000
0000
,  // measure 19
0110
0000
0000
0000
,  // measure 20
1001
0000
0000
0000
,  // measure 21
1000
0000
0000
0000
,  // measure 22
0001
0000
0000
0000
,  // measure 23
0100
0000
0000
0000
,  // measure 24
0010
0000
0000
0000
,  // measure 25
1000
0000
0000
0000
,  // measure 26
0100
0000
0000
0000
,  // measure 27
1000
0000
1000
0000
,  // measure 28
1000
0000
0000
0000
,  // measure 29
0001
0000
0000
0000
,  // measure 30
0010
0000
0000
0000
,  // measure 31
0001
0000
0000
0000
,  // measure 32
0100
0000
0000
0000
,  // measure 33
0010
0000
0000
0000
,  // measure 34
1000
0000
0000
0000
,  // measure 35
0001
0000
1000
0000
,  // measure 36
0010
0000
0000
0000
,  // measure 37
1000
0000
0000
0000
,  // measure 38
0100
0000
0000
0000
,  // measure 39
0010
0000
0000
0000
,  // measure 40
0100
0000
0000
0000
,  // measure 41
0010
0000
0000
0000
,  // measure 42
0001
0000
0000
0000
,  // measure 43
1000
0000
0000
0000
,  // measure 44
0110
0000
0000
0100
,  // measure 45
0000
0000
0000
0100
,  // measure 46
0000
0000
0000
0010
,  // measure 47
0000
0000
0000
1000
,  // measure 48
0001
0000
0000
0000
,  // measure 49
1000
0000
0000
0000
,  // measure 50
0010
0000
0100
0000
,  // measure 51
1001
0000
0000
0000
,  // measure 52
1000
0000
0000
0000
,  // measure 53
0001
0000
0000
0000
,  // measure 54
0100
0000
0000
0000
,  // measure 55
0001
0000
0001
0000
,  // measure 56
0001
0000
0000
0000
,  // measure 57
0010
0000
0000
0000
,  // measure 58
0001
0000
0001
0000
,  // measure 59
1000
0000
0000
0000
,  // measure 60
0110
0000
0000
0100
,  // measure 61
0100
0000
0000
0010
,  // measure 62
0010
0000
0000
1000
,  // measure 63
0001
0000
0000
0100
,  // measure 64
0010
0000
0000
1000
,  // measure 65
0010
0000
0000
0100
,  // measure 66
0001
0000
0001
0000
,  // measure 67
1001
0000
0000
0000
,  // measure 68
0000
0000
0000
0000
,  // measure 69
0010
0010
0000
0000
,  // measure 70
0000
0000
0000
0000
,  // measure 71
0100
0100
0000
0000
,  // measure 72
0000
0000
0000
0000
,  // measure 73
0001
0001
0000
0000
,  // measure 74
0000
0000
0000
0000
,  // measure 75
1000
1000
0000
0000
,  // measure 76
1001
0000
0000
0000
;
