#VERSION:0.83;
#TITLE:Hoohah;
#SUBTITLE:;
#ARTIST:Fox Stevenson & Curbi;
#TITLETRANSLIT:;
#SUBTITLETRANSLIT:;
#ARTISTTRANSLIT:;
#GENRE:Electro;
#ORIGIN:;
#CREDIT:RIME & Pandemonium X;
#BANNER:bn.png;
#BACKGROUND:bg.png;
#PREVIEWVID:;
#JACKET:jacket.png;
#CDIMAGE:;
#DISCIMAGE:;
#LYRICSPATH:;
#CDTITLE:;
#MUSIC:Fox Stevenson & Curbi - Hoohah.ogg;
#OFFSET:-0.090000;
#SAMPLESTART:32.430000;
#SAMPLELENGTH:15.000000;
#SELECTABLE:YES;
#BPMS:0.000=126.000,
100.000=63.000,
108.000=126.000,
124.000=63.000,
132.000=126.000;
#STOPS:;
#DELAYS:;
#WARPS:;
#TIMESIGNATURES:0.000=4=4;
#TICKCOUNTS:0.000=4;
#COMBOS:0.000=1;
#SPEEDS:0.000=1.000=0.000=0;
#SCROLLS:0.000=1.000;
#FAKES:;
#LABELS:0.000=Song Start;
#BGCHANGES:;
#KEYSOUNDS:;
#ATTACKS:
;

//---------------dance-single - ----------------
#NOTEDATA:;
#CHARTNAME:;
#STEPSTYPE:dance-single;
#DESCRIPTION:;
#CHARTSTYLE:;
#DIFFICULTY:Challenge;
#METER:90;
#RADARVALUES:0.488633,0.814802,0.490033,0.421428,0.455730,349.000000,299.000000,50.000000,43.000000,72.000000,0.000000,0.000000,0.000000,0.000000,0.488633,0.814802,0.490033,0.421428,0.455730,349.000000,299.000000,50.000000,43.000000,72.000000,0.000000,0.000000,0.000000,0.000000;
#CREDIT:RIME;
#NOTES:
// measure 0
0000
0000
0000
0000
,  // measure 1
0000
0000
0000
0000
,  // measure 2
0000
0000
0000
0000
,  // measure 3
0000
0000
0000
0000
,  // measure 4
0000
0000
0000
0000
,  // measure 5
0000
0001
0000
0000
0100
0000
0000
0001
0000
0000
1000
0000
0000
0100
0000
0000
,  // measure 6
0000
0010
0000
0000
0100
0000
0000
0010
0000
0000
0100
0000
0000
1000
0000
0000
,  // measure 7
0000
0100
0000
0000
0010
0000
0000
0100
0000
0000
1000
0000
0000
0001
0000
0000
,  // measure 8
0000
0100
0000
0000
0010
0000
0000
1000
0000
0000
0001
0000
0000
0001
0000
0000
,  // measure 9
MMMM
0000
0000
0000
0000
0000
0001
0000
0100
0001
0000
0000
0100
0000
0000
0100
0000
0000
0010
0000
0000
1000
0000
0000
,  // measure 10
0001
0000
0000
0001
0000
0000
0001
0000
0000
0010
0000
0100
0000
0000
0010
0100
0000
0000
1000
0000
0000
0001
0000
0000
,  // measure 11
0100
0000
0000
0000
0000
0000
0001
0000
0010
0001
0000
0000
0010
0000
0000
0010
0000
0000
0100
0000
0000
1000
0000
0000
,  // measure 12
0001
0001
0001
0200
0000
0000
0000
0300
,  // measure 13
0010
2000
0000
3001
2000
0000
3100
2000
0000
3001
2000
0000
3010
1000
0000
0000
,  // measure 14
0100
0020
0000
0031
0020
0000
0130
0020
0000
0031
0020
0000
0130
0010
0000
0000
,  // measure 15
0011
0011
0101
0101
1010
1010
1100
1100
,  // measure 16
0100
0000
0010
0100
0000
0010
0001
0000
0001
1000
0000
0010
0000
0000
0000
MMMM
0000
0000
1001
0000
0000
0000
0000
0000
,  // measure 17
0011
0000
0000
0000
0000
0000
0010
0000
0100
0010
0000
0000
0001
0000
0000
0001
0000
0000
1000
0000
0000
0010
0000
0000
,  // measure 18
0100
0000
0000
0100
0000
0000
0100
0000
0000
0001
0000
1000
0000
0000
0001
1000
0000
0000
0100
0000
0000
0010
0000
0000
,  // measure 19
0100
0000
0000
0000
0000
0000
1000
0000
0010
1000
0000
0000
0001
0000
0000
0001
0000
0000
0010
0000
0000
0100
0000
0000
,  // measure 20
0010
0010
0010
MMMM
0001
0001
0010
0100
,  // measure 21
1100
MMMM
0101
MMMM
1100
0000
0100
0001
,  // measure 22
0100
0000
1000
0000
0100
0000
0000
0000
0010
0000
0000
0000
0220
0330
0000
0000
,  // measure 23
1002
0000
0010
0000
0203
0000
0010
0001
,  // measure 24
0320
1000
1000
0000
2030
0000
3000
0000
,  // measure 25
1002
0000
0000
0000
0000
0000
1000
0000
1003
0002
0000
0000
1000
0000
0000
1000
0000
0000
1000
0000
0000
0010
0000
0000
0100
0000
0000
0100
0000
0000
0100
0000
0003
0002
0000
0100
0000
0000
0103
0002
0000
0000
0100
0000
0000
0010
0000
0000
,  // measure 26
2003
0000
0000
0000
0000
0000
0001
0000
3001
2000
0000
0000
0001
0000
0000
0001
0000
0000
0001
0000
0000
0100
0000
0000
0010
0000
0000
0010
0000
0000
0010
0000
3000
2000
0000
0010
0000
0000
3010
2000
0000
0000
0010
0000
0000
0100
0000
0000
,  // measure 27
3010
2000
0000
3001
2000
0000
3100
2000
0000
3001
2000
0000
3010
1000
0000
0000
,  // measure 28
0100
0020
0000
0031
0020
0000
0130
0020
0000
0031
0020
0000
0130
0010
0000
0000
,  // measure 29
0011
0011
0101
0101
1010
1010
1100
1100
,  // measure 30
0100
0000
0010
0100
0000
0010
0001
0000
0001
1000
0000
0010
0000
0000
0000
MMMM
0000
0000
1001
0000
0000
0000
0000
0000
,  // measure 31
0101
0000
MMMM
0000
1001
0000
1100
0000
MMMM
0000
1100
0000
1001
0002
0000
0003
,  // measure 32
0011
0000
MMMM
0000
0011
0000
1001
0000
1000
2000
3000
MMMM
0001
0001
0010
0100
,  // measure 33
1000
0000
0000
0100
0000
0000
0001
0000
0000
0100
0000
0000
1000
0000
0000
0001
0000
1000
0001
0000
0000
0100
0000
0000
,  // measure 34
1000
0000
0100
0000
0001
0000
0000
0000
0101
0000
0000
0000
2002
3003
0000
0000
,  // measure 35
2000
0000
0000
0100
0000
0000
0001
0000
0000
0100
0000
0000
3200
0000
0000
0310
0000
0200
0010
0000
0000
1000
0000
0000
,  // measure 36
0320
0001
0001
0130
0010
MMMM
1001
0000
,  // measure 37
0101
0000
0000
MMMM
0000
0000
1100
0000
0000
MMMM
0000
0000
0101
0000
0000
0000
0000
0001
0100
0000
0000
0010
0000
0000
,  // measure 38
1010
0000
0000
0000
0000
0000
1010
0000
0000
0000
0000
0000
1010
0000
0000
0000
0000
0000
0000
0000
0000
0000
0000
0000
1001
0000
0000
0000
0000
0000
0000
0000
0000
0000
0002
0000
0020
0000
0000
0033
0000
0000
0000
0000
0000
0000
0000
0000
,  // measure 39
0220
0000
0000
0330
0000
0000
0000
0000
0000
0000
0000
0000
0110
0000
0000
0000
0000
0000
0000
0000
0000
0000
0000
0000
0110
0000
0000
0000
0000
0000
0000
0000
0000
0000
0010
0000
0001
0000
0000
0000
0000
0000
1000
0000
0000
0000
0000
0000
,  // measure 40
1001
1001
1001
0000
0001
0100
0010
1000
,  // measure 41
0001
0000
1000
0000
0000
1000
0000
0000
0001
0000
0000
1000
0000
0000
0001
0000
,  // measure 42
0000
0010
0000
0000
0010
0000
0000
0100
0000
0000
1000
0000
0000
0001
0000
0000
,  // measure 43
0000
0000
0100
0000
0000
0100
0000
0000
0100
0000
0000
0100
0000
0000
0001
0000
,  // measure 44
0000
1000
0000
0000
1000
0000
0000
0100
0000
0000
0010
0000
0000
0001
0000
0000
,  // measure 45
0100
0000
0000
0000
0000
0000
0000
0000
0000
0000
MMMM
0000
0000
0000
0000
0000
0000
MMMM
0000
0000
0000
0000
MMMM
0000
0000
0000
0000
0000
MMMM
0000
0000
0000
,  // measure 46
0000
MMMM
0000
1001
0000
0000
0000
0000
0000
0000
0000
0000
0000
0000
0000
0000
;

//---------------dance-single - ----------------
#NOTEDATA:;
#CHARTNAME:;
#STEPSTYPE:dance-single;
#DESCRIPTION:;
#CHARTSTYLE:;
#DIFFICULTY:Beginner;
#METER:5;
#RADARVALUES:0.074205,0.132309,0.058804,0.137209,0.000000,53.000000,47.000000,6.000000,14.000000,0.000000,0.000000,0.000000,0.000000,0.000000,0.074205,0.132309,0.058804,0.137209,0.000000,53.000000,47.000000,6.000000,14.000000,0.000000,0.000000,0.000000,0.000000,0.000000;
#CREDIT:RIME;
#NOTES:
// measure 0
0000
0000
0000
0000
,  // measure 1
0000
0000
0000
0000
,  // measure 2
0000
0000
0000
0000
,  // measure 3
0000
0000
0000
0000
,  // measure 4
0000
0000
0000
0000
,  // measure 5
1000
0000
0000
0000
,  // measure 6
1000
0000
0000
0000
,  // measure 7
0001
0000
0000
0000
,  // measure 8
0001
0000
0000
0000
,  // measure 9
2002
0000
0000
0000
,  // measure 10
3003
0000
0000
0000
,  // measure 11
0220
0000
0000
0000
,  // measure 12
0330
0000
0000
0000
,  // measure 13
0010
0000
0010
0000
,  // measure 14
0010
0000
0000
0000
,  // measure 15
1000
0000
1000
0000
,  // measure 16
1000
0000
0000
0000
,  // measure 17
1001
0000
0000
0000
,  // measure 18
0001
0000
0001
0000
,  // measure 19
0001
0000
0000
0000
,  // measure 20
0010
0000
0010
0000
,  // measure 21
0110
0000
0000
0000
,  // measure 22
0100
0000
0100
0000
,  // measure 23
0200
0000
0000
0000
,  // measure 24
0020
0000
0000
0000
,  // measure 25
0330
0000
0010
0000
,  // measure 26
0001
0000
0001
0000
,  // measure 27
2000
0000
0000
0000
,  // measure 28
3002
0000
0000
0000
,  // measure 29
0203
0000
0000
0000
,  // measure 30
0320
0000
0000
0030
,  // measure 31
0110
0000
0100
0000
,  // measure 32
0001
0000
1000
0000
,  // measure 33
0001
0000
0001
0000
,  // measure 34
0001
0000
0000
0000
,  // measure 35
2000
0000
0000
0000
,  // measure 36
0002
0000
0000
0000
,  // measure 37
3003
0000
1000
0000
,  // measure 38
1000
0000
0000
0000
,  // measure 39
0100
0000
0100
0000
,  // measure 40
0100
0000
0000
0000
,  // measure 41
0020
0000
0000
0000
,  // measure 42
0030
0000
0000
0000
,  // measure 43
0002
0000
0000
0000
,  // measure 44
0003
0000
0000
0000
,  // measure 45
1001
0000
0000
0000
;

//---------------dance-single - ----------------
#NOTEDATA:;
#CHARTNAME:;
#STEPSTYPE:dance-single;
#DESCRIPTION:;
#CHARTSTYLE:;
#DIFFICULTY:Easy;
#METER:35;
#RADARVALUES:0.256217,0.396927,0.274418,0.205814,0.000000,183.000000,155.000000,28.000000,21.000000,0.000000,0.000000,0.000000,0.000000,0.000000,0.256217,0.396927,0.274418,0.205814,0.000000,183.000000,155.000000,28.000000,21.000000,0.000000,0.000000,0.000000,0.000000,0.000000;
#CREDIT:RIME;
#NOTES:
// measure 0
0000
0000
0000
0000
,  // measure 1
0000
0000
0000
0000
,  // measure 2
0000
0000
0000
0000
,  // measure 3
0000
0000
0000
0000
,  // measure 4
0000
0000
0000
0000
,  // measure 5
1000
1000
1000
0001
,  // measure 6
0100
0100
0100
0010
,  // measure 7
1000
1000
1000
0100
,  // measure 8
0010
0010
0010
0001
,  // measure 9
2000
0001
0100
0001
,  // measure 10
0100
0100
3100
1000
,  // measure 11
0020
0100
1000
0100
,  // measure 12
1000
1000
1030
0000
,  // measure 13
1010
1000
1010
0010
,  // measure 14
0110
0010
0110
0100
,  // measure 15
0101
0001
0101
0100
,  // measure 16
0110
0010
0000
1001
,  // measure 17
0001
0001
0010
0100
,  // measure 18
0010
0010
0001
1000
,  // measure 19
0010
0010
0100
0001
,  // measure 20
1000
1000
0100
0010
,  // measure 21
0001
0001
0001
0100
,  // measure 22
0010
0010
0010
2000
,  // measure 23
3002
0010
0010
0010
,  // measure 24
2003
0100
0100
3100
,  // measure 25
2002
3003
0001
0100
,  // measure 26
0220
0330
0010
1000
,  // measure 27
1100
0100
1100
1000
,  // measure 28
1010
1000
1010
0010
,  // measure 29
0110
0010
0110
0100
,  // measure 30
0101
0001
0000
1001
,  // measure 31
1100
0110
0011
0110
,  // measure 32
1100
1001
0101
1001
,  // measure 33
0001
0001
0010
0100
,  // measure 34
0010
0010
0001
2000
,  // measure 35
3020
0100
0100
0100
,  // measure 36
2030
0001
0001
3001
,  // measure 37
1000
0100
0001
0100
,  // measure 38
1000
0100
0010
0110
,  // measure 39
1001
0001
0100
1000
,  // measure 40
0100
0001
0010
0010
,  // measure 41
0200
1300
0200
1300
,  // measure 42
2000
3001
2000
3001
,  // measure 43
0002
0103
0002
0103
,  // measure 44
0200
0310
0200
0020
,  // measure 45
0330
0000
0000
0000
;

//---------------dance-single - ----------------
#NOTEDATA:;
#CHARTNAME:;
#STEPSTYPE:dance-single;
#DESCRIPTION:;
#CHARTSTYLE:;
#DIFFICULTY:Hard;
#METER:60;
#RADARVALUES:0.323422,0.430228,0.156810,0.068605,0.058804,231.000000,215.000000,16.000000,7.000000,0.000000,0.000000,0.000000,0.000000,0.000000,0.323422,0.430228,0.156810,0.068605,0.058804,231.000000,215.000000,16.000000,7.000000,0.000000,0.000000,0.000000,0.000000,0.000000;
#CREDIT:;
#NOTES:
// measure 0
0000
0000
0000
0000
,  // measure 1
0000
0000
0000
0000
,  // measure 2
0000
0000
0000
0000
,  // measure 3
0000
0000
0000
0000
,  // measure 4
0000
0000
0000
0000
,  // measure 5
2000
0001
0001
3001
,  // measure 6
0002
1000
1000
1003
,  // measure 7
0200
0010
0010
0310
,  // measure 8
0020
0100
0100
0130
,  // measure 9
1001
1000
1000
1000
,  // measure 10
0001
0010
0001
0100
,  // measure 11
0010
0100
0100
0100
,  // measure 12
0010
0010
0010
0000
0000
0000
0000
0000
,  // measure 13
1000
0100
0010
0001
,  // measure 14
0010
0100
1000
0001
,  // measure 15
1000
0010
0100
0001
1000
0010
0100
0001
,  // measure 16
1000
0100
0010
0001
0000
1000
0011
0000
,  // measure 17
1000
0000
0001
0100
0001
0010
0100
0010
,  // measure 18
0001
0000
0001
0000
1000
0000
0010
1000
0000
0001
0100
0000
0001
0000
0010
0000
,  // measure 19
0100
0000
0010
0010
0001
0010
0100
0010
,  // measure 20
0001
0001
0001
0000
0100
0100
0100
0010
,  // measure 21
0110
0000
0100
0000
0010
0000
1000
0010
,  // measure 22
0100
0100
0100
0000
0010
0000
1000
0000
,  // measure 23
1001
1000
0010
0100
,  // measure 24
0001
0001
0001
0000
0001
0000
0000
0000
,  // measure 25
1010
0000
0000
1000
0100
0000
0000
1000
,  // measure 26
0001
0000
0000
0000
0100
0000
0010
0000
1000
0000
0000
0001
0000
0000
0000
0000
,  // measure 27
0200
0010
0010
0310
,  // measure 28
2000
0001
0001
3001
,  // measure 29
0100
0010
1000
0001
0100
0010
1000
0001
,  // measure 30
1000
0100
0010
0001
0000
1000
0011
0000
,  // measure 31
1001
0000
0001
0100
0000
0010
0100
0001
,  // measure 32
1000
0000
0000
0000
0100
0000
1000
0000
0010
0010
0010
0000
0100
0100
0010
0100
,  // measure 33
0010
0000
1000
1000
0100
1000
0001
0100
,  // measure 34
0010
0000
0010
0000
0100
0000
0001
0010
0000
0100
1000
0000
0002
0000
0000
0000
,  // measure 35
0013
0000
0100
0100
0010
0001
1000
0010
,  // measure 36
0100
0000
0100
0000
0010
0000
0100
0010
0000
1000
0001
0000
1100
0000
0000
0000
,  // measure 37
1001
0000
1001
0000
1001
0000
0001
1000
,  // measure 38
1001
0001
0001
0000
0100
0000
0010
0000
,  // measure 39
1010
0000
1010
0000
0101
0000
0001
0010
,  // measure 40
0001
0001
0001
0000
0001
0000
0000
0000
,  // measure 41
0000
1000
0100
1000
,  // measure 42
0001
0100
0001
1000
,  // measure 43
1000
0001
0010
0001
,  // measure 44
1000
0001
0100
0010
,  // measure 45
1000
0000
0000
0000
,  // measure 46
0000
0000
0010
0000
0000
1001
0000
0000
0000
0000
0000
0000
0000
0000
0000
0000
0000
0000
0000
0000
0000
0000
0000
0000
;

//---------------dance-single - ----------------
#NOTEDATA:;
#CHARTNAME:;
#STEPSTYPE:dance-single;
#DESCRIPTION:;
#CHARTSTYLE:;
#DIFFICULTY:Medium;
#METER:45;
#RADARVALUES:0.266018,0.330772,0.088206,0.098007,0.004900,190.000000,181.000000,9.000000,10.000000,0.000000,0.000000,0.000000,0.000000,0.000000,0.266018,0.330772,0.088206,0.098007,0.004900,190.000000,181.000000,9.000000,10.000000,0.000000,0.000000,0.000000,0.000000,0.000000;
#CREDIT:;
#NOTES:
// measure 0
0000
0000
0000
0000
,  // measure 1
0000
0000
0000
0000
,  // measure 2
0000
0000
0000
0000
,  // measure 3
0000
0000
0000
0000
,  // measure 4
0000
0000
0000
0000
,  // measure 5
2000
0100
0100
3100
,  // measure 6
0002
0100
0100
0103
,  // measure 7
0002
0010
0010
0013
,  // measure 8
2000
0010
0010
0010
,  // measure 9
3001
1000
1000
1000
,  // measure 10
0001
1000
0010
0100
,  // measure 11
0010
1000
1000
1000
,  // measure 12
0100
0100
0100
0000
0000
0000
0000
0000
,  // measure 13
2000
3010
0100
0001
,  // measure 14
0020
0130
1000
0010
,  // measure 15
0100
0010
1000
0001
,  // measure 16
1000
0001
1000
0001
0000
0100
1001
0000
,  // measure 17
0001
0000
1000
0000
0010
0000
1000
0010
,  // measure 18
0100
0000
0001
0000
0010
0000
0100
0010
,  // measure 19
0001
0000
1000
0000
0001
0000
0100
0010
,  // measure 20
1000
1000
1000
0000
0001
0001
1000
0001
,  // measure 21
1001
0001
0010
0001
,  // measure 22
0100
0100
0100
0000
0010
0000
1010
0000
,  // measure 23
0101
1000
0100
1000
,  // measure 24
0010
0010
0010
0000
0100
0000
0000
0000
,  // measure 25
0001
0000
0000
1000
0100
0000
0000
0010
,  // measure 26
0100
0000
0000
0000
0010
0000
0001
0000
1000
0000
0000
0001
0000
0000
0000
0000
,  // measure 27
0200
0010
0010
0310
,  // measure 28
2000
0001
0001
3001
,  // measure 29
2000
3100
0002
0103
,  // measure 30
0001
1000
0001
1000
0000
0100
1001
0000
,  // measure 31
1000
0000
0010
1000
0100
0000
1000
0001
,  // measure 32
0100
0000
0010
0100
0001
0001
1000
1000
,  // measure 33
1001
0001
0010
0001
,  // measure 34
0100
0100
0010
1010
,  // measure 35
0110
0100
0010
1000
,  // measure 36
0001
0001
0001
0000
1000
0001
1001
0000
,  // measure 37
1000
0001
0100
0001
,  // measure 38
0010
0100
0010
0000
0001
0000
1000
0000
,  // measure 39
0010
0000
0010
0000
0010
0000
0100
0001
,  // measure 40
1000
1000
1000
0000
0001
0000
0000
0000
,  // measure 41
0100
0010
1000
0010
,  // measure 42
0100
0001
0010
0001
,  // measure 43
1000
0001
0001
1000
,  // measure 44
0001
0100
0010
1000
,  // measure 45
0100
0000
0000
0000
;
