#VERSION:0.83;
#TITLE:Far Away;
#SUBTITLE:;
#ARTIST:lapix;
#TITLETRANSLIT:;
#SUBTITLETRANSLIT:;
#ARTISTTRANSLIT:;
#GENRE:;
#ORIGIN:;
#CREDIT:;
#BANNER:Far Away.png;
#BACKGROUND:Far Away-bg.png;
#PREVIEWVID:;
#JACKET:Far Away-jacket.png;
#CDIMAGE:;
#DISCIMAGE:;
#LYRICSPATH:;
#CDTITLE:;
#MUSIC:Far Away.ogg;
#OFFSET:-0.656999;
#SAMPLESTART:87.326683;
#SAMPLELENGTH:12.387100;
#SELECTABLE:YES;
#BPMS:0.000=155.000;
#STOPS:;
#DELAYS:;
#WARPS:;
#TIMESIGNATURES:0.000=4=4;
#TICKCOUNTS:0.000=4;
#COMBOS:0.000=1;
#SPEEDS:0.000=1.000=0.000=0;
#SCROLLS:0.000=1.000;
#FAKES:;
#LABELS:0.000=Song Start;
#BGCHANGES:;
#KEYSOUNDS:;
#ATTACKS:
;

//---------------dance-single - ----------------
#NOTEDATA:;
#CHARTNAME:;
#STEPSTYPE:dance-single;
#DESCRIPTION:;
#CHARTSTYLE:;
#DIFFICULTY:Hard;
#METER:75;
#RADARVALUES:0.449084,0.560027,0.307086,0.387898,0.189908,389.000000,351.000000,38.000000,48.000000,0.000000,0.000000,0.000000,0.000000,0.000000,0.449084,0.560027,0.307086,0.387898,0.189908,389.000000,351.000000,38.000000,48.000000,0.000000,0.000000,0.000000,0.000000,0.000000;
#CREDIT:;
#NOTES:
// measure 0
0000
0000
0000
0000
,  // measure 1
0000
0000
0000
0000
,  // measure 2
1100
0000
0000
0100
0000
0000
0200
0000
0000
0000
0000
0000
0000
0000
0000
0000
,  // measure 3
0000
0000
0000
0300
,  // measure 4
0011
0000
0000
0010
0000
0000
0020
0000
0000
0000
0000
0000
0030
0000
0000
0000
,  // measure 5
1001
0000
0000
0001
0000
0000
0002
0000
0000
0000
0000
0000
0003
0000
0000
0000
,  // measure 6
1010
0000
0000
0010
0000
0000
0010
0000
0200
0000
0000
0000
0301
0000
0000
0000
,  // measure 7
1001
0000
0000
1000
0000
0000
1000
0000
0002
0000
0000
0000
0013
0000
0000
0000
,  // measure 8
0011
0000
0000
0001
0000
0000
0001
0000
1001
0000
0000
1000
0000
0000
1000
0000
,  // measure 9
1010
0000
0000
0011
0000
0000
2002
0000
0000
0000
0000
0000
3003
0000
0000
0000
,  // measure 10
0100
0100
0100
0100
,  // measure 11
0100
0010
0100
0010
0100
0010
0100
0000
,  // measure 12
1001
0000
1000
0000
0001
0000
0100
0000
0001
0000
0000
0010
0000
0000
0001
0000
,  // measure 13
0000
0000
1000
0000
0100
0000
1000
0000
0010
0000
0000
0100
0000
0000
0001
0000
,  // measure 14
0000
0000
1000
0000
0001
0000
0010
0000
0001
0000
0000
1000
0000
0000
0100
0000
,  // measure 15
0000
0010
0100
1000
1010
0000
0011
0000
,  // measure 16
1001
0000
0001
0000
0010
0000
0001
0000
0100
0000
0000
0010
0000
0000
1000
0000
,  // measure 17
0000
0000
0100
0000
1000
0000
0001
0000
0010
0000
0000
0001
0000
0000
1000
0000
,  // measure 18
0000
0000
0010
0000
0100
0000
0001
0000
0010
0000
0000
0100
0000
0000
1000
0000
,  // measure 19
0000
0010
1000
0001
0011
0000
1010
0000
,  // measure 20
1001
0000
1000
0010
0110
0000
0010
1000
,  // measure 21
1010
0000
0000
0000
1010
0000
0000
0000
0001
0000
0000
0010
0000
0000
0100
0000
,  // measure 22
1000
0000
0001
1000
0100
0000
0010
0001
,  // measure 23
0200
0000
0000
0000
0310
0000
0000
0000
1000
0000
0000
0001
0000
0000
0010
0000
,  // measure 24
0000
0100
0010
0001
1000
0000
0000
0010
,  // measure 25
1000
0000
0001
0000
0100
0000
0001
0000
1000
0000
0000
0001
0000
0000
0100
0000
,  // measure 26
0020
0000
0000
0000
,  // measure 27
0130
0000
0000
0100
0001
0000
0000
0001
1000
0000
0000
1000
0100
0000
0000
0100
,  // measure 28
0020
0000
0130
1000
0001
0000
0100
0000
,  // measure 29
0010
0000
0000
0000
1000
0000
0000
0000
0100
0000
0000
0010
0000
0000
0001
0000
,  // measure 30
0000
1000
0001
0010
0001
0000
1000
0000
,  // measure 31
0010
0000
0000
0000
0100
0000
0000
0000
0001
0000
0000
0010
0000
0000
0001
0000
,  // measure 32
1000
0001
0100
1000
0100
0000
0000
0010
,  // measure 33
1000
0000
0010
0000
0001
0000
0010
0000
0100
0000
0000
0010
0000
0000
1000
0000
,  // measure 34
0002
0000
0000
0000
,  // measure 35
0013
0100
0010
0100
0010
0000
0001
0000
,  // measure 36
1010
0000
0000
0000
,  // measure 37
0100
0000
0000
0000
0001
0000
1000
0100
,  // measure 38
0010
0000
0001
0000
,  // measure 39
1000
0000
0010
0000
,  // measure 40
0100
0000
0000
0100
0000
0000
0001
0000
1000
0000
0000
0000
0000
0000
0000
0000
,  // measure 41
0100
0000
0000
0100
0000
0000
0010
0000
0001
0000
0100
0000
0010
0000
1000
0000
,  // measure 42
0200
0000
0000
0010
,  // measure 43
0020
0000
0000
0330
,  // measure 44
1002
1000
2000
3003
,  // measure 45
2001
0001
0002
3003
,  // measure 46
0120
0100
0200
0330
,  // measure 47
0210
0010
0020
0330
,  // measure 48
1000
0000
0000
0101
0000
0000
0001
0000
0021
0000
0000
0000
0230
0000
0000
0000
,  // measure 49
1300
0000
0000
0011
0000
0000
0001
0000
2001
0000
0000
0000
3020
0000
0000
0000
,  // measure 50
0130
0000
0000
0011
0000
0000
0010
0000
0100
0000
0000
1100
0000
0000
1000
0000
,  // measure 51
1001
0000
0000
0110
0000
0000
2002
0000
0000
0000
0000
0000
3003
0000
0000
0000
,  // measure 52
0200
0010
0010
0010
,  // measure 53
0310
0100
0010
0100
0010
0100
0010
0100
,  // measure 54
0001
0010
0100
1000
0100
0010
0001
1000
,  // measure 55
0020
2030
0002
3003
,  // measure 56
0001
0000
0000
1000
0000
0000
0200
0000
0000
0000
0000
0000
0310
0000
0100
0000
,  // measure 57
1000
0000
0000
0001
0000
0000
0200
0000
0000
0000
0000
0000
0310
0000
0100
0000
,  // measure 58
0001
0000
0000
1000
0000
0000
0100
0000
0010
0000
0000
0001
0000
0000
1000
0000
,  // measure 59
0001
0010
1000
0010
0100
0000
1001
0000
,  // measure 60
0001
0000
0000
1000
0000
0000
0002
0000
0000
0000
0000
0000
0013
0000
0001
0000
,  // measure 61
1000
0000
0000
0100
0000
0000
0020
0000
0000
0000
0130
0000
1000
0000
0010
0000
,  // measure 62
0100
0000
0000
0100
0000
0000
0200
0000
0010
0000
0000
0010
0000
0000
0310
0000
,  // measure 63
1000
0100
0010
0001
1000
0000
0110
0000
,  // measure 64
1001
0000
0001
0000
0010
0000
0001
0100
,  // measure 65
0000
0010
2000
0000
0000
3000
1000
1000
,  // measure 66
0001
0000
0000
0010
0000
0000
0001
0000
1000
0000
0000
0010
0000
0000
1000
0000
,  // measure 67
0001
0000
0100
0000
0020
0000
0000
0000
1030
0001
0000
0001
0000
0000
0010
0000
,  // measure 68
0200
0000
0310
0000
0001
0000
1000
0010
,  // measure 69
0000
1000
0200
0000
0000
0300
0100
0100
,  // measure 70
0010
0000
0000
0001
0000
0000
0100
0000
0010
0000
0000
1000
0000
0000
0001
0000
,  // measure 71
2000
0000
3020
0000
1030
0100
0002
0000
,  // measure 72
0203
0000
0000
0000
,  // measure 73
0320
0000
0000
0032
0000
0000
0000
0000
,  // measure 74
1003
0000
0000
1000
0000
0000
1000
0000
0001
0000
0000
0001
0000
0000
0001
0000
,  // measure 75
0100
0100
0100
0100
,  // measure 76
0100
0100
0100
2002
,  // measure 77
3003
0000
0000
0000
;

//---------------dance-single - ----------------
#NOTEDATA:;
#CHARTNAME:;
#STEPSTYPE:dance-single;
#DESCRIPTION:;
#CHARTSTYLE:;
#DIFFICULTY:Medium;
#METER:60;
#RADARVALUES:0.363654,0.465174,0.145462,0.193949,0.125259,315.000000,297.000000,18.000000,24.000000,0.000000,0.000000,0.000000,0.000000,0.000000,0.363654,0.465174,0.145462,0.193949,0.125259,315.000000,297.000000,18.000000,24.000000,0.000000,0.000000,0.000000,0.000000,0.000000;
#CREDIT:;
#NOTES:
// measure 0
0000
0000
0000
0000
,  // measure 1
0000
0000
0000
0000
,  // measure 2
1000
0000
0000
0001
0000
0000
0020
0000
0000
0000
0000
0000
0000
0000
0000
0000
,  // measure 3
0000
0000
0000
0030
,  // measure 4
0001
0000
0000
1000
0000
0000
0200
0000
0000
0000
0000
0000
0300
0000
0000
0000
,  // measure 5
1000
0000
0000
0001
0000
0000
0020
0000
0000
0000
0000
0000
0030
0000
0000
0000
,  // measure 6
0001
0000
0000
0010
0000
0000
0100
0000
0010
0000
0000
0000
0001
0000
0000
0000
,  // measure 7
0100
0000
0000
0010
0000
0000
1000
0000
0100
0000
0000
0000
0010
0000
0000
0000
,  // measure 8
0100
0000
0000
1000
0000
0000
0100
0000
0010
0000
0000
0001
0000
0000
0100
0000
,  // measure 9
0010
0000
0000
2000
0000
0000
0002
0000
0000
0000
0000
0000
0000
0000
3003
0000
,  // measure 10
0110
0100
0100
0100
,  // measure 11
0010
0010
0010
0010
,  // measure 12
1000
0000
0001
0000
0010
0001
0010
0000
,  // measure 13
0001
0000
0100
0000
0010
1000
0010
0000
,  // measure 14
1000
0000
0001
0000
0100
0001
0100
0000
,  // measure 15
0001
0010
0011
1010
,  // measure 16
1000
0000
0001
0000
1000
0100
1000
0000
,  // measure 17
0001
0000
0100
0000
0010
0100
0010
0000
,  // measure 18
0100
0000
0001
0000
1000
0010
1000
0000
,  // measure 19
0001
0100
0101
1100
,  // measure 20
0100
1000
0010
0100
,  // measure 21
0001
0000
0000
0000
0010
0000
0000
0000
0001
0000
0000
1000
0000
0000
0010
0000
,  // measure 22
0000
1000
0010
0100
,  // measure 23
0001
0000
0000
0000
0010
0000
0000
0000
0001
0000
0000
1000
0000
0000
0001
0000
,  // measure 24
0000
1000
0010
0100
0001
0000
0000
1000
,  // measure 25
0010
0000
0100
0000
0001
0000
0010
0000
0100
0000
0000
0010
0000
0000
0001
0000
,  // measure 26
0200
0000
0000
0000
,  // measure 27
0310
0100
0001
0010
,  // measure 28
1200
0310
0001
0100
,  // measure 29
0001
0000
0000
0000
1000
0000
0000
0000
0100
0000
0000
1000
0000
0000
0010
0000
,  // measure 30
0000
0100
0010
0000
1000
0000
0001
0000
,  // measure 31
0010
0000
0000
0000
0001
0000
0000
0000
0100
0000
0000
0010
0000
0000
1000
0000
,  // measure 32
0000
0010
0100
0010
1000
0000
0000
0010
,  // measure 33
0100
0000
0010
0000
1000
0000
0001
0000
0010
0000
0000
0001
0000
0000
1000
0000
,  // measure 34
0200
0000
0000
0000
,  // measure 35
0310
0001
1000
0100
0010
0001
1000
0000
,  // measure 36
0101
0000
0000
0000
,  // measure 37
0001
0000
1000
0000
,  // measure 38
0100
0000
0000
0000
,  // measure 39
1000
0000
0010
0000
,  // measure 40
0100
0001
0010
0000
,  // measure 41
0100
1000
0010
0000
,  // measure 42
0200
0000
0000
0010
,  // measure 43
0020
0000
0000
0330
,  // measure 44
1000
0000
0000
1000
0000
0000
1000
0000
0000
0000
0000
0000
0000
0000
0000
0000
,  // measure 45
0001
0000
0000
0001
0000
0000
0001
0000
0000
0000
0000
0000
0000
0000
0000
0000
,  // measure 46
0100
0000
0000
0100
0000
0000
0100
0000
0000
0000
0000
0000
0000
0000
0000
0000
,  // measure 47
0010
0000
0000
0010
0000
0000
0010
0000
0000
0000
0000
0000
0000
0000
0000
0000
,  // measure 48
1000
0000
0000
0010
0000
0000
0100
0000
0001
0000
0000
0000
0010
0000
0000
0000
,  // measure 49
0100
0000
0000
0010
0000
0000
0001
0000
1000
0000
0000
0000
0010
0000
0000
0000
,  // measure 50
0100
0000
0000
0001
0000
0000
0010
0000
0100
0000
0000
0010
0000
0000
0001
0000
,  // measure 51
0100
0000
0000
0010
0000
0000
0200
0000
0000
0000
0000
0000
0300
0000
0000
0000
,  // measure 52
1002
1000
1000
1000
,  // measure 53
0100
0100
0100
0100
,  // measure 54
0103
0010
0100
0010
0100
0010
0100
0010
,  // measure 55
0200
0302
0023
0031
,  // measure 56
1100
0000
0000
0100
0000
0000
0200
0000
0000
0000
0000
0000
0310
0000
0100
0000
,  // measure 57
1000
0000
0000
0001
0000
0000
2000
0000
0000
0000
0000
0000
3010
0000
0100
0000
,  // measure 58
0001
0000
0000
0010
0000
0000
1000
0000
0010
0000
0000
0001
0000
0000
1000
0000
,  // measure 59
0100
0011
1010
0101
,  // measure 60
0001
0000
0000
1000
0000
0000
0020
0000
0000
0000
0000
0000
0130
0000
0001
0000
,  // measure 61
1000
0000
0000
0001
0000
0000
0020
0000
0000
0000
0130
0000
0010
0000
0001
0000
,  // measure 62
1000
0000
0000
0010
0000
0000
1000
0000
0001
0000
0000
0100
0000
0000
0001
0000
,  // measure 63
0010
0100
1100
0011
,  // measure 64
0000
0000
0001
0000
0100
0000
0010
1000
,  // measure 65
0000
0010
0200
0000
0000
0000
0301
0010
,  // measure 66
0100
0000
0000
0010
0001
0000
0100
0010
,  // measure 67
0000
1000
0002
0000
0000
0000
0000
0000
,  // measure 68
0003
0000
1000
0000
0001
0000
0010
0001
,  // measure 69
0000
0001
0200
0000
0000
0000
0301
0010
,  // measure 70
0100
0010
0001
0010
,  // measure 71
0110
0000
1001
0000
1000
0100
0001
0000
,  // measure 72
1200
0000
0000
0000
,  // measure 73
2300
0000
0000
0000
,  // measure 74
3001
0000
0001
0000
,  // measure 75
0100
0100
0100
0100
,  // measure 76
0100
0100
0100
1001
;

//---------------dance-single - ----------------
#NOTEDATA:;
#CHARTNAME:;
#STEPSTYPE:dance-single;
#DESCRIPTION:;
#CHARTSTYLE:;
#DIFFICULTY:Challenge;
#METER:100;
#RADARVALUES:0.666122,0.875800,0.581846,0.541440,0.569725,577.000000,505.000000,72.000000,67.000000,0.000000,0.000000,2.000000,0.000000,0.000000,0.666122,0.875800,0.581846,0.541440,0.569725,577.000000,505.000000,72.000000,67.000000,0.000000,0.000000,2.000000,0.000000,0.000000;
#CREDIT:;
#OFFSET:-0.656999;
#BPMS:0.000000=155.000000
,142.000000=77.500000
,158.000000=155.000000
;
#STOPS:62.000000=0.193548
,62.500000=0.193548
,77.000000=0.193548
,77.500000=0.193548
;
#DELAYS:;
#WARPS:;
#TIMESIGNATURES:0.000000=4=4
;
#TICKCOUNTS:0.000000=4
;
#COMBOS:0.000000=1
;
#SPEEDS:0.000000=1.000000=0.000000=0
;
#SCROLLS:0.000000=1.000000
;
#FAKES:;
#LABELS:0.000000=Song Start
;
#NOTES:
// measure 0
0000
0000
0000
0000
,  // measure 1
0000
0000
0000
0000
,  // measure 2
1010
0000
0000
0101
0000
0000
0011
0000
0010
0000
0100
0000
1000
0000
0001
1000
,  // measure 3
0001
0000
0010
0000
0100
0000
1000
0001
1000
0000
0010
0000
1000
0001
1000
0001
,  // measure 4
1000
0000
0000
0110
0000
0000
0102
0000
0000
0000
0000
0000
0013
0100
1000
0001
,  // measure 5
0100
0000
0000
1010
0000
0000
1200
0000
0000
0000
0000
0000
0310
0001
0010
0000
,  // measure 6
1100
0000
0000
0011
0000
0000
0100
0000
0201
0000
0000
0000
0310
0000
0000
0000
,  // measure 7
0110
0000
0000
1010
0000
0000
1000
0000
2100
0000
0000
0000
3001
0000
1000
0000
,  // measure 8
1001
0000
1000
0010
0000
0100
0001
0000
1001
0000
0001
0010
0000
0100
1000
0000
,  // measure 9
1001
0000
0000
0110
0000
0000
1001
0000
0001
0000
0000
0010
0000
0000
0001
0000
,  // measure 10
0100
0100
0100
0100
,  // measure 11
0100
0000
0010
0000
0100
0000
0010
0000
0100
0010
0100
0010
0100
0000
0000
0000
,  // measure 12
1001
0000
0001
0000
0010
0000
0100
0000
2000
0000
0000
3020
0000
0000
0130
0000
,  // measure 13
0000
0000
0010
0000
0100
0000
0001
0000
2000
0000
0000
3200
0000
0000
0301
0000
,  // measure 14
0000
0000
0100
0000
0010
0000
0001
0000
2000
0000
0000
3002
0000
0000
0013
0000
,  // measure 15
0000
0100
0010
0001
0011
1010
1001
1000
,  // measure 16
0010
0000
0100
0000
0002
0000
0000
0023
0000
0000
0130
0000
0000
0000
0100
0000
,  // measure 17
1000
0000
0010
0000
2000
0000
0000
3020
0000
0000
0031
0000
0000
0000
0010
0000
,  // measure 18
0100
0000
0001
0000
2000
0000
0000
3200
0000
0000
0310
0000
0000
0000
0100
0000
,  // measure 19
0010
0000
0001
0000
0011
0000
1100
0000
1001
0000
1000
0000
0010
0000
0100
0001
,  // measure 20
0100
0000
0001
0000
0010
0000
0100
0010
0100
0000
0010
0001
0010
0000
0001
0100
,  // measure 21
0002
0000
0000
2003
0000
0000
3100
0000
1000
0000
0010
0000
0100
0000
0001
0000
,  // measure 22
0020
0032
0203
0320
,  // measure 23
1030
0000
1000
0001
0000
0001
1000
0000
1001
0000
0000
0000
0011
0000
0000
0000
,  // measure 24
0110
0000
0000
1100
0000
0000
1010
0000
0110
0000
0000
0000
0101
0000
0001
0100
,  // measure 25
0010
1000
0001
0010
0100
0010
0001
1000
0010
0100
0010
0000
0100
0000
0010
0100
,  // measure 26
0010
0100
0010
0100
0010
1000
0001
0010
0200
0000
1300
0010
0200
0000
0310
1000
,  // measure 27
0002
0000
0013
0100
1000
0100
0010
0004
4000
0000
3003
0000
0110
0000
0100
0000
,  // measure 28
0010
0000
0000
1000
0000
0100
0000
1000
0001
0000
0000
0010
0100
0000
0000
0100
,  // measure 29
2000
0000
0000
3020
0000
0000
0130
0000
0010
0000
1000
0000
0001
0000
0010
0100
,  // measure 30
0010
0001
1000
0010
0101
0000
0011
0000
,  // measure 31
0210
0000
0000
2300
0000
0000
3001
0000
1001
0000
0000
0000
1010
0000
0000
0000
,  // measure 32
0001
0100
0000
0010
0000
1000
0100
0000
0110
0000
0000
0000
0011
0000
0000
0000
,  // measure 33
0002
0000
0000
0203
0000
0000
0320
0000
0230
0000
0000
0000
0000
0000
0000
0000
,  // measure 34
0000
0000
0000
0000
0000
0000
0000
0000
0310
1000
0001
0010
0100
0010
0001
0100
,  // measure 35
0010
1000
0001
0000
0010
0000
1000
0000
0010
0000
0000
0010
0001
0100
0010
1000
,  // measure 36
0001
0000
0000
0001
0000
0000
1000
0000
0001
0000
0000
0000
0100
0000
0010
0000
1000
0000
0001
0000
1000
0000
0001
0000
1000
0000
0000
0100
0000
0000
0001
0000
,  // measure 37
0100
0000
0000
0010
0000
0000
0001
0000
0000
0000
0010
0000
0001
0000
0100
0000
0010
0000
0000
1000
0000
0000
0010
0000
0100
0000
0000
0000
0010
0000
0000
0000
,  // measure 38
1000
0000
0000
0001
0000
0000
0010
0000
0000
0000
0100
0000
1000
0000
0001
0000
2001
0000
0000
0000
0000
0000
0000
0000
0000
0000
0000
0000
0001
0000
0000
0000
,  // measure 39
0002
0000
0000
0000
0000
0000
3003
0000
0101
0000
0000
0001
0000
0000
1000
0001
,  // measure 40
1000
0000
0001
0000
0000
0000
0001
1000
0001
0000
1000
0000
0000
0000
1000
0001
,  // measure 41
1000
0000
0001
0000
0000
0000
0001
1000
0001
0000
1000
0000
0000
0000
1000
0001
,  // measure 42
1000
0000
0001
0000
0000
0000
0001
1000
0001
0000
1000
0000
0000
0000
0000
0000
,  // measure 43
0000
0000
1000
0001
0100
0010
1000
0001
0010
0100
0010
0100
0010
0100
0010
0100
,  // measure 44
0010
0100
0010
0100
2000
0000
0000
0000
3001
0100
0001
0100
0001
0100
0001
0100
,  // measure 45
0001
0100
0001
0100
0001
0000
0010
0000
0100
0010
0100
0010
0100
0010
0100
0000
,  // measure 46
1000
0001
1000
0001
1000
0001
1000
0000
1001
0000
0000
0101
0000
0000
1010
0000
,  // measure 47
2000
0000
0000
3200
0000
0000
0302
0000
0103
0000
0000
0000
0100
0000
0000
0000
,  // measure 48
0100
0000
0100
0000
0100
0010
0100
0010
,  // measure 49
0100
0000
0010
0000
0100
0000
0010
0000
0001
1000
0001
1000
0001
1000
0001
1000
,  // measure 50
0001
1000
0001
1000
0001
1000
0001
1000
0002
0000
0000
0000
0200
0000
0000
0003
,  // measure 51
0020
0000
0000
0300
1030
0000
0000
0000
1010
0000
0000
0101
0000
0000
0021
0000
,  // measure 52
0000
0000
0000
0000
0031
0000
0010
0000
0110
0000
0000
0011
0000
0000
1020
0000
,  // measure 53
0000
0000
0000
0000
0130
0000
0001
0000
1002
0000
0000
0010
0000
0000
0013
0000
,  // measure 54
2001
0000
0000
0010
0000
0000
3010
0000
0100
0000
0001
0000
0010
0000
0100
0000
,  // measure 55
1200
0000
0000
0000
0310
0000
0000
0000
0011
0000
0000
0110
0000
0000
1200
0000
,  // measure 56
0000
0000
0000
0000
1300
0000
0100
0000
0110
0000
0000
0011
0000
0000
0201
0000
,  // measure 57
0000
0000
0310
0000
1000
0000
0001
0000
2001
0000
0000
0100
0000
0000
3100
0000
,  // measure 58
1002
0000
0000
0100
0000
0000
0103
0000
0001
0000
0100
0000
0010
0000
1000
0000
,  // measure 59
0100
1001
0101
1020
,  // measure 60
0230
0000
0301
0020
0000
1030
0020
0000
,  // measure 61
0000
0000
0000
0000
0100
0000
0130
0000
0010
0000
0001
0010
0000
0010
0100
0000
,  // measure 62
1000
0000
1000
0010
0000
0010
0100
0000
0010
0000
1000
0000
0002
0000
0000
0000
,  // measure 63
0013
0001
0000
0001
0000
0000
0010
0000
0000
0000
0000
0000
2100
0000
0000
0000
,  // measure 64
3020
0000
0031
0010
0000
0010
0200
0000
,  // measure 65
0000
0000
0010
0310
1001
0000
0110
0000
,  // measure 66
1001
0110
1020
0230
,  // measure 67
0301
0010
0200
0000
0320
0000
0000
0000
,  // measure 68
0000
0000
0000
0000
0032
0000
0000
2003
,  // measure 69
0000
0000
0000
0000
0000
0000
0000
0000
3020
0000
0000
1030
0000
0000
0010
0000
,  // measure 70
0200
0000
0000
0301
0000
0000
0010
0000
0100
0000
0000
0000
0100
0000
0000
0000
,  // measure 71
0100
0100
0100
0100
,  // measure 72
0100
1001
0000
0000
;

//---------------dance-single - ----------------
#NOTEDATA:;
#CHARTNAME:;
#STEPSTYPE:dance-single;
#DESCRIPTION:;
#CHARTSTYLE:;
#DIFFICULTY:Easy;
#METER:30;
#RADARVALUES:0.251672,0.341128,0.153543,0.210111,0.000000,218.000000,199.000000,19.000000,26.000000,0.000000,0.000000,0.000000,0.000000,0.000000,0.251672,0.341128,0.153543,0.210111,0.000000,218.000000,199.000000,19.000000,26.000000,0.000000,0.000000,0.000000,0.000000,0.000000;
#CREDIT:;
#NOTES:
// measure 0
0000
0000
0000
0000
,  // measure 1
0000
0000
0000
0000
,  // measure 2
2002
0000
0000
0000
,  // measure 3
0000
0000
0000
3003
,  // measure 4
0220
0000
0000
0330
,  // measure 5
2002
0000
0000
3003
,  // measure 6
0001
1000
0020
0000
,  // measure 7
1030
0001
0020
0000
,  // measure 8
0031
1000
0001
1000
,  // measure 9
0001
1000
0010
0100
,  // measure 10
1001
0001
0001
0001
,  // measure 11
1000
1000
1000
1001
,  // measure 12
0001
0100
0001
0000
,  // measure 13
0100
0010
0100
0000
,  // measure 14
0010
1000
0010
0000
,  // measure 15
1000
0001
1001
1001
,  // measure 16
1000
0001
0010
0000
,  // measure 17
0100
0010
0001
0000
,  // measure 18
0100
0010
1000
0000
,  // measure 19
0100
1000
1001
1001
,  // measure 20
0001
0000
1000
0000
,  // measure 21
0010
1000
0010
0100
,  // measure 22
0001
0000
0010
0000
,  // measure 23
0001
1000
0010
0100
,  // measure 24
0000
0001
1000
0000
,  // measure 25
0001
1000
0010
0100
,  // measure 26
2002
0000
0000
0000
,  // measure 27
3003
0000
0000
0000
,  // measure 28
0010
1001
0001
0010
,  // measure 29
0001
0100
0001
1000
,  // measure 30
0000
0100
1000
0010
,  // measure 31
0100
0010
1000
0001
,  // measure 32
0000
1000
0001
0000
,  // measure 33
1000
0001
0100
0010
,  // measure 34
0200
0000
0000
0000
,  // measure 35
0000
0000
0300
0000
,  // measure 36
1001
0000
0000
0000
,  // measure 37
1000
0000
0001
0000
,  // measure 38
0100
0000
0000
0000
,  // measure 39
0010
0000
0000
0000
,  // measure 40
1000
0000
0100
0000
,  // measure 41
1000
0000
0001
0000
,  // measure 42
0200
0000
0000
0010
,  // measure 43
0020
0000
0000
0330
,  // measure 44
1000
0000
0000
0000
,  // measure 45
0001
0000
0000
0000
,  // measure 46
1000
0000
0000
0000
,  // measure 47
0010
0000
0000
0000
,  // measure 48
1000
0001
2000
3002
,  // measure 49
1003
0010
2000
3020
,  // measure 50
0130
0001
0100
0001
,  // measure 51
0100
0010
1000
0001
,  // measure 52
0010
0010
0010
0010
,  // measure 53
0100
0100
0100
0100
,  // measure 54
0010
0001
1000
0100
,  // measure 55
2000
3002
2003
3001
,  // measure 56
0100
0010
2000
3000
,  // measure 57
0010
0100
0002
0003
,  // measure 58
1000
0000
0001
0000
,  // measure 59
1000
0001
0100
1001
,  // measure 60
0001
0010
0002
0003
,  // measure 61
1000
0010
2000
3000
,  // measure 62
0010
0000
0010
0000
,  // measure 63
0100
0010
1001
0110
,  // measure 64
0000
1000
0010
0100
,  // measure 65
0001
0020
0000
0001
,  // measure 66
0031
0000
1000
0000
,  // measure 67
0010
0000
1001
0000
,  // measure 68
0001
1010
1000
0010
,  // measure 69
0100
0002
0000
1003
,  // measure 70
0000
1000
0000
1000
,  // measure 71
0001
0010
0100
1000
,  // measure 72
1001
0000
0000
0000
,  // measure 73
0010
0000
0000
0000
,  // measure 74
0100
0000
0010
0000
,  // measure 75
1000
0001
1000
0001
,  // measure 76
1000
0001
1000
1001
;

//---------------dance-single - ----------------
#NOTEDATA:;
#CHARTNAME:;
#STEPSTYPE:dance-single;
#DESCRIPTION:;
#CHARTSTYLE:;
#DIFFICULTY:Beginner;
#METER:20;
#RADARVALUES:0.130454,0.248093,0.088893,0.000000,0.000000,113.000000,102.000000,11.000000,0.000000,0.000000,0.000000,0.000000,0.000000,0.000000,0.130454,0.248093,0.088893,0.000000,0.000000,113.000000,102.000000,11.000000,0.000000,0.000000,0.000000,0.000000,0.000000,0.000000;
#CREDIT:;
#NOTES:
// measure 0
0000
0000
0000
0000
,  // measure 1
0000
0000
0000
0000
,  // measure 2
1001
0000
0000
0000
,  // measure 3
0000
0000
0000
0000
,  // measure 4
1001
0000
0000
0000
,  // measure 5
0110
0000
0000
0000
,  // measure 6
1001
0000
1000
1000
,  // measure 7
0000
0000
0001
0001
,  // measure 8
1000
0000
0001
0000
,  // measure 9
1000
0000
0000
0000
,  // measure 10
0110
0000
0000
0000
,  // measure 11
0000
0000
0000
0000
,  // measure 12
0010
0000
0000
0000
,  // measure 13
1000
0000
0000
0000
,  // measure 14
0001
0000
0000
0000
,  // measure 15
0010
0000
0001
0001
,  // measure 16
1000
0000
0000
0000
,  // measure 17
0001
0000
0000
0000
,  // measure 18
0100
0000
0000
0000
,  // measure 19
0010
0000
1000
1000
,  // measure 20
0001
0000
0000
0000
,  // measure 21
1000
0000
0000
0000
,  // measure 22
0010
0000
0000
0000
,  // measure 23
0100
0000
0000
0000
,  // measure 24
0001
0000
0000
0000
,  // measure 25
0001
0000
1000
0000
,  // measure 26
0110
0000
0000
0000
,  // measure 27
0100
0000
0010
0000
,  // measure 28
0000
1001
0000
0000
,  // measure 29
0001
0000
0001
0000
,  // measure 30
1000
0000
0000
0000
,  // measure 31
0010
0000
0010
0000
,  // measure 32
0100
0000
0000
0000
,  // measure 33
0100
0000
0010
0000
,  // measure 34
1001
0000
0000
0000
,  // measure 35
0000
0000
0000
0000
,  // measure 36
1000
0000
0000
0000
,  // measure 37
0100
0000
0010
0000
,  // measure 38
0001
0000
0000
0000
,  // measure 39
1000
0000
0000
0000
,  // measure 40
0001
0000
0000
0000
,  // measure 41
0100
0000
0000
0000
,  // measure 42
0010
0000
0000
0100
,  // measure 43
0100
0000
0000
0000
,  // measure 44
1000
0000
0000
0000
,  // measure 45
1000
0000
0000
0000
,  // measure 46
1000
0000
0000
0000
,  // measure 47
0001
0000
0000
0000
,  // measure 48
1000
0000
0001
0001
,  // measure 49
0000
0000
1000
1000
,  // measure 50
0001
0000
1000
0000
,  // measure 51
0001
0000
0000
0000
,  // measure 52
0110
0000
0000
0000
,  // measure 53
0000
0000
0000
0000
,  // measure 54
0000
0000
0000
0000
,  // measure 55
1000
0000
0001
0000
,  // measure 56
0100
0000
0000
0000
,  // measure 57
0010
0000
0000
0000
,  // measure 58
1000
0000
1000
0000
,  // measure 59
0001
0000
1000
1000
,  // measure 60
0001
0000
0000
0000
,  // measure 61
0010
0000
0000
0000
,  // measure 62
0001
0000
0001
0000
,  // measure 63
1000
1000
1000
0000
,  // measure 64
0000
0001
0000
0000
,  // measure 65
0000
0000
0000
0000
,  // measure 66
0100
0000
0100
0000
,  // measure 67
0100
0000
0000
0000
,  // measure 68
0000
0010
0000
0000
,  // measure 69
1000
0000
0000
1000
,  // measure 70
0001
0000
0001
0000
,  // measure 71
1000
0001
1000
0001
,  // measure 72
0110
0000
0000
0000
,  // measure 73
0100
0000
0000
0000
,  // measure 74
0010
0000
0010
0000
,  // measure 75
0100
0000
0000
0000
,  // measure 76
0000
0000
0000
1001
;
