#VERSION:0.83;
#TITLE:Einen Jodler hor ich gern;
#SUBTITLE:;
#ARTIST:Takeo Ischi;
#TITLETRANSLIT:;
#SUBTITLETRANSLIT:;
#ARTISTTRANSLIT:;
#GENRE:;
#ORIGIN:;
#CREDIT:;
#BANNER:bn.png;
#BACKGROUND:bg.png;
#PREVIEWVID:;
#JACKET:jk.png;
#CDIMAGE:;
#DISCIMAGE:;
#LYRICSPATH:;
#CDTITLE:cdtitle.png;
#MUSIC:Einen Jodler hor ich gern.ogg;
#OFFSET:-0.129000;
#SAMPLESTART:50.195320;
#SAMPLELENGTH:14.436081;
#SELECTABLE:YES;
#BPMS:0.000=133.000;
#STOPS:;
#DELAYS:;
#WARPS:;
#TIMESIGNATURES:0.000=4=4;
#TICKCOUNTS:0.000=4;
#COMBOS:0.000=1;
#SPEEDS:0.000=1.000=0.000=0;
#SCROLLS:0.000=1.000;
#FAKES:;
#LABELS:0.000=Song Start;
#BGCHANGES:;
#KEYSOUNDS:;
#ATTACKS:
;

//---------------dance-single - ----------------
#NOTEDATA:;
#CHARTNAME:;
#STEPSTYPE:dance-single;
#DESCRIPTION:;
#CHARTSTYLE:;
#DIFFICULTY:Hard;
#METER:80;
#RADARVALUES:0.440236,0.488938,0.166576,0.166576,0.094645,407.000000,385.000000,22.000000,22.000000,0.000000,0.000000,0.000000,0.000000,0.000000,0.440236,0.488938,0.166576,0.166576,0.094645,407.000000,385.000000,22.000000,22.000000,0.000000,0.000000,0.000000,0.000000,0.000000;
#CREDIT:;
#NOTES:
// measure 0
0000
0000
0000
0000
,  // measure 1
0000
0000
0000
0000
,  // measure 2
0000
0000
0000
0000
,  // measure 3
0000
0000
0000
0000
0000
0000
0001
0100
,  // measure 4
0001
0010
0001
1000
,  // measure 5
0200
0000
0010
0000
0310
0000
0100
0010
,  // measure 6
0100
0010
0100
1000
,  // measure 7
0020
0000
0000
0000
0130
0000
0000
0010
2000
0000
0000
0000
3100
0000
0010
0000
,  // measure 8
0001
0010
0001
0100
,  // measure 9
0020
0000
0100
0000
0130
0000
0010
1000
,  // measure 10
0100
0000
1000
0000
0010
0000
0000
0100
,  // measure 11
0001
0010
1000
0010
0001
0000
1001
0000
,  // measure 12
1000
0010
1000
0100
,  // measure 13
0020
0000
0001
0000
0031
0000
1000
0100
,  // measure 14
1000
1000
0001
0010
,  // measure 15
0002
0000
0000
0000
1003
0000
0000
0001
0020
0000
0000
0000
0031
0000
0100
0000
,  // measure 16
0010
0100
0001
1000
,  // measure 17
0200
0000
0000
0000
0300
0000
0010
0100
,  // measure 18
1000
0010
0100
0001
,  // measure 19
1001
0110
1010
0101
,  // measure 20
1000
0010
0100
0010
1000
0100
0010
0000
,  // measure 21
0001
0010
0100
0010
0001
0100
0010
0000
,  // measure 22
1000
0001
0010
0001
1000
0010
0100
0000
,  // measure 23
0001
1000
0100
1000
0001
0010
0100
0000
,  // measure 24
0010
0001
1000
0100
1000
0010
0100
0000
,  // measure 25
1000
0010
0100
0001
0010
0100
1000
0000
,  // measure 26
0001
1000
0010
1000
0001
1000
0010
0100
,  // measure 27
0100
0000
0010
0000
1000
0000
0100
0000
1000
0000
0000
0000
1001
0000
0000
1000
,  // measure 28
0010
0000
0100
0000
0001
0000
0010
0000
0100
0000
0000
0000
0011
0000
0000
0010
,  // measure 29
0001
0000
1000
0000
0001
0000
0100
0000
0010
0000
0000
0000
1010
0000
0000
0100
,  // measure 30
0001
0000
0010
0000
0010
0000
0001
0000
1000
0000
0000
0010
1000
0000
0001
0000
,  // measure 31
0010
0000
1000
0000
0010
0000
0000
0100
0010
0000
0000
0000
0001
0000
0000
1000
,  // measure 32
0010
0000
1000
0000
0100
0000
0001
0000
0100
0000
0000
0000
0110
0000
0000
0100
,  // measure 33
0010
0000
0001
0000
0010
0000
1000
0000
0010
0000
0000
0000
0110
0000
0000
0010
,  // measure 34
0001
0000
1000
0000
0010
0000
0100
0000
0001
0000
0000
1000
0001
0000
0010
0000
,  // measure 35
0100
0000
0020
0000
0000
0000
0000
0000
0031
1000
0001
0000
0110
0000
0000
0000
,  // measure 36
1001
0000
0000
0000
,  // measure 37
1010
0011
1010
0000
,  // measure 38
1000
0000
0001
0000
0100
0000
0001
0000
0010
0000
0000
0100
0010
0000
0002
0000
,  // measure 39
2000
0000
0000
0000
3003
0000
0010
0100
,  // measure 40
0010
1000
0010
0100
,  // measure 41
0002
0000
0010
0000
0013
0000
0010
0001
,  // measure 42
1000
0100
1000
0010
,  // measure 43
0200
0000
0000
0000
0310
0000
0000
1000
0200
0000
0000
0000
0310
0000
0001
0000
,  // measure 44
0100
0010
1000
0001
,  // measure 45
0200
0000
0010
0000
0310
0000
0100
0001
,  // measure 46
0010
0000
0001
0000
1000
0000
0000
0010
,  // measure 47
0200
0000
0310
1001
,  // measure 48
0110
0100
0001
0010
,  // measure 49
0002
1000
1003
0001
,  // measure 50
0010
0001
1000
0100
,  // measure 51
0020
0000
0000
0000
0130
0000
0000
0010
0002
0000
0000
0000
0103
0000
0001
0000
,  // measure 52
1000
0100
1000
0010
,  // measure 53
0002
0000
0000
0000
0003
0000
0010
0100
,  // measure 54
0001
0000
1000
0000
0020
0000
0000
0130
,  // measure 55
0101
0011
1100
1001
,  // measure 56
0001
0100
1000
0100
0001
0100
1000
0000
,  // measure 57
1000
0010
0001
0010
1000
0010
0001
0000
,  // measure 58
0001
0100
1000
0100
0001
0100
1000
0000
,  // measure 59
1000
0010
0001
0010
1000
0010
0001
0000
,  // measure 60
1000
0100
0001
0100
1000
0100
0001
0000
,  // measure 61
0001
0010
1000
0010
0001
0010
1000
0000
,  // measure 62
1000
0100
0001
0100
1000
0100
0001
0100
,  // measure 63
0010
0000
0001
0000
0100
0000
1000
0000
0100
0000
0000
0000
0010
0000
0000
1000
,  // measure 64
0001
0000
0010
0000
0100
0000
1000
0000
0010
0000
0000
0000
0100
0000
0000
0001
,  // measure 65
0010
0000
0100
0000
0010
0000
0001
0000
1000
0000
0000
0000
0001
0000
0000
1000
,  // measure 66
0010
0000
0100
0000
0001
0000
0010
0000
0100
0000
0000
0010
0001
0000
0100
0000
,  // measure 67
0010
0000
1000
0000
0001
0000
0000
1000
0001
0000
0000
0000
1000
0000
0000
0010
,  // measure 68
1000
0000
0010
0000
0100
0000
0001
0000
1000
0000
0000
0000
0100
0000
0000
1000
,  // measure 69
0100
0000
0010
0000
0001
0000
0010
0000
0100
0000
0000
0000
0010
0000
0000
0010
,  // measure 70
0100
0000
0010
0000
0001
0000
0100
0000
0010
0000
0000
0100
0010
0000
1000
0000
,  // measure 71
0001
0000
0020
0000
0000
0000
0000
0000
0031
1000
0001
0000
0110
0000
0000
0000
;

//---------------dance-single - ----------------
#NOTEDATA:;
#CHARTNAME:;
#STEPSTYPE:dance-single;
#DESCRIPTION:;
#CHARTSTYLE:;
#DIFFICULTY:Challenge;
#METER:95;
#RADARVALUES:0.586260,0.776754,0.136289,0.272579,0.526228,542.000000,524.000000,18.000000,36.000000,0.000000,0.000000,0.000000,0.000000,0.000000,0.586260,0.776754,0.136289,0.272579,0.526228,542.000000,524.000000,18.000000,36.000000,0.000000,0.000000,0.000000,0.000000,0.000000;
#CREDIT:;
#OFFSET:-0.129000;
#BPMS:0.000000=133.000000
;
#STOPS:46.000000=0.225565
,46.500000=0.225565
,109.000000=0.225563
,109.500000=0.225563
,188.000000=0.225571
,188.500000=0.225563
,251.000000=0.225563
,251.500000=0.225563
;
#DELAYS:;
#WARPS:;
#TIMESIGNATURES:0.000000=4=4
;
#TICKCOUNTS:0.000000=4
;
#COMBOS:0.000000=1
;
#SPEEDS:0.000000=1.000000=0.000000=0
;
#SCROLLS:0.000000=1.000000
;
#FAKES:;
#LABELS:0.000000=Song Start
;
#NOTES:
// measure 0
0000
0000
0000
0000
,  // measure 1
0000
0000
0000
0000
,  // measure 2
0000
0000
0000
0000
,  // measure 3
0000
0000
0000
0000
0000
0000
0001
0010
,  // measure 4
0100
0010
0001
0100
,  // measure 5
0010
0000
1000
0001
1000
0000
1000
0001
1000
0000
0001
0000
0100
0000
0001
0000
,  // measure 6
1000
0100
1000
0010
,  // measure 7
0100
0000
0000
0000
0010
0000
0000
0010
0200
0000
0000
0000
0301
0000
1000
0000
,  // measure 8
0100
1000
0010
0100
,  // measure 9
0002
0000
0000
0000
0003
0000
0010
0001
,  // measure 10
1000
0000
0010
0000
0100
0000
0000
0010
,  // measure 11
1000
0000
0001
0100
0001
0000
1000
0000
1001
0000
0110
0000
1001
0000
0000
0000
,  // measure 12
1000
0000
0000
0000
0100
0000
0000
0000
1000
0000
0000
0000
0010
0000
0100
0001
,  // measure 13
0100
0000
0100
0001
0100
0000
0001
0000
1000
0000
0100
0000
0010
0000
0000
0000
,  // measure 14
0100
0010
0001
1000
,  // measure 15
0010
0000
0000
0010
0200
0000
0000
0000
0310
0000
1000
0000
0001
0000
0000
0000
,  // measure 16
0010
1000
0010
0002
,  // measure 17
0000
0000
0003
0000
1000
0001
0010
0000
,  // measure 18
0001
0000
0000
0000
0100
0000
0000
0000
0010
0000
0000
0000
1000
0010
1000
0000
,  // measure 19
0001
0100
0001
0000
0010
0100
0010
0000
1001
0000
0000
0000
0001
0100
0010
1000
,  // measure 20
0001
0100
0010
1000
0001
0010
0100
1000
0001
0000
0000
0000
1000
0100
0010
0100
,  // measure 21
1000
0100
0010
0100
1000
0100
0010
0001
1000
0000
0000
0000
0010
0100
0001
1000
,  // measure 22
0010
0100
0001
1000
0001
0010
0100
1000
0001
0000
0000
0000
0100
0010
0001
0100
,  // measure 23
0010
0100
0001
0010
0100
1000
0010
0100
0001
0000
0000
0000
1000
0001
0100
0010
,  // measure 24
1000
0001
0100
0010
1000
0001
0010
0100
1000
0000
0000
0000
0100
0010
0001
0100
,  // measure 25
0010
1000
0010
0100
0001
0010
0100
1000
0001
0000
0000
0000
1000
0001
0100
0010
,  // measure 26
1000
0001
0100
0010
1000
0100
0010
0001
0010
0000
0001
0100
1000
0000
0100
0000
,  // measure 27
0010
0000
1000
0000
1001
0000
0110
0100
0002
0000
0013
0100
1000
0000
0001
0000
,  // measure 28
2001
0000
0000
0000
3010
0000
0000
0100
0002
0000
0013
0100
1000
0000
0001
0000
,  // measure 29
2001
0000
0000
0000
3010
0000
0000
0100
0001
0000
0010
0000
1000
0000
0010
0000
,  // measure 30
0100
0000
0000
0010
0100
0000
0010
0000
0001
0000
0100
0000
1000
0000
0000
0100
,  // measure 31
0020
0000
0000
0000
2030
0000
0000
3001
0010
0000
0100
0010
0001
0000
1000
0000
,  // measure 32
0020
0000
0000
0000
0130
0000
0000
0010
1000
0000
0001
1000
0001
0000
0010
0000
,  // measure 33
0200
0000
0000
0000
0310
0000
0000
0100
1000
0000
0010
0000
0100
0000
0001
0000
,  // measure 34
1000
0000
0000
0001
1000
0000
0010
0000
1000
0000
0200
0000
0000
0000
0000
0000
,  // measure 35
0310
0100
0010
0000
1001
0000
0000
0000
0120
0000
0000
0000
2030
0000
0000
0010
,  // measure 36
3200
0000
0302
0000
0023
0000
0000
0000
0130
0010
0100
0000
0010
0001
0010
0000
,  // measure 37
1001
0000
0000
0000
0001
0000
0000
1000
0001
0000
0010
0000
0100
0000
0010
0000
,  // measure 38
0002
0000
0000
1003
0010
0000
0100
0000
0020
0000
0000
0000
0000
0000
0000
0000
,  // measure 39
0030
0000
1000
0010
0100
0000
0001
0000
,  // measure 40
0010
0000
0000
0000
0100
0000
0000
0000
0010
0000
0001
1000
0001
0000
0001
1000
,  // measure 41
0001
0100
0010
1000
0100
0000
1000
0000
,  // measure 42
0001
0000
0000
0000
0010
0000
0000
0000
0001
0000
0000
0000
1000
0000
0000
1000
,  // measure 43
0002
0000
0103
0001
1000
0000
0100
0000
,  // measure 44
0001
0100
0020
0000
,  // measure 45
0030
0000
0001
0010
0100
0000
0010
0000
,  // measure 46
0001
0000
0000
0000
0000
0000
1000
0000
0001
0000
0100
0010
0100
0000
0001
0000
,  // measure 47
1001
0110
1001
0000
1000
0000
0010
0000
,  // measure 48
0100
0000
0000
0000
0010
0000
1000
0010
1000
0000
1000
0010
1000
0000
0010
0000
,  // measure 49
0100
0010
1000
0000
0001
0000
0010
0000
,  // measure 50
0001
0000
0000
0000
0100
0000
0000
0000
0010
0000
0000
0010
0200
0000
0000
0000
,  // measure 51
0310
0100
0001
0000
1000
0000
0100
0000
,  // measure 52
0010
0200
0000
0300
,  // measure 53
0010
0100
1000
0000
0001
0000
0200
0000
,  // measure 54
0000
0000
0310
0000
1000
0010
1000
0000
0010
0100
0010
0000
0100
0001
0100
0000
,  // measure 55
1001
0000
0000
0000
0001
0100
0010
1000
0001
0100
0010
1000
0001
0010
0100
1000
,  // measure 56
0001
0000
0000
0000
1000
0010
0100
0010
1000
0100
0010
0100
1000
0010
0100
0001
,  // measure 57
1000
0000
0000
0000
0001
1000
0010
0100
0001
1000
0010
0100
0001
0010
0100
1000
,  // measure 58
0001
0000
0000
0000
1000
0001
0010
0001
1000
0010
1000
0001
0010
0100
1000
0001
,  // measure 59
0100
0000
0000
0000
0010
0100
0001
1000
0010
0100
0001
1000
0100
0010
0001
1000
,  // measure 60
0001
0000
0000
0000
0001
0100
0010
0100
0001
0010
0100
0010
0001
0100
0010
1000
,  // measure 61
0001
0000
0000
0000
1000
0010
0100
0001
1000
0010
0100
0001
1000
0100
0010
0001
,  // measure 62
1000
0000
0001
0100
1000
0000
0100
0000
0010
0000
1000
0000
1001
0000
0110
0100
,  // measure 63
0001
0000
0010
0100
2000
0000
0001
0000
3002
0000
0000
0000
0203
0000
0000
0310
,  // measure 64
1000
0000
0100
0010
0001
0000
1000
0000
0020
0000
0000
0000
0230
0000
0000
0301
,  // measure 65
1000
0000
0100
0000
0010
0000
0100
0000
1000
0000
0000
1000
0001
0000
0100
0000
,  // measure 66
0010
0000
1000
0000
0010
0000
0000
0100
0001
0000
0000
0000
0020
0000
0000
0130
,  // measure 67
0010
0000
0001
0010
0100
0000
0010
0000
0002
0000
0000
0000
2003
0000
0000
3010
,  // measure 68
1000
0000
0100
0010
0001
0000
0010
0000
0002
0000
0000
0000
0203
0000
0000
0310
,  // measure 69
1000
0000
0100
0000
1000
0000
0001
0000
0100
0000
0000
0010
0100
0000
0001
0000
,  // measure 70
1000
0000
0020
0000
0000
0000
0000
0000
0130
0010
0100
0000
1001
0000
0000
0000
;

//---------------dance-single - ----------------
#NOTEDATA:;
#CHARTNAME:;
#STEPSTYPE:dance-single;
#DESCRIPTION:;
#CHARTSTYLE:;
#DIFFICULTY:Medium;
#METER:60;
#RADARVALUES:0.335315,0.380285,0.136289,0.000000,0.000000,310.000000,292.000000,18.000000,0.000000,0.000000,0.000000,0.000000,0.000000,0.000000,0.335315,0.380285,0.136289,0.000000,0.000000,310.000000,292.000000,18.000000,0.000000,0.000000,0.000000,0.000000,0.000000,0.000000;
#CREDIT:;
#NOTES:
// measure 0
0000
0000
0000
0000
,  // measure 1
0000
0000
0000
0000
,  // measure 2
0000
0000
0000
0000
,  // measure 3
0000
0000
0000
0000
0000
0000
1000
0001
,  // measure 4
0100
0001
0010
0001
,  // measure 5
1000
0000
0000
0000
0000
0000
0100
1000
,  // measure 6
0010
0100
0001
1000
,  // measure 7
0100
0000
0000
0000
0000
0000
1000
0010
,  // measure 8
1000
0010
0100
0001
,  // measure 9
0010
0000
0000
0000
0000
0000
0100
0010
,  // measure 10
0100
0000
1000
0000
0010
0000
0000
0100
,  // measure 11
0001
0000
1001
0110
,  // measure 12
1001
0001
0010
0001
,  // measure 13
1000
0000
0000
0000
0000
0000
0100
1000
,  // measure 14
0100
1000
0001
0100
,  // measure 15
0010
0000
0000
0000
0000
0000
0100
0001
,  // measure 16
0010
1000
0010
0001
,  // measure 17
1000
0000
0000
0000
0000
0000
0001
0100
,  // measure 18
1000
0100
0010
1000
,  // measure 19
1010
0101
1010
0101
,  // measure 20
0001
0000
0010
0000
0100
1000
0010
0000
,  // measure 21
0100
0000
0010
0000
1000
0001
0010
0000
,  // measure 22
0100
0000
0010
0000
0001
1000
0010
0000
,  // measure 23
0100
0000
0001
0000
0010
0001
1000
0000
,  // measure 24
0100
0000
0010
0000
0100
1000
0010
0000
,  // measure 25
0100
0000
0001
0000
1000
0010
0100
0000
,  // measure 26
0010
0000
1000
0000
0001
0010
0100
0000
,  // measure 27
0010
0001
0100
0010
1000
0000
1001
0000
,  // measure 28
0001
0000
1000
0010
1000
0000
0001
0000
,  // measure 29
1000
0000
0001
0010
0001
0000
1000
0000
,  // measure 30
0001
0100
0001
0000
0100
0000
0010
0000
,  // measure 31
1000
0010
1000
0000
0001
0000
0100
0000
,  // measure 32
0010
1000
0010
0000
0100
0000
0001
0000
,  // measure 33
1000
0100
1000
0000
0100
0000
1000
0000
,  // measure 34
0001
0100
0001
0000
0010
0000
0001
0000
,  // measure 35
1000
0001
0000
0000
0100
0000
1001
0000
,  // measure 36
0110
0000
0000
0000
,  // measure 37
0011
1010
0011
0000
,  // measure 38
1000
0000
0001
0000
0100
0000
0010
1000
,  // measure 39
0100
0000
0000
0000
0000
0000
1000
0001
,  // measure 40
0100
0001
0010
0100
,  // measure 41
0010
0000
0000
0000
0000
0000
0100
1000
,  // measure 42
0001
0100
0001
0010
,  // measure 43
0001
0000
0000
0000
0000
0000
1000
0001
,  // measure 44
0010
0001
1000
0100
,  // measure 45
1000
0000
0000
0000
0000
0000
0100
1000
,  // measure 46
0010
0000
0100
0000
0001
0000
0000
1000
,  // measure 47
0001
0000
1001
0110
,  // measure 48
1001
0100
0010
1000
,  // measure 49
0001
0000
0000
0000
0000
0000
0010
0001
,  // measure 50
0100
0001
1000
0100
,  // measure 51
0010
0000
0000
0000
0000
0000
0100
0010
,  // measure 52
0001
0100
0001
1000
,  // measure 53
0100
0000
0000
0000
0000
0000
0010
0100
,  // measure 54
1000
0000
0010
0000
0100
0000
0000
0001
,  // measure 55
1000
0100
0010
0001
,  // measure 56
1000
0000
0010
0000
0100
0001
0010
0000
,  // measure 57
0100
0000
0010
0000
0001
0100
0010
0000
,  // measure 58
0100
0000
0010
0000
1000
0010
0100
0000
,  // measure 59
0010
0000
1000
0000
0001
0010
0100
0000
,  // measure 60
0010
0000
0001
0000
1000
0001
0100
0000
,  // measure 61
0001
0000
1000
0000
0010
1000
0100
0000
,  // measure 62
0010
0000
0100
0000
0010
0001
0100
0000
,  // measure 63
0010
0100
1000
0001
0010
0000
1010
0000
,  // measure 64
1000
0010
1000
0000
0001
0000
0010
0000
,  // measure 65
0100
0010
0100
0000
0010
0000
0001
0000
,  // measure 66
1000
0001
1000
0000
0001
0000
0100
0000
,  // measure 67
0010
1000
0100
0000
0010
0000
0100
0000
,  // measure 68
1000
0100
0010
0001
1000
0000
0001
0000
,  // measure 69
1000
0100
0010
0001
0100
0000
0010
0000
,  // measure 70
1000
0010
0100
0001
0010
0000
0100
0010
,  // measure 71
0001
1000
0000
0000
0010
0000
1001
0000
;

//---------------dance-single - ----------------
#NOTEDATA:;
#CHARTNAME:;
#STEPSTYPE:dance-single;
#DESCRIPTION:;
#CHARTSTYLE:;
#DIFFICULTY:Easy;
#METER:35;
#RADARVALUES:0.262844,0.353122,0.143861,0.000000,0.000000,243.000000,224.000000,19.000000,0.000000,0.000000,0.000000,0.000000,0.000000,0.000000,0.262844,0.353122,0.143861,0.000000,0.000000,243.000000,224.000000,19.000000,0.000000,0.000000,0.000000,0.000000,0.000000,0.000000;
#CREDIT:;
#NOTES:
// measure 0
0000
0000
0000
0000
,  // measure 1
0000
0000
0000
0000
,  // measure 2
0000
0000
0000
0000
,  // measure 3
0000
0000
0000
1000
,  // measure 4
0001
0010
0001
1000
,  // measure 5
0001
0000
0000
1000
,  // measure 6
0010
1000
0001
0010
,  // measure 7
0001
0000
0000
0100
,  // measure 8
0010
1000
0100
1000
,  // measure 9
0001
0000
0000
0010
,  // measure 10
0001
0100
0010
0000
,  // measure 11
1000
0000
1001
0110
,  // measure 12
1001
0001
0010
0001
,  // measure 13
1000
0000
0000
0010
,  // measure 14
1000
0100
1000
0001
,  // measure 15
0010
0000
0000
0100
,  // measure 16
0010
0001
1000
0010
,  // measure 17
0100
0000
0000
0010
,  // measure 18
1000
0001
0010
0001
,  // measure 19
1000
0100
0010
0011
,  // measure 20
1100
0100
0100
0100
,  // measure 21
1000
0001
1000
0001
,  // measure 22
0100
0100
0100
0100
,  // measure 23
0010
0100
0010
0100
,  // measure 24
0001
0001
0001
0001
,  // measure 25
1000
0001
1000
0001
,  // measure 26
0100
0100
0100
0100
,  // measure 27
0010
1000
0001
1001
,  // measure 28
1000
0001
0010
0000
,  // measure 29
0001
1000
0010
0000
,  // measure 30
1000
0001
0100
0010
,  // measure 31
0100
0001
1000
0000
,  // measure 32
0001
1000
0100
0000
,  // measure 33
1000
0001
0100
0000
,  // measure 34
0001
1000
0010
1000
,  // measure 35
0100
0000
0000
1001
,  // measure 36
0110
0000
0000
0000
,  // measure 37
1000
1000
1000
0000
,  // measure 38
0001
0000
1000
0000
,  // measure 39
0010
0000
0000
0100
,  // measure 40
0010
1000
0001
0010
,  // measure 41
0001
0000
0000
1000
,  // measure 42
0001
0100
0001
0010
,  // measure 43
0100
0000
0000
0010
,  // measure 44
0001
1000
0010
0100
,  // measure 45
0010
0000
0000
0100
,  // measure 46
0001
1000
0100
0000
,  // measure 47
1000
0000
1001
0110
,  // measure 48
1001
0001
0010
0001
,  // measure 49
1000
0000
0000
0010
,  // measure 50
0100
0001
1000
0100
,  // measure 51
0010
0000
0000
0100
,  // measure 52
1000
0010
0100
0001
,  // measure 53
1000
0000
0000
0001
,  // measure 54
1000
0010
0100
0000
,  // measure 55
1001
0110
1001
0110
,  // measure 56
0001
0001
0001
0001
,  // measure 57
0100
0010
0100
0010
,  // measure 58
1000
1000
1000
1000
,  // measure 59
0100
0010
0100
0010
,  // measure 60
0100
0100
0100
0100
,  // measure 61
0010
0001
1000
0001
,  // measure 62
0010
0010
0010
0010
,  // measure 63
0001
1000
1001
0110
,  // measure 64
1001
0001
0100
0000
,  // measure 65
0010
1000
0100
0000
,  // measure 66
0010
0100
1000
0001
,  // measure 67
0100
0010
0100
0001
,  // measure 68
1000
0001
0010
0000
,  // measure 69
0100
0010
0001
0000
,  // measure 70
1000
0001
0100
0010
,  // measure 71
1000
0000
0010
1001
;

//---------------dance-single - ----------------
#NOTEDATA:;
#CHARTNAME:;
#STEPSTYPE:dance-single;
#DESCRIPTION:;
#CHARTSTYLE:;
#DIFFICULTY:Beginner;
#METER:10;
#RADARVALUES:0.076798,0.162979,0.075716,0.000000,0.000000,71.000000,61.000000,10.000000,0.000000,0.000000,0.000000,0.000000,0.000000,0.000000,0.076798,0.162979,0.075716,0.000000,0.000000,71.000000,61.000000,10.000000,0.000000,0.000000,0.000000,0.000000,0.000000,0.000000;
#CREDIT:;
#NOTES:
// measure 0
0000
0000
0000
0000
,  // measure 1
0000
0000
0000
0000
,  // measure 2
0000
0000
0000
0000
,  // measure 3
0000
0000
0000
0000
,  // measure 4
0010
0000
0000
0000
,  // measure 5
0000
0000
0000
0000
,  // measure 6
1000
0000
0000
0000
,  // measure 7
0000
0000
0000
0000
,  // measure 8
0001
0000
0000
0000
,  // measure 9
0000
0000
0000
0000
,  // measure 10
1000
0000
0000
0000
,  // measure 11
0010
0000
0000
0000
,  // measure 12
0100
0000
0000
0000
,  // measure 13
0000
0000
0000
0000
,  // measure 14
0010
0000
0000
0000
,  // measure 15
0000
0000
0000
0000
,  // measure 16
1000
0000
0000
0000
,  // measure 17
0000
0000
0000
0000
,  // measure 18
0001
0000
0000
0000
,  // measure 19
1000
0000
0001
0000
,  // measure 20
0110
0000
0000
0000
,  // measure 21
0010
0000
0000
0000
,  // measure 22
0110
0000
0000
0000
,  // measure 23
0100
0000
0000
0000
,  // measure 24
1001
0000
0000
0000
,  // measure 25
1000
0000
0000
0000
,  // measure 26
1001
0000
0000
0000
,  // measure 27
0001
0000
0000
0000
,  // measure 28
0100
0000
0000
0000
,  // measure 29
0100
0000
0000
0000
,  // measure 30
0100
0000
0000
0000
,  // measure 31
0001
0000
0000
0000
,  // measure 32
0010
0000
0000
0000
,  // measure 33
0010
0000
0000
0000
,  // measure 34
0010
0000
0000
0000
,  // measure 35
0100
0000
0000
0000
,  // measure 36
1001
0000
0000
0000
,  // measure 37
0010
0010
0010
0000
,  // measure 38
0100
0000
0000
0000
,  // measure 39
0000
0000
0000
0000
,  // measure 40
1000
0000
0000
0000
,  // measure 41
0000
0000
0000
0000
,  // measure 42
0001
0000
0000
0000
,  // measure 43
0000
0000
0000
0000
,  // measure 44
0010
0000
0000
0000
,  // measure 45
0000
0000
0000
0000
,  // measure 46
0100
0000
0000
0000
,  // measure 47
0000
0000
0001
0000
,  // measure 48
1000
0000
0000
0000
,  // measure 49
0000
0000
0000
0000
,  // measure 50
0010
0000
0000
0000
,  // measure 51
0000
0000
0000
0000
,  // measure 52
0100
0000
0000
0000
,  // measure 53
0000
0000
0000
0000
,  // measure 54
0001
0000
0000
0000
,  // measure 55
1000
0000
0000
0000
,  // measure 56
1001
0000
0000
0000
,  // measure 57
1000
0000
0000
0000
,  // measure 58
1001
0000
0000
0000
,  // measure 59
0001
0000
0000
0000
,  // measure 60
0110
0000
0000
0000
,  // measure 61
0100
0000
0000
0000
,  // measure 62
0110
0000
0000
0000
,  // measure 63
0010
0000
0010
0000
,  // measure 64
1000
0000
0000
0000
,  // measure 65
0001
0000
0000
0000
,  // measure 66
0100
0000
0000
0000
,  // measure 67
0010
0000
0000
0000
,  // measure 68
1000
0000
0000
0000
,  // measure 69
0001
0000
0000
0000
,  // measure 70
0010
0000
0000
0000
,  // measure 71
0001
0000
1000
1001
;
