#VERSION:0.83;
#TITLE:焔極OVERKILL;
#SUBTITLE:;
#ARTIST:RoughSketch Vs. L.E.D.-G;
#TITLETRANSLIT:ENGOKU OVERKILL;
#SUBTITLETRANSLIT:;
#ARTISTTRANSLIT:;
#GENRE:;
#ORIGIN:;
#CREDIT:;
#BANNER:ENGOKU OVERKILL.png;
#BACKGROUND:ENGOKU OVERKILL-bg.png;
#PREVIEWVID:;
#JACKET:ENGOKU OVERKILL-jacket.png;
#CDIMAGE:;
#DISCIMAGE:;
#LYRICSPATH:;
#CDTITLE:;
#MUSIC:ENGOKU OVERKILL.ogg;
#OFFSET:0.000000;
#SAMPLESTART:27.520000;
#SAMPLELENGTH:11.250500;
#SELECTABLE:YES;
#BPMS:0.000=192.000,
84.000=384.000,
92.000=192.000,
285.000=384.000,
293.000=192.000;
#STOPS:92.000=0.938,
293.000=0.938;
#DELAYS:;
#WARPS:;
#TIMESIGNATURES:0.000=4=4;
#TICKCOUNTS:0.000=4;
#COMBOS:0.000=1;
#SPEEDS:0.000=1.000=0.000=0;
#SCROLLS:0.000=1.000;
#FAKES:;
#LABELS:0.000=Song Start;
#BGCHANGES:;
#KEYSOUNDS:;
#ATTACKS:
;

//---------------dance-single - ----------------
#NOTEDATA:;
#CHARTNAME:;
#STEPSTYPE:dance-single;
#DESCRIPTION:;
#CHARTSTYLE:;
#DIFFICULTY:Challenge;
#METER:100;
#RADARVALUES:0.641338,1.115437,0.299817,0.149908,0.256422,569.000000,531.000000,38.000000,19.000000,0.000000,0.000000,0.000000,0.000000,0.000000,0.641338,1.115437,0.299817,0.149908,0.256422,569.000000,531.000000,38.000000,19.000000,0.000000,0.000000,0.000000,0.000000,0.000000;
#CREDIT:;
#NOTES:
// measure 0
0000
0000
0000
0000
,  // measure 1
0000
0000
0000
0000
,  // measure 2
0000
0000
0000
0000
,  // measure 3
0000
0000
0000
0000
,  // measure 4
0000
0000
0000
0000
,  // measure 5
0000
0000
1000
0000
0001
0010
0001
0100
,  // measure 6
0000
0001
0000
0000
0000
0000
2000
3000
,  // measure 7
0000
0000
0001
0000
1000
0100
1000
0010
,  // measure 8
0000
0100
0000
0010
0000
0100
0001
0000
,  // measure 9
0000
0000
1000
0000
0001
0100
0001
0010
,  // measure 10
0000
0001
0000
0000
0000
0000
0200
0300
,  // measure 11
0020
0030
1000
0000
0010
0100
0010
1000
,  // measure 12
0000
0001
0000
1000
0000
1000
0100
1000
,  // measure 13
0100
0000
0100
0000
0010
0000
0001
1000
,  // measure 14
0000
0001
0100
0000
0010
0000
0100
0100
,  // measure 15
0001
0001
0001
0100
,  // measure 16
0001
1000
0001
0000
0001
1000
0001
0000
,  // measure 17
1000
0000
0000
0010
0000
0000
0100
0000
0001
0000
0000
0010
0000
0000
0100
0000
,  // measure 18
0010
0000
0000
0001
0000
0000
1000
0000
0010
0000
0000
0100
0000
0000
0001
0000
,  // measure 19
0100
0010
0100
0000
0010
0000
1000
0001
1000
0000
0001
0000
0010
0000
0100
0000
,  // measure 20
1000
0001
1000
0001
1000
0001
1000
0001
,  // measure 21
0020
0000
0000
0000
,  // measure 22
0000
0000
0000
0000
,  // measure 23
0030
0000
1001
0000
0011
0000
0001
0100
,  // measure 24
0001
0000
0010
0000
0000
0000
0100
0000
0010
0000
0000
0000
0100
0000
0000
1000
,  // measure 25
0000
0010
0100
0000
0101
0000
0001
0010
,  // measure 26
0001
0000
1000
0000
0000
0000
0010
0000
0000
0000
1000
0000
0100
0000
0000
0010
,  // measure 27
0000
0001
1000
0001
1001
0000
0010
0001
,  // measure 28
1000
0000
0100
0000
0000
0000
1000
0000
0000
0000
0010
0000
0100
0000
0000
0001
,  // measure 29
0000
0000
0010
0000
0001
1000
0001
0000
0100
0000
0000
0000
0010
0000
0100
0000
,  // measure 30
0010
0000
1000
0000
0001
0000
0010
0000
0001
0000
1000
0000
0010
0000
0000
0100
,  // measure 31
0000
0010
1000
0000
0011
0000
0010
0001
,  // measure 32
1000
0000
0010
0000
0000
0000
0100
0000
0001
0000
0000
0000
0010
0000
0000
0100
,  // measure 33
0000
0010
0001
0000
1010
0000
1000
0001
,  // measure 34
0010
0000
0100
0000
0000
0000
0010
0000
0000
0000
0100
0000
0010
0000
0000
0001
,  // measure 35
0000
1000
0010
0000
1001
0000
1000
0100
,  // measure 36
1000
0000
0001
0000
0000
0000
0100
0000
0010
0000
0000
0000
0100
0000
0000
0010
,  // measure 37
0000
0000
1000
0000
0100
0000
1000
0000
0010
0000
0100
0000
0001
0010
0001
0010
,  // measure 38
0001
1000
0020
0000
0000
0000
0000
0000
,  // measure 39
0030
0101
0101
0101
,  // measure 40
1000
0010
0000
1000
0001
0000
1001
0000
,  // measure 41
0001
1000
1100
0000
1100
0000
1100
0000
,  // measure 42
0011
0000
0001
0100
1001
0000
0001
0100
,  // measure 43
1001
1010
1010
1010
,  // measure 44
1000
0001
0000
0010
0100
0000
1001
0000
,  // measure 45
0001
0100
0001
0000
0010
0000
0002
0000
0103
0000
0020
0000
1030
0000
0100
0000
,  // measure 46
0010
0100
0010
0100
0010
0000
0001
0000
0100
0000
0000
0000
0010
0000
1000
0000
,  // measure 47
0100
0000
1001
1000
1000
0001
0001
1000
,  // measure 48
1000
0001
0010
0100
0010
0000
1001
0000
,  // measure 49
0001
0000
1010
0000
1010
0000
1000
0010
,  // measure 50
0100
0001
0100
0000
0001
0000
0010
0100
0000
0100
1000
0000
0001
0000
1000
0010
,  // measure 51
0000
0010
0100
0000
0001
1000
0001
0000
1000
0000
0000
0000
0010
0000
0100
0000
,  // measure 52
0010
0100
0010
1000
0001
0000
0010
0000
,  // measure 53
0100
0000
0000
0000
0010
0000
0001
0000
1000
0000
0010
0000
0100
0010
0100
0010
,  // measure 54
0100
0001
1000
0010
0200
0000
0000
0000
0000
0000
0000
0000
0000
0000
0000
0000
,  // measure 55
0000
0301
0000
0000
,  // measure 56
0000
0001
0000
0000
,  // measure 57
0000
1000
0000
0000
,  // measure 58
0000
0001
0000
0000
,  // measure 59
0000
2000
0001
0001
,  // measure 60
0001
0010
0010
0010
,  // measure 61
3010
1000
0010
0100
,  // measure 62
0001
0000
0000
0000
1000
0100
0001
0000
,  // measure 63
1001
0000
0100
0000
1100
0000
1000
0010
,  // measure 64
0100
0000
0001
0000
0011
0000
0010
0001
,  // measure 65
1000
0000
0001
0000
0101
0000
0010
1000
,  // measure 66
0100
0000
0010
0000
1001
0000
0010
1000
,  // measure 67
0001
0000
0100
0000
0101
0000
0001
1000
,  // measure 68
0010
0000
1000
0000
1010
0000
0001
1000
,  // measure 69
0010
0000
1000
0100
0020
0000
0000
0230
,  // measure 70
0000
0000
0000
0000
1300
0000
0000
0001
0000
0000
1000
0000
0000
0001
0000
0000
,  // measure 71
1000
0220
0000
0000
,  // measure 72
0000
0000
0000
0000
,  // measure 73
0000
0000
0330
0000
1000
0000
0001
0010
,  // measure 74
0000
0001
0100
0010
1000
0000
0010
0100
,  // measure 75
0000
0010
0100
0001
1000
0000
0100
1000
,  // measure 76
0000
0010
0100
0001
0010
0000
0100
0010
,  // measure 77
0000
0100
0020
0032
1003
0000
0010
0100
,  // measure 78
0000
0010
1000
0001
0010
0000
0100
0010
,  // measure 79
0000
0100
1000
0010
0100
0000
0001
0100
,  // measure 80
0000
0000
0010
0000
1000
0000
0000
0000
0100
0000
0010
0001
0000
0001
0100
0000
,  // measure 81
0010
1000
0000
1000
0001
0000
0000
0000
2010
0000
0000
0000
0000
0000
0000
0000
,  // measure 82
3100
0010
0001
0000
1000
0000
0001
0100
0010
0000
0100
0000
0001
0000
1000
0000
,  // measure 83
0100
0000
0010
0000
0100
0010
0001
1000
0010
0000
0000
0000
1000
0000
0010
0000
,  // measure 84
0000
0010
0001
0010
1000
0100
0010
0001
,  // measure 85
1000
0001
0000
0000
0102
0000
0010
0010
,  // measure 86
0000
1003
1001
0000
2010
0000
0100
0100
,  // measure 87
0000
3001
1001
0000
1000
0010
0100
0001
,  // measure 88
1000
0001
1000
0001
1000
0001
1000
0001
0100
0000
0000
0000
0000
0000
0000
0000
,  // measure 89
0020
0000
0000
0000
1030
0100
0010
0001
,  // measure 90
1000
0100
0010
0001
1000
0100
0010
0001
,  // measure 91
1000
0100
0001
0100
1000
0001
0010
0100
,  // measure 92
1000
0001
0010
0100
0010
0001
0010
0100
,  // measure 93
1000
0000
0100
0000
0001
0000
0100
0000
0010
0001
0010
0000
0001
0100
0001
0000
,  // measure 94
0100
0010
0100
0000
0010
1000
0010
0000
1000
0001
1000
0000
0010
0100
0010
0000
,  // measure 95
1000
0010
0100
0001
0100
0010
1000
0001
0010
0001
0010
0000
0001
0100
0001
0000
,  // measure 96
0100
0010
0100
0000
0010
1000
0010
0000
1000
0001
1000
0001
1000
0001
1000
0001
,  // measure 97
1000
0010
0100
0001
1000
0010
0100
1000
0100
0000
0000
0000
0000
0000
0000
0000
;

//---------------dance-single - ----------------
#NOTEDATA:;
#CHARTNAME:;
#STEPSTYPE:dance-single;
#DESCRIPTION:;
#CHARTSTYLE:;
#DIFFICULTY:Hard;
#METER:100;
#RADARVALUES:0.680787,0.846194,0.402386,0.173578,0.280092,604.000000,553.000000,51.000000,22.000000,0.000000,0.000000,0.000000,0.000000,0.000000,0.680787,0.846194,0.402386,0.173578,0.280092,604.000000,553.000000,51.000000,22.000000,0.000000,0.000000,0.000000,0.000000,0.000000;
#CREDIT:;
#NOTES:
// measure 0
0000
0000
0000
0000
,  // measure 1
0000
0000
0000
0000
,  // measure 2
0000
0000
0000
0000
,  // measure 3
0000
0000
0000
0000
,  // measure 4
0000
0000
0000
0000
,  // measure 5
1001
0000
0000
0000
0010
0000
0000
0000
0010
0000
1000
0100
1000
0000
0001
0000
,  // measure 6
0000
1001
0000
0000
0000
0100
0020
0000
,  // measure 7
1030
0000
0000
0000
0001
0000
0000
0000
1000
0000
0001
0010
0001
0000
1000
0000
,  // measure 8
0000
1010
0000
0001
0000
0001
0200
0000
,  // measure 9
0301
0000
0000
0000
1000
0000
0000
0000
0001
0000
1000
0100
1000
0000
0010
0000
,  // measure 10
0000
0110
0000
0000
0000
0100
0020
0000
,  // measure 11
1030
0000
0000
0000
0001
0000
0000
0000
0010
0000
0001
0100
0001
0000
1000
0000
,  // measure 12
0000
1100
0000
0001
0000
0010
0002
0000
,  // measure 13
1003
0000
1010
0000
0010
1000
0100
1000
,  // measure 14
0010
0100
0001
0000
0010
0001
0100
0001
,  // measure 15
0010
0100
1000
0000
0010
1000
0100
1000
,  // measure 16
0010
0100
0001
0000
0100
0001
1000
0001
,  // measure 17
0010
0000
0000
0010
0001
0000
1000
0000
0010
0000
0000
0010
1000
0000
0001
0000
,  // measure 18
0100
0000
0000
0100
0001
0000
0100
0000
0001
0000
0000
0001
1000
0000
0001
0000
,  // measure 19
1000
1000
0100
0100
0010
0010
0001
0001
,  // measure 20
1000
0000
0010
1000
0010
0000
1000
0000
0001
0000
0001
0000
1000
0000
1000
0000
,  // measure 21
2002
0000
0000
0000
,  // measure 22
0000
0000
0000
0000
,  // measure 23
3003
0000
0000
0000
0110
0000
0000
0000
1010
0000
0000
0000
1000
0000
0000
1000
,  // measure 24
0001
0000
1000
0000
0100
0000
0010
0000
0010
0000
0000
0000
0001
0000
0000
0001
,  // measure 25
0100
0000
0001
0000
1000
0000
0000
0000
1010
0000
0000
0000
1000
0000
0000
1000
,  // measure 26
0100
0000
1000
0000
0001
0000
0001
0000
0010
0000
0100
0000
0010
0000
0000
0001
,  // measure 27
1000
0000
0001
0000
1000
0000
0000
0000
1001
0000
0000
0000
0011
0000
0000
0001
,  // measure 28
0010
0000
0100
0000
0010
0000
0010
0000
0010
0000
0000
0001
1000
0000
0010
0000
,  // measure 29
1000
0000
0100
0000
0010
0000
0100
0000
0100
0000
0000
0000
1000
0000
0000
1000
,  // measure 30
0010
0000
1000
0000
0001
0000
0100
0000
1000
0000
0100
0000
0001
0000
0000
1000
,  // measure 31
0000
0000
0001
0000
1001
0000
0000
0000
0110
0000
0000
0000
1010
0000
0000
0010
,  // measure 32
1000
0000
0100
0000
1000
0000
0000
1000
0001
0000
0100
0000
0010
0000
0100
0000
,  // measure 33
0001
0000
1000
0000
0001
0000
0000
0000
0011
0000
0000
0000
1001
0000
0000
0001
,  // measure 34
0100
0001
1000
0100
0001
0100
1000
0010
,  // measure 35
0001
0000
0010
0000
2000
0000
0000
0000
3001
0000
0000
0000
1100
0000
0000
0100
,  // measure 36
0010
0001
0010
0100
0100
0000
1000
0000
,  // measure 37
0010
0000
1000
0000
0001
0000
0001
0000
1000
0000
1000
0000
0010
0000
0100
0010
,  // measure 38
0100
0000
0010
0100
0020
0000
0000
0000
0000
0000
0000
0000
1030
0001
1000
0001
,  // measure 39
1000
0000
0000
0000
1100
0000
0000
0100
1000
0000
0100
0000
0010
0000
0000
0001
,  // measure 40
0100
0000
0000
0001
1000
0000
0001
0000
1000
0000
0100
0000
0001
0000
0100
0000
,  // measure 41
1000
0000
0001
0000
1000
0000
0000
0001
0100
0000
0000
0001
0010
0000
0001
0000
,  // measure 42
0100
0000
0010
0000
0010
0000
1000
0000
0001
0000
0000
0000
1000
0001
1000
0001
,  // measure 43
1000
0000
0000
0000
0011
0000
0000
0001
0010
0000
0000
0100
0010
0000
0001
0000
,  // measure 44
1000
0100
0100
0000
1100
0000
0100
1000
,  // measure 45
0010
1000
0001
0010
1000
0010
0001
0100
,  // measure 46
1000
0100
0002
0000
0100
0000
0103
0000
,  // measure 47
0110
0000
0010
0010
1000
1000
0001
0001
,  // measure 48
0010
0010
0100
0000
1100
0000
0011
0000
,  // measure 49
1001
0000
0000
0000
1010
0000
0000
0010
1000
0000
0000
0001
1000
0000
0100
0000
,  // measure 50
0010
0100
0010
0100
0010
0000
0000
1001
0000
0000
0100
0000
0000
1001
0000
0000
,  // measure 51
0010
0000
1000
0000
0001
0000
1000
0001
1000
0000
0000
0000
0001
0000
0000
0000
,  // measure 52
0101
0000
1000
0000
1010
0000
0001
0010
,  // measure 53
0100
0000
0000
0000
1000
0000
1000
0000
0001
0000
0001
0000
0100
0000
0010
0100
,  // measure 54
0010
0000
1000
0001
2000
0000
0000
0000
0000
0000
0000
0000
0000
0000
0000
0000
,  // measure 55
3001
0020
0000
0000
,  // measure 56
0000
0031
0000
0000
,  // measure 57
0000
0200
0000
0000
,  // measure 58
0000
1300
0000
0000
,  // measure 59
0000
0002
1000
1000
,  // measure 60
1000
0010
0100
0100
,  // measure 61
0103
0010
0100
1001
,  // measure 62
0110
0000
0000
0000
2001
0000
0000
0000
0000
0000
0000
0000
0000
0000
3001
1000
,  // measure 63
0001
0000
0000
0000
1000
0000
0000
0000
0100
0000
0000
0010
0001
0000
1000
0000
,  // measure 64
0001
0000
0100
0100
0010
0000
1000
0001
,  // measure 65
0100
0000
0000
0000
0001
0000
0000
0000
0100
0000
0000
0010
1000
0000
0001
0000
,  // measure 66
1000
0000
0100
0010
0100
1000
0001
0100
,  // measure 67
0010
0000
0000
0000
1000
0000
0000
0000
0100
0000
0000
0010
0100
0000
1000
0000
,  // measure 68
0010
0000
0100
0001
1000
0010
0100
0001
,  // measure 69
1000
0000
0000
0000
0001
0000
0010
0000
0200
0000
0000
0010
0000
0000
0001
0000
,  // measure 70
0000
1300
0000
0000
1001
0000
0000
0110
0000
0000
1000
0000
0000
0010
0000
0000
,  // measure 71
0100
0001
2000
0000
0000
0000
0000
0000
,  // measure 72
0000
0000
0000
0000
,  // measure 73
0000
0000
3001
0010
0001
0000
0100
0001
,  // measure 74
0000
1000
0010
0100
0010
0000
1000
0100
,  // measure 75
0000
1000
0010
0100
0001
0000
0010
0100
,  // measure 76
0000
0010
0001
1000
0100
0000
1000
0001
,  // measure 77
0000
0100
0010
0000
1001
0000
0001
0010
,  // measure 78
0100
0000
0000
0100
1000
0000
0001
0000
0100
0000
0000
0000
0010
0000
0100
0000
,  // measure 79
0001
0000
0000
0001
0010
0000
0100
0000
1000
0000
0000
0000
0100
0000
0000
0000
,  // measure 80
0010
0000
0000
0000
0001
0000
0000
0000
0100
0000
0000
0110
0000
0000
1001
0000
,  // measure 81
0000
1010
0000
0000
0001
0000
0010
0000
0200
0000
0000
0000
0000
0000
0000
0000
,  // measure 82
0310
0001
0010
0000
0001
0000
1000
0000
0100
0000
0100
0000
1000
0000
0001
0000
,  // measure 83
0000
1000
0010
0100
0010
0000
0010
1000
,  // measure 84
0000
1000
0001
1000
0010
0000
0110
0000
,  // measure 85
1001
0100
1000
0000
0011
0000
1001
2010
,  // measure 86
0000
3001
0100
0000
1010
0000
1001
0012
,  // measure 87
0000
1003
0100
0000
0010
0010
0100
0100
,  // measure 88
1000
0000
0001
1000
0001
0000
1000
0001
0020
0000
0000
0000
0000
0000
0000
0000
,  // measure 89
0200
0000
0330
0000
0010
0010
0001
0000
,  // measure 90
1000
0100
0000
1000
0010
0000
0000
0000
1000
0000
0001
0000
0100
0000
0010
0000
,  // measure 91
1000
0010
0000
0010
1000
0000
0001
0000
0010
0000
0100
0000
1000
0000
0000
0100
,  // measure 92
0010
0100
1001
0000
0100
0010
0100
0001
,  // measure 93
1000
0000
0010
1000
0001
0000
0000
0000
0100
0000
0000
0000
1010
0000
0000
0000
,  // measure 94
0001
0010
0000
0001
1000
0000
0000
0000
0001
0000
1000
0000
0010
0000
0100
0000
,  // measure 95
0001
0010
0000
0010
0001
0000
0110
0000
1000
0000
1000
0000
0100
0000
0100
0010
,  // measure 96
0001
0000
0100
0000
0010
0000
0010
0000
1000
0000
0001
1000
0001
0000
0100
0010
,  // measure 97
2000
3010
0110
0000
;

//---------------dance-single - ----------------
#NOTEDATA:;
#CHARTNAME:;
#STEPSTYPE:dance-single;
#DESCRIPTION:;
#CHARTSTYLE:;
#DIFFICULTY:Easy;
#METER:55;
#RADARVALUES:0.330249,0.500024,0.157798,0.142019,0.000000,293.000000,273.000000,20.000000,18.000000,0.000000,0.000000,0.000000,0.000000,0.000000,0.330249,0.500024,0.157798,0.142019,0.000000,293.000000,273.000000,20.000000,18.000000,0.000000,0.000000,0.000000,0.000000,0.000000;
#CREDIT:;
#NOTES:
// measure 0
0000
0000
0000
0000
,  // measure 1
0000
0000
0000
0000
,  // measure 2
0000
0000
0000
0000
,  // measure 3
0000
0000
0000
0000
,  // measure 4
0000
0000
0000
0000
,  // measure 5
0001
0001
0001
0000
,  // measure 6
0020
0030
0000
0000
,  // measure 7
1000
1000
1000
0000
,  // measure 8
0020
0030
0000
0000
,  // measure 9
0100
0100
0010
0000
,  // measure 10
0200
0300
0000
0000
,  // measure 11
0001
1000
0100
0000
,  // measure 12
2000
3000
0000
0000
,  // measure 13
0001
0100
0010
1000
,  // measure 14
0001
0100
0010
1000
,  // measure 15
0001
0010
0100
1000
,  // measure 16
0001
0010
0100
1000
,  // measure 17
0001
1001
1000
1001
,  // measure 18
0010
0110
0100
0110
,  // measure 19
0100
0010
1000
0001
,  // measure 20
0100
0100
0010
0010
,  // measure 21
2002
0000
0000
0000
,  // measure 22
0000
0000
0000
0000
,  // measure 23
3003
0010
1000
0001
,  // measure 24
0001
1000
0000
0100
,  // measure 25
0010
0100
0100
1000
,  // measure 26
0001
0100
0000
0010
,  // measure 27
0010
1000
0001
0010
,  // measure 28
0010
0001
0000
0001
,  // measure 29
0100
0010
1000
0100
,  // measure 30
1000
0001
0000
1000
,  // measure 31
0010
0110
0100
0001
,  // measure 32
0001
1000
0000
0100
,  // measure 33
0010
0100
0100
1000
,  // measure 34
1000
0001
0000
0100
,  // measure 35
0010
0200
0010
0010
,  // measure 36
0010
1300
0000
0001
,  // measure 37
0100
0001
0001
1000
,  // measure 38
0001
2002
0000
0000
,  // measure 39
3003
1000
1000
0010
,  // measure 40
1000
1000
0010
1000
,  // measure 41
0100
1000
1000
0010
,  // measure 42
1000
0001
0000
1001
,  // measure 43
0000
0001
0001
0010
,  // measure 44
0001
0001
0010
0001
,  // measure 45
0100
0001
0010
0100
,  // measure 46
1000
0100
0100
0010
,  // measure 47
0100
1000
1001
1001
,  // measure 48
1001
1001
0000
0001
,  // measure 49
0000
1000
0010
0100
,  // measure 50
0001
1000
0000
1001
,  // measure 51
0000
0100
0110
0000
,  // measure 52
0100
0001
1000
0001
,  // measure 53
0010
0100
0100
0010
,  // measure 54
0010
0002
0000
0000
,  // measure 55
1003
0020
0000
0000
,  // measure 56
0000
0030
0000
0000
,  // measure 57
0000
0200
0000
0000
,  // measure 58
0000
0300
0000
0000
,  // measure 59
0000
2002
0000
0000
,  // measure 60
0000
0000
0000
0000
,  // measure 61
0000
0000
0000
0000
,  // measure 62
0000
3003
0000
0000
,  // measure 63
0000
1000
0000
0001
,  // measure 64
0000
1000
0001
1000
,  // measure 65
0000
0001
0000
1000
,  // measure 66
0000
0001
1000
0001
,  // measure 67
0000
0110
0000
0100
,  // measure 68
0000
0010
0100
0010
,  // measure 69
0000
1000
0000
0001
,  // measure 70
0000
1000
0100
0010
,  // measure 71
0001
0200
0000
0000
,  // measure 72
0000
0000
0000
0000
,  // measure 73
0000
0300
0010
0010
,  // measure 74
0010
1000
0001
0001
,  // measure 75
0001
0010
0100
0010
,  // measure 76
0001
1000
0001
0100
,  // measure 77
0010
1000
0001
0001
,  // measure 78
0001
0010
0100
0100
,  // measure 79
0100
0010
0001
1000
,  // measure 80
0100
1000
0010
0100
,  // measure 81
0001
1000
0002
0000
,  // measure 82
1000
1003
0100
0010
,  // measure 83
0100
0001
1000
0010
,  // measure 84
0001
0010
1000
0001
,  // measure 85
1001
0000
0001
1000
,  // measure 86
0110
0000
1000
0001
,  // measure 87
0110
0000
0100
0100
,  // measure 88
0010
1000
0002
0000
,  // measure 89
2000
3003
1000
0100
,  // measure 90
0010
0001
1000
0100
,  // measure 91
0010
0001
1000
0010
,  // measure 92
0010
1000
0001
0000
,  // measure 93
0100
0100
0001
0010
,  // measure 94
0100
1000
0001
0010
,  // measure 95
0100
1000
0001
0010
,  // measure 96
1000
0010
0001
0100
,  // measure 97
1000
0100
1001
0000
;

//---------------dance-single - ----------------
#NOTEDATA:;
#CHARTNAME:;
#STEPSTYPE:dance-single;
#DESCRIPTION:;
#CHARTSTYLE:;
#DIFFICULTY:Medium;
#METER:75;
#RADARVALUES:0.458742,0.653877,0.276147,0.134129,0.063119,407.000000,372.000000,35.000000,17.000000,0.000000,0.000000,0.000000,0.000000,0.000000,0.458742,0.653877,0.276147,0.134129,0.063119,407.000000,372.000000,35.000000,17.000000,0.000000,0.000000,0.000000,0.000000,0.000000;
#CREDIT:;
#NOTES:
// measure 0
0000
0000
0000
0000
,  // measure 1
0000
0000
0000
0000
,  // measure 2
0000
0000
0000
0000
,  // measure 3
0000
0000
0000
0000
,  // measure 4
0000
0000
0000
0000
,  // measure 5
1001
0000
0001
0000
0100
0000
0000
0001
,  // measure 6
0000
0001
0000
0000
0000
0000
0200
0000
,  // measure 7
0300
0000
0010
0000
1000
0000
0000
0100
,  // measure 8
0000
1000
0000
0010
0000
0100
0001
0000
,  // measure 9
0000
0000
1000
0000
0001
0000
0000
0100
,  // measure 10
0000
0100
0000
0000
0000
0000
0020
0000
,  // measure 11
2030
0000
3001
0000
0010
0000
0000
0001
,  // measure 12
0000
0001
0000
1000
0000
0001
0100
0000
,  // measure 13
0001
0100
0010
1000
,  // measure 14
0010
0000
0100
0000
1001
0000
0001
0010
,  // measure 15
0001
0100
0010
1000
,  // measure 16
0001
1001
1000
1001
,  // measure 17
0001
0100
0001
0100
,  // measure 18
0001
0100
0001
0100
,  // measure 19
0001
1000
0001
0000
0100
0001
0000
0010
,  // measure 20
0100
0000
1000
0010
0000
0100
0001
0000
,  // measure 21
2200
0000
0000
0000
,  // measure 22
0000
0000
0000
0000
,  // measure 23
3300
0000
1000
0000
0001
0000
0100
0010
,  // measure 24
1000
0001
0000
0010
0001
0000
1000
0000
,  // measure 25
1001
0000
0001
0000
0100
0000
0010
1000
,  // measure 26
0001
0010
0000
0100
0000
0010
0001
0000
,  // measure 27
1000
0000
0001
0000
0101
0000
0001
0100
,  // measure 28
0010
1000
0000
0100
0000
1000
0010
0000
,  // measure 29
1000
0000
0001
0010
0001
0000
0100
0000
,  // measure 30
0010
1000
0000
0001
0010
0100
1000
0000
,  // measure 31
0001
0000
0100
0000
0010
0000
1000
0010
,  // measure 32
0100
0001
0000
0001
0010
0000
0001
0000
,  // measure 33
1000
0000
0001
0000
0100
0000
0010
1000
,  // measure 34
0100
0010
0000
0010
0000
0010
0001
0000
,  // measure 35
1000
0000
0110
1000
,  // measure 36
0001
0010
0000
0001
0000
0100
0010
0000
,  // measure 37
1000
0001
0010
0100
,  // measure 38
0010
0001
0200
0000
0000
0000
0000
0000
,  // measure 39
0300
0010
1000
0010
,  // measure 40
0100
0001
1000
1001
,  // measure 41
0001
0100
0001
0000
0100
0000
0010
0000
,  // measure 42
1000
0001
1001
1000
,  // measure 43
1001
0001
1000
0010
,  // measure 44
0100
0001
0010
1001
,  // measure 45
0001
0100
0010
0000
1000
0000
0001
0000
,  // measure 46
0010
0000
0100
0010
0001
0000
0010
0100
,  // measure 47
1000
0100
1000
0010
,  // measure 48
0100
0001
1000
1001
,  // measure 49
0001
0100
0001
0000
0100
0000
0010
0000
,  // measure 50
1000
0001
1001
1000
,  // measure 51
1001
0001
0100
0010
,  // measure 52
1000
0010
0100
0001
,  // measure 53
1000
0010
0100
0001
,  // measure 54
1000
0001
0020
0000
0000
0000
0000
0000
,  // measure 55
0000
0130
0000
0000
,  // measure 56
0000
0100
0000
0000
,  // measure 57
0000
0010
0000
0000
,  // measure 58
0000
0001
0000
0000
,  // measure 59
0000
2020
0000
0000
,  // measure 60
0000
0000
0000
0000
,  // measure 61
0000
0000
0000
0000
,  // measure 62
0000
3030
0000
0000
,  // measure 63
0000
0001
1001
1000
,  // measure 64
1001
0001
1001
1000
,  // measure 65
1001
0010
0110
0100
,  // measure 66
0110
0010
0110
0100
,  // measure 67
0110
1000
1010
0010
,  // measure 68
0110
0100
0101
0001
,  // measure 69
0011
0000
0010
0000
0200
0000
0000
0320
,  // measure 70
0000
0000
0000
0000
0031
0000
0000
1000
0000
0000
0010
0000
0000
0100
0000
0000
,  // measure 71
0001
0220
0000
0000
,  // measure 72
0000
0000
0000
0000
,  // measure 73
0000
0000
0330
0000
0100
0000
0010
1000
,  // measure 74
0000
0010
0000
0000
0100
0000
0001
0010
,  // measure 75
0000
0100
0000
0000
0010
0000
0001
0100
,  // measure 76
0000
0001
1000
0000
0010
0000
0100
0010
,  // measure 77
0000
1000
0010
0100
0001
0000
1000
0001
,  // measure 78
0000
0010
0000
0100
1000
0000
0001
0100
,  // measure 79
0000
0010
0000
0000
0100
0000
0001
0100
,  // measure 80
0000
0100
0010
0000
1000
0000
0001
0010
,  // measure 81
0000
0100
1000
0000
0002
0000
0000
0000
,  // measure 82
0103
0001
1001
0000
0001
0010
0001
1000
,  // measure 83
0000
0010
1000
0000
0100
0000
1000
0010
,  // measure 84
0000
0100
0001
0010
0100
0000
0010
0000
,  // measure 85
0001
2000
0000
0000
3001
0000
1000
1001
,  // measure 86
0000
0001
1001
0000
0010
0000
0100
0110
,  // measure 87
0000
0010
0110
0000
0100
0000
0001
0100
,  // measure 88
0000
0010
1000
0001
0020
0000
0000
0000
,  // measure 89
0230
0000
1300
0100
,  // measure 90
0010
0001
1000
0100
,  // measure 91
0010
0100
1000
0001
1000
0000
0001
0000
,  // measure 92
0010
0000
0100
0000
0010
0001
0100
0000
,  // measure 93
0010
0000
1000
0000
0100
0000
0000
1000
0100
0000
0000
0100
0010
0000
0000
0010
,  // measure 94
0001
0000
0000
0001
0100
0000
0000
0100
0010
0000
0000
0010
1000
0000
0000
1000
,  // measure 95
0001
0000
0010
0000
0100
0000
1000
0000
0001
0000
0000
0001
0010
0000
0000
0010
,  // measure 96
0100
0000
0000
0100
1000
0000
0000
1000
0010
0000
0000
0010
0100
0000
0000
0100
,  // measure 97
0001
0000
0000
0001
0010
0000
0000
0000
1001
0000
0000
0000
0000
0000
0000
0000
;

//---------------dance-single - ----------------
#NOTEDATA:;
#CHARTNAME:;
#STEPSTYPE:dance-single;
#DESCRIPTION:;
#CHARTSTYLE:;
#DIFFICULTY:Beginner;
#METER:25;
#RADARVALUES:0.136383,0.269244,0.055229,0.000000,0.000000,121.000000,114.000000,7.000000,0.000000,0.000000,0.000000,0.000000,0.000000,0.000000,0.136383,0.269244,0.055229,0.000000,0.000000,121.000000,114.000000,7.000000,0.000000,0.000000,0.000000,0.000000,0.000000,0.000000;
#CREDIT:;
#NOTES:
// measure 0
0000
0000
0000
0000
,  // measure 1
0000
0000
0000
0000
,  // measure 2
0000
0000
0000
0000
,  // measure 3
0000
0000
0000
0000
,  // measure 4
0000
0000
0000
0000
,  // measure 5
1000
0000
0000
0000
,  // measure 6
0000
0000
0000
0000
,  // measure 7
1000
0000
0000
0000
,  // measure 8
0000
0000
0000
0000
,  // measure 9
0001
0000
0000
0000
,  // measure 10
0000
0000
0000
0000
,  // measure 11
0001
0000
0000
0000
,  // measure 12
0000
0000
0000
0000
,  // measure 13
0100
0000
0000
0000
,  // measure 14
0000
0000
0000
0000
,  // measure 15
0010
0000
0000
0000
,  // measure 16
0010
0000
0010
0000
,  // measure 17
0100
0000
0000
0000
,  // measure 18
0100
0000
0000
0000
,  // measure 19
0010
0000
0010
0000
,  // measure 20
0010
0000
0010
0000
,  // measure 21
1001
0000
0000
0000
,  // measure 22
0000
0000
0000
0000
,  // measure 23
0000
1000
0000
1000
,  // measure 24
0000
1000
0000
0000
,  // measure 25
0000
0001
0000
0001
,  // measure 26
0000
0001
0000
0000
,  // measure 27
0000
0100
0000
0100
,  // measure 28
0000
0100
0000
0000
,  // measure 29
0000
0010
0000
0010
,  // measure 30
0000
0010
0000
0000
,  // measure 31
0000
1000
1000
0000
,  // measure 32
0000
0000
0000
0000
,  // measure 33
0000
0001
0001
0000
,  // measure 34
0000
0000
0000
0000
,  // measure 35
0000
0000
1001
0000
,  // measure 36
0000
0000
0000
0010
,  // measure 37
0000
0100
0100
0000
,  // measure 38
0000
0010
0000
0000
,  // measure 39
0000
1000
0000
1000
,  // measure 40
0000
1000
0000
1000
,  // measure 41
0000
0001
0000
0001
,  // measure 42
0000
0100
0100
0100
,  // measure 43
0100
0010
0000
0010
,  // measure 44
0000
0010
0000
1000
,  // measure 45
0000
0001
0001
0001
,  // measure 46
0000
1000
0000
0001
,  // measure 47
0000
0100
0100
0100
,  // measure 48
0100
0100
0000
0010
,  // measure 49
0000
1000
0000
1000
,  // measure 50
0000
0001
0000
0001
,  // measure 51
0000
1000
0000
0000
,  // measure 52
0000
0001
0000
0000
,  // measure 53
0000
0100
0000
0010
,  // measure 54
0000
1000
0000
0000
,  // measure 55
0000
1001
0000
0000
,  // measure 56
0000
0000
0000
0000
,  // measure 57
0000
0000
0000
0000
,  // measure 58
0000
0000
0000
0000
,  // measure 59
0000
0010
0000
0000
,  // measure 60
0000
0000
0000
0000
,  // measure 61
0000
0000
0000
0000
,  // measure 62
0000
0000
0000
0000
,  // measure 63
0000
0100
0000
0000
,  // measure 64
0000
0100
0000
0000
,  // measure 65
0000
0001
0000
0000
,  // measure 66
0000
0001
0000
0000
,  // measure 67
0000
1000
0000
0000
,  // measure 68
0000
1000
0000
0000
,  // measure 69
0000
0010
0000
0000
,  // measure 70
0000
0100
0000
0000
,  // measure 71
0000
1001
0000
0000
,  // measure 72
0000
0000
0000
0000
,  // measure 73
0000
0000
1000
0000
,  // measure 74
0000
0000
0001
0000
,  // measure 75
0000
0000
0100
0000
,  // measure 76
0000
0000
0010
0000
,  // measure 77
1000
0000
0001
0000
,  // measure 78
0000
0000
1000
0000
,  // measure 79
0000
0000
0010
0000
,  // measure 80
1000
0000
0001
0000
,  // measure 81
0000
0000
0100
0000
,  // measure 82
1001
0000
0001
0000
,  // measure 83
0000
0000
1000
0000
,  // measure 84
0000
0000
0010
0000
,  // measure 85
0000
0000
1000
0000
,  // measure 86
0000
0000
1000
0000
,  // measure 87
0000
0000
1000
0000
,  // measure 88
0001
0000
0100
0000
,  // measure 89
0010
0000
1001
0000
,  // measure 90
0000
0000
0000
1000
,  // measure 91
0000
1000
0000
0000
,  // measure 92
0000
0000
0001
0000
,  // measure 93
0001
0000
0100
0000
,  // measure 94
0000
0000
0010
0000
,  // measure 95
1000
0000
0001
0000
,  // measure 96
0000
0000
0100
0000
,  // measure 97
0010
0000
1001
0000
;
