#VERSION:0.83;
#TITLE:Dynamite;
#SUBTITLE:;
#ARTIST:USAO;
#TITLETRANSLIT:;
#SUBTITLETRANSLIT:;
#ARTISTTRANSLIT:;
#GENRE:;
#ORIGIN:;
#CREDIT:;
#BANNER:Dynamite.png;
#BACKGROUND:Dynamite-bg.png;
#PREVIEWVID:;
#JACKET:Dynamite-jacket.png;
#CDIMAGE:;
#DISCIMAGE:;
#LYRICSPATH:;
#CDTITLE:cdtitle.png;
#MUSIC:29.Dynamite.mp3;
#OFFSET:-2.164001;
#SAMPLESTART:21.339001;
#SAMPLELENGTH:14.400002;
#SELECTABLE:YES;
#BPMS:0.000=100.000,
118.000=200.000,
245.000=100.000;
#STOPS:38.750=0.600,
118.000=0.300;
#DELAYS:;
#WARPS:;
#TIMESIGNATURES:0.000=4=4;
#TICKCOUNTS:0.000=4;
#COMBOS:0.000=1;
#SPEEDS:0.000=1.000=0.000=0;
#SCROLLS:0.000=1.000;
#FAKES:;
#LABELS:0.000=Song Start;
#BGCHANGES:;
#KEYSOUNDS:;
#ATTACKS:
;

//---------------dance-single - ----------------
#NOTEDATA:;
#CHARTNAME:;
#STEPSTYPE:dance-single;
#DESCRIPTION:;
#CHARTSTYLE:;
#DIFFICULTY:Hard;
#METER:100;
#RADARVALUES:0.634772,0.656310,0.421694,0.242083,0.737964,569.000000,515.000000,54.000000,31.000000,0.000000,0.000000,0.000000,0.000000,0.000000,0.634772,0.656310,0.421694,0.242083,0.737964,569.000000,515.000000,54.000000,31.000000,0.000000,0.000000,0.000000,0.000000,0.000000;
#CREDIT:;
#OFFSET:-2.164001;
#BPMS:0.000000=100.000000
;
#STOPS:38.750000=0.600000
,118.000000=0.300000
;
#DELAYS:;
#WARPS:;
#TIMESIGNATURES:0.000000=4=4
;
#TICKCOUNTS:0.000000=4
;
#COMBOS:0.000000=1
;
#SPEEDS:0.000000=1.000000=0.000000=0
;
#SCROLLS:0.000000=1.000000
;
#FAKES:;
#LABELS:0.000000=Song Start
;
#NOTES:
// measure 0
0000
0000
0000
0000
,  // measure 1
0000
0000
0000
0000
,  // measure 2
0000
0000
0000
0000
,  // measure 3
0000
0000
0000
0000
,  // measure 4
0001
0010
0001
0010
0001
0000
0001
1000
0010
0000
0100
0000
0001
0000
1000
0000
,  // measure 5
0000
0000
0100
0010
0100
0000
0010
0001
0100
0000
0010
0000
1000
0010
0001
0010
,  // measure 6
1000
0010
1000
0010
1000
0000
0010
0100
0001
0000
0010
0000
0100
1000
0100
0001
,  // measure 7
0100
0000
0010
0000
0100
1000
0001
0200
0000
0310
1000
0002
0000
0000
0003
0000
,  // measure 8
1000
0000
0001
0100
0001
0100
0010
1000
0001
0000
1010
0000
0000
0000
0000
0000
,  // measure 9
0000
0000
0100
0010
1000
0001
0010
0000
0001
1000
0001
1000
1001
0000
0100
0000
,  // measure 10
0002
0000
1003
0010
1000
0010
1000
0010
1000
0010
0100
0000
1001
0000
0001
0000
,  // measure 11
2000
0000
3001
1000
0200
0000
1300
0001
1000
0100
0010
0001
0010
0000
0001
0000
,  // measure 12
0010
0000
0100
0010
0100
0010
0100
0010
0100
0010
0100
1000
0002
0000
1003
0000
,  // measure 13
0001
1000
0010
2000
0000
3001
1000
0200
0000
0310
0100
1000
0001
0000
0101
0000
,  // measure 14
0001
1100
1000
0101
0001
1100
1000
0011
,  // measure 15
0001
0000
1010
0000
1000
0000
0011
0000
0001
0100
0010
1000
0100
0000
0011
0000
,  // measure 16
0100
0000
1010
0000
0010
0000
1001
0000
0010
0100
0001
1000
0200
0000
0310
0000
,  // measure 17
0100
0010
0001
2000
0000
3001
1000
0020
0000
0000
0030
0000
1000
0000
0001
0000
,  // measure 18
0010
0000
0100
1000
0100
0010
0100
0001
0100
1000
0001
0000
1001
0000
1010
0000
,  // measure 19
1000
0000
0001
0010
1000
0000
1000
0010
0001
0010
0100
1000
0001
0000
0100
0000
,  // measure 20
0010
0000
1000
0010
1000
0100
1000
0001
1000
0100
0010
0100
1000
0000
0010
0000
,  // measure 21
0001
0010
1000
0100
0000
0001
0100
2000
0000
0000
0000
0000
3001
0010
0100
1000
,  // measure 22
0000
0100
0010
0100
1000
0100
0010
0001
0000
0010
0100
0010
0001
0010
0100
1000
,  // measure 23
0000
0100
0010
0100
1000
0100
0010
0001
0000
0010
0100
0010
0001
0010
0100
1000
,  // measure 24
0000
0100
0010
0100
1000
0100
0010
0001
0000
0010
0100
0010
0001
0010
0100
1000
,  // measure 25
0000
0100
0010
0100
1000
0100
0010
0002
0000
0000
0000
0000
0103
0001
0100
0001
,  // measure 26
0100
0000
0010
1000
0100
0000
0010
0000
0001
0000
1000
0000
1001
0000
1000
0010
,  // measure 27
1000
0000
0010
0100
0001
0000
0010
0000
0100
0000
1000
0000
1001
0001
1000
0001
,  // measure 28
1000
0000
1000
0001
1001
0001
1000
0001
1000
0000
0010
1000
1001
0000
0001
0001
,  // measure 29
1001
0000
1000
1000
1010
0000
0011
0000
1001
0000
0101
0000
1010
0000
0102
0000
,  // measure 30
0013
0100
1000
0010
0100
0010
1000
0100
0010
0000
1001
0000
0101
0000
0021
0000
,  // measure 31
0130
0010
0002
0000
0013
0100
1000
0010
0100
0000
0001
1000
0001
0000
0200
0000
,  // measure 32
0310
1000
0010
0100
0001
0010
0100
0010
0001
1000
0020
0000
2030
0000
3001
1000
,  // measure 33
0100
0020
0000
0130
1000
0002
0000
0000
0100
0000
0013
0000
1100
0000
0010
0000
,  // measure 34
0101
0010
1100
0010
0101
0100
1010
0100
,  // measure 35
0011
0100
1010
0100
0011
1000
0110
0001
,  // measure 36
0110
0000
1000
0000
0110
0000
0001
0100
0010
1000
0001
0000
0010
0000
0100
0010
,  // measure 37
0001
0010
0000
0001
1000
0020
0000
0000
0030
0000
0100
0010
1000
0001
0010
0100
,  // measure 38
1000
0001
1000
0010
0100
0001
0010
0100
0010
0100
0010
0001
0100
0020
0000
0130
,  // measure 39
0010
1000
0001
0010
0100
2000
0000
3100
0010
0001
1000
0001
0010
0001
0100
0010
,  // measure 40
0100
0010
0100
0001
1000
0100
0010
0001
0010
0001
1000
0100
0000
0100
0001
0000
,  // measure 41
0001
0000
0100
0000
0010
0000
0000
0100
0000
0000
0010
0000
0001
0000
1000
0000
1001
0000
0000
0000
0001
0000
0100
0000
0001
0000
0010
0000
0001
0000
0000
0000
,  // measure 42
1000
0010
1000
0000
0110
0000
0101
0000
0011
0000
0000
0000
0001
1000
0100
0000
,  // measure 43
0010
0100
1000
0000
0011
0000
0110
0000
1100
0000
0100
0010
0100
0010
0100
0000
,  // measure 44
0010
0001
0100
0000
1010
0000
0101
0000
1001
0000
0000
0000
0100
0001
0100
0000
,  // measure 45
0010
1000
0002
0000
2000
0003
0000
3000
0000
0000
1010
0000
0101
0000
0012
0000
,  // measure 46
0103
0010
0001
0010
0100
0010
0001
0010
0100
0000
0010
0000
0001
0000
0200
0000
,  // measure 47
0301
1000
0200
0000
1300
0001
1000
0010
1000
0001
0010
0000
0100
0000
2100
0000
,  // measure 48
3010
1000
0100
1000
0010
0100
0010
1000
0100
0010
0100
0000
0010
0000
0001
0000
,  // measure 49
1000
0001
0100
0010
0100
0020
0000
0030
0000
0000
0000
0000
0000
0000
0000
0000
;

//---------------dance-single - ----------------
#NOTEDATA:;
#CHARTNAME:;
#STEPSTYPE:dance-single;
#DESCRIPTION:;
#CHARTSTYLE:;
#DIFFICULTY:Challenge;
#METER:110;
#RADARVALUES:0.693898,0.816056,0.538831,0.382648,0.659873,622.000000,553.000000,69.000000,49.000000,231.000000,0.000000,0.000000,0.000000,0.000000,0.693898,0.816056,0.538831,0.382648,0.659873,622.000000,553.000000,69.000000,49.000000,231.000000,0.000000,0.000000,0.000000,0.000000;
#CREDIT:;
#NOTES:
// measure 0
0000
0000
0000
0000
,  // measure 1
0000
0000
0000
0000
,  // measure 2
1001
0000
0001
0100
0001
1000
0000
0001
0000
0001
0000
0001
1000
0001
0201
000M
,  // measure 3
0310
0000
1000
0001
1000
0000
0010
0100
0001
0000
0010
0000
0100
1000
0010
0100
,  // measure 4
0001
0010
0001
0010
0001
0000
0100
1000
0010
0000
0101
0000
0011
0000
1001
0000
,  // measure 5
0000
0000
1000
0010
1000
0000
0010
1000
0100
0000
0110
0000
0011
0000
1010
0000
,  // measure 6
1000
0010
1000
0010
1000
0000
0010
0100
0001
0000
0010
0000
0100
1000
0100
0001
,  // measure 7
0200
0000
0320
0000
0130
1000
0001
0100
0000
0010
1000
0200
M001
0000
130M
0000
,  // measure 8
1001
0000
0001
1000
0001
0000
1000
0000
0010
0100
0010
0100
0010
0100
0001
0000
,  // measure 9
1001
0000
0000
0000
1000
0000
0100
0000
0010
0000
0001
0000
0010
0000
0000
0000
0100
0000
0100
0000
0100
0000
0100
MMMM
1001
0000
0000
0000
0100
0000
0000
0000
,  // measure 10
0002
0000
1003
0M10
1000
01M0
1000
0M10
1000
01M0
2000
0000
3010
0000
0100
0000
,  // measure 11
0002
0000
1003
0100
00M2
0000
0103
1000
0010
0M01
001M
1M00
0001
0000
1100
0000
,  // measure 12
0021
0000
013M
0010
0M01
0010
010M
0010
0M01
0010
0100
1000
0020
0000
0230
0000
,  // measure 13
0301
1000
0010
0200
0000
0310
1000
0002
0000
M000
0M03
00M0
0001
0000
101M
0000
,  // measure 14
1000
M101
1000
M101
0001
110M
1000
M011
,  // measure 15
0001
0000
101M
0000
1000
0000
M011
0000
0001
0100
0010
1000
0100
0000
0M11
0000
,  // measure 16
0100
0000
1M10
0000
0010
0000
10M1
0000
0010
0100
00M1
1000
0200
0000
0310
0000
,  // measure 17
0100
0010
0001
2000
0000
3001
1000
0020
0000
0000
MM3M
0000
1000
0000
0001
0000
,  // measure 18
0020
0000
M130
0100
001M
0010
0M01
0001
10M0
1000
0010
0000
0110
0000
1010
0000
,  // measure 19
0102
0000
1003
0010
M001
0000
0001
0010
100M
0010
0100
0010
0001
0000
1010
0000
,  // measure 20
2001
0000
31M0
0100
100M
1000
0M10
0010
M100
0100
001M
1000
0001
0000
0010
0000
,  // measure 21
0100
0000
0000
0010
0000
0000
0M01
0000
0000
10M0
0000
0000
0M01
0000
0000
M010
0000
0000
010M
0000
0000
M020
0000
0000
0M0M
0000
0000
0000
M000
0000
0000
0000
0000
0030
0000
0000
0001
0000
0000
0010
0000
0000
0100
0000
0000
2000
0000
0000
,  // measure 22
0MMM
3100
0010
0100
1000
0100
0010
0002
MMM0
0013
0100
0010
0001
0010
0100
2000
,  // measure 23
0MMM
3100
0010
0100
1000
0100
0010
0002
MMM0
0013
0100
0010
0001
0010
0100
2000
,  // measure 24
0MMM
3100
0010
0100
1000
0100
0010
0002
MMM0
0013
0100
0010
0001
0010
0100
2000
,  // measure 25
0MMM
3100
0010
0100
1000
0100
0010
MMM2
0000
0000
0000
0000
0103
0001
0100
0001
,  // measure 26
0100
0000
0010
1000
0100
0000
0010
0000
0001
0000
1000
0000
1MM1
0000
1000
0010
,  // measure 27
1000
0000
0010
0100
0001
0000
0010
0000
0100
0000
1000
0000
1MM1
0001
1000
0001
,  // measure 28
1000
0000
1000
0001
1MM1
0001
1000
0001
1000
0000
0001
1000
1MM1
0000
00M1
01M0
,  // measure 29
01M1
0000
1M00
M010
0M11
0000
1M10
0000
MMMM
0000
0000
0000
0210
0000
0000
0000
,  // measure 30
03M1
0000
0000
0000
0020
0000
0000
0000
0130
00M0
10M0
00M0
01M0
00M0
00M1
00M0
,  // measure 31
01M0
00M0
10M0
00M0
01M0
00M0
00M1
00M0
01M0
0000
0000
0000
1001
0000
0000
0000
,  // measure 32
1010
0000
0000
0000
2M00
0M00
0M00
0M00
3M10
0M00
0M01
0M00
0M20
0M00
0M00
0M00
,  // measure 33
1M30
0M00
0M10
0M00
0M01
0M00
0M10
0M00
1M00
0000
0000
0000
1000
0000
0001
0000
,  // measure 34
1001
0000
0000
0000
0201
0000
0000
0000
0310
0M00
1M00
0M00
0M10
0M00
0M01
0M00
,  // measure 35
0M10
0M00
1M00
0M00
0M10
0000
0100
0000
0001
0000
0010
0000
0200
0000
0000
0000
,  // measure 36
1300
0000
0100
0010
0001
2000
0000
3001
,  // measure 37
1000
0020
0000
0000
MM01
0000
1030
M001
,  // measure 38
1001
0000
1000
M010
1010
0000
0100
0M10
,  // measure 39
0110
0000
0010
01M0
0101
0000
0100
0M01
,  // measure 40
1001
0000
0001
010M
0101
0000
0100
0M10
,  // measure 41
1010
0000
1000
M001
0011
0000
0001
1000
,  // measure 42
M101
0000
1000
0100
0M11
0000
0001
0010
,  // measure 43
11M0
0000
1000
0010
0100
0001
2000
0000
,  // measure 44
3100
0000
0000
0000
0010
0000
0001
0000
1000
0000
0010
0000
0100
0000
0000
0100
,  // measure 45
0000
0200
0002
0300
0003
0000
1000
0001
,  // measure 46
0010
0001
1000
0100
1000
0100
1000
0010
,  // measure 47
0100
0001
0010
0100
0010
0100
0010
0001
,  // measure 48
0100
0020
0000
0130
0010
1000
0001
0010
,  // measure 49
0100
2000
0000
3100
0010
0001
1000
0001
,  // measure 50
0010
0001
0100
0010
0100
0010
0100
0001
,  // measure 51
1000
0100
0010
0001
0010
0001
1000
0001
,  // measure 52
0100
0020
0000
0130
0001
0010
0001
0010
,  // measure 53
0100
2000
0000
3000
1MM1
0000
00M1
01M0
,  // measure 54
10M0
01M0
00M1
0000
100M
001M
100M
0000
,  // measure 55
0110
0101
0011
0000
,  // measure 56
00M1
01M0
10M0
0000
100M
010M
001M
0000
,  // measure 57
0110
0000
1010
0000
0101
0000
0M01
0M10
,  // measure 58
1M00
0M10
0M01
0000
M010
M001
M100
0000
,  // measure 59
1010
0101
1001
0001
,  // measure 60
M100
001M
M100
0000
0M10
10M0
M002
0000
,  // measure 61
2000
0000
0003
0000
000M
3000
M000
0000
1010
0000
M101
M000
M021
0000
013M
M010
,  // measure 62
0M01
0100
001M
1000
00M1
0010
M100
1000
1001
0000
101M
000M
012M
0000
M130
0M01
,  // measure 63
20M0
0000
3M01
1000
01M0
0001
M100
0010
0001
0000
110M
000M
102M
0000
013M
M010
,  // measure 64
1M00
0001
M010
0100
001M
0001
1M00
0010
0100
0000
0M10
0M00
1M00
0000
00M1
M100
,  // measure 65
001M
1000
1000
1000
0000
MMMM
0000
0000
0000
0000
0000
0000
0000
0000
0000
0000
;

//---------------dance-single - ----------------
#NOTEDATA:;
#CHARTNAME:;
#STEPSTYPE:dance-single;
#DESCRIPTION:;
#CHARTSTYLE:;
#DIFFICULTY:Medium;
#METER:80;
#RADARVALUES:0.483051,0.519869,0.078091,0.046855,0.437312,433.000000,423.000000,10.000000,6.000000,0.000000,0.000000,0.000000,0.000000,0.000000,0.483051,0.519869,0.078091,0.046855,0.437312,433.000000,423.000000,10.000000,6.000000,0.000000,0.000000,0.000000,0.000000,0.000000;
#CREDIT:;
#OFFSET:-2.164001;
#BPMS:0.000000=100.000000
;
#STOPS:38.750000=0.600000
,118.000000=0.300000
;
#DELAYS:;
#WARPS:;
#TIMESIGNATURES:0.000000=4=4
;
#TICKCOUNTS:0.000000=4
;
#COMBOS:0.000000=1
;
#SPEEDS:0.000000=1.000000=0.000000=0
;
#SCROLLS:0.000000=1.000000
;
#FAKES:;
#LABELS:0.000000=Song Start
;
#NOTES:
// measure 0
0000
0000
0000
0000
,  // measure 1
0000
0000
0000
0000
,  // measure 2
0000
0000
0000
0000
,  // measure 3
0000
0000
0000
0000
,  // measure 4
1000
0000
0010
0000
0100
0000
0001
0100
0010
0000
1000
0000
0010
0000
0100
0000
,  // measure 5
0000
0000
0010
0000
1000
0000
0100
0010
0001
0000
0010
0000
0100
0000
0010
0000
,  // measure 6
0001
0000
0001
0000
1000
0000
0001
0100
0010
0000
1000
0000
0010
0000
0100
0000
,  // measure 7
0001
0000
1000
0100
1000
0000
0100
0010
0100
0000
0010
0000
0001
0000
1000
0000
,  // measure 8
1001
0000
0001
0100
0010
0010
0000
0000
,  // measure 9
0000
0100
0010
1000
1001
0000
0001
0100
,  // measure 10
0010
0000
1000
0001
1000
0001
1000
0001
1000
0001
1000
0000
0001
0000
0010
0000
,  // measure 11
0100
0000
1000
0100
1000
0000
0100
1000
0100
0010
0001
1000
0001
0000
1000
0000
,  // measure 12
0010
0000
0100
0010
0100
0010
0100
0010
0100
0010
0100
0001
1000
0000
0001
0000
,  // measure 13
1000
0000
0010
0100
0000
0010
0100
0001
0000
0000
0000
0000
1000
0000
0001
0000
,  // measure 14
0010
0001
0100
0010
1000
0100
0010
0100
,  // measure 15
1000
0010
0100
0001
1000
0100
0010
0100
,  // measure 16
1000
0010
0100
0001
0010
0100
0010
0001
,  // measure 17
0100
0010
1000
0001
0000
1000
0001
0200
0000
0000
0300
0000
0010
0000
1000
0000
,  // measure 18
0001
0000
0010
0100
0010
0100
0010
0100
0010
0100
0010
0000
0100
0000
1000
0000
,  // measure 19
0010
0000
0100
0001
0100
0000
0100
0001
0100
0010
0100
0000
0010
0000
1000
0000
,  // measure 20
0001
0000
1000
0010
1000
0010
1000
0010
1000
0100
0010
0001
0010
0000
0100
0000
,  // measure 21
0010
0001
0100
0010
0000
0100
0010
2000
0000
0000
0000
0000
3001
0000
0000
1000
,  // measure 22
0000
0000
0000
0000
0001
0000
0000
0100
0000
0100
0000
0000
0001
0000
0000
1000
,  // measure 23
0000
0000
0000
0000
0001
0000
0000
0010
0000
0010
0000
0000
0100
0000
0000
1000
,  // measure 24
0000
0000
0000
0000
0100
0000
0000
0010
0000
0010
0000
0000
0100
0000
0000
0010
,  // measure 25
0000
0000
0000
0000
0001
0000
0000
0002
0000
0000
0000
0000
1003
0000
0001
0000
,  // measure 26
0100
0000
0010
0100
0010
0000
0100
0000
0001
0000
1000
0000
0000
0000
0001
0000
,  // measure 27
1000
0000
0010
0100
0010
0000
0100
0000
0001
0000
1000
0000
0010
0100
0010
0000
,  // measure 28
0100
0000
0001
0000
0100
0010
0100
0000
0100
0000
0001
0000
0010
0000
0100
0010
,  // measure 29
0100
0000
0010
0100
0010
0000
0100
0000
1001
0000
0001
0000
1000
0000
1010
0000
,  // measure 30
1000
0010
1000
0010
1000
0010
1000
0010
1000
0000
0010
0000
0100
0000
0101
0000
,  // measure 31
0001
0100
0010
0000
0100
0010
1000
0001
0010
0000
0100
0000
1001
0000
0001
0000
,  // measure 32
0010
0100
0010
0100
0010
0100
0010
0001
1000
0100
1000
0000
0001
0000
0100
0010
,  // measure 33
1000
0001
0000
1000
0001
0200
0000
0000
0300
0000
0010
0000
1000
0000
0100
0000
,  // measure 34
1000
0001
0100
0001
1000
0001
0010
0001
,  // measure 35
1000
0010
1000
0001
0010
0001
0100
1000
,  // measure 36
0100
0001
0010
1000
0010
0100
0010
0001
,  // measure 37
0100
0000
0000
0000
0010
0000
0000
0010
0000
0000
0010
0000
0000
0000
0000
0000
0000
0000
0000
0000
0100
0000
0000
0000
0010
0000
0000
0000
1000
0000
0010
0000
,  // measure 38
1000
0000
0010
0000
0100
0000
0001
0100
0001
0000
0010
0000
0100
0000
1000
0100
,  // measure 39
0010
0000
0100
0000
0010
0000
0001
0010
0100
0000
0010
0000
0001
0000
0100
0001
,  // measure 40
0100
0000
0010
0000
1000
0000
0010
1000
0010
0000
1000
0000
0001
0100
0000
0001
,  // measure 41
1000
0000
0000
0000
0100
0000
0000
1000
0000
0000
0010
0000
0100
0000
0000
0000
1001
0000
0000
0000
0001
0000
0100
0000
0001
0000
0100
0000
0001
0000
0000
0000
,  // measure 42
0100
0010
1000
0000
0001
0000
0010
0000
1100
0000
0000
0000
0100
1000
0100
0000
,  // measure 43
1000
0100
0010
0000
0100
0000
0010
0000
0011
0000
0001
0100
0001
0100
0001
0000
,  // measure 44
0100
0010
1000
0000
0001
0000
0100
0000
1001
0000
0000
0000
0001
0100
0010
0000
,  // measure 45
1000
0010
0100
0000
0002
2000
0000
3003
0000
0000
0001
0000
1000
0000
0010
0000
,  // measure 46
1000
0001
1000
0001
1000
0001
1000
0001
1000
0000
0001
0000
0100
0000
0010
0000
,  // measure 47
1000
0010
1000
0000
1000
0010
1000
0010
0100
0001
0010
0000
0100
0000
1000
0000
,  // measure 48
0010
0100
0010
0100
0010
0100
0010
0100
0010
0000
0100
0000
0010
0000
1000
0000
,  // measure 49
0001
1000
0001
0010
0010
0010
0000
0000
0000
0000
0000
0000
0000
0000
0000
0000
;

//---------------dance-single - ----------------
#NOTEDATA:;
#CHARTNAME:;
#STEPSTYPE:dance-single;
#DESCRIPTION:;
#CHARTSTYLE:;
#DIFFICULTY:Easy;
#METER:45;
#RADARVALUES:0.256586,0.384600,0.085901,0.156183,0.000000,230.000000,219.000000,11.000000,20.000000,0.000000,0.000000,0.000000,0.000000,0.000000,0.256586,0.384600,0.085901,0.156183,0.000000,230.000000,219.000000,11.000000,20.000000,0.000000,0.000000,0.000000,0.000000,0.000000;
#CREDIT:;
#OFFSET:-2.164001;
#BPMS:0.000000=100.000000
;
#STOPS:38.750000=0.600000
,118.000000=0.300000
;
#DELAYS:;
#WARPS:;
#TIMESIGNATURES:0.000000=4=4
;
#TICKCOUNTS:0.000000=4
;
#COMBOS:0.000000=1
;
#SPEEDS:0.000000=1.000000=0.000000=0
;
#SCROLLS:0.000000=1.000000
;
#FAKES:;
#LABELS:0.000000=Song Start
;
#NOTES:
// measure 0
0000
0000
0000
0000
,  // measure 1
0000
0000
0000
0000
,  // measure 2
0000
0000
0000
0000
,  // measure 3
0000
0000
0000
0000
,  // measure 4
1000
0000
0010
0000
0100
0000
0001
1000
,  // measure 5
0000
0000
0001
0000
0010
0000
0100
0010
,  // measure 6
0100
0000
1000
0000
0010
0000
0100
0001
,  // measure 7
0000
0000
1000
0000
0001
0000
0100
0010
,  // measure 8
1001
0001
0200
0300
,  // measure 9
0001
0000
1000
0100
1000
0000
0100
1000
,  // measure 10
0010
0000
1000
0000
0010
0000
0100
0001
,  // measure 11
0010
0000
0001
0000
0010
0100
1000
0000
,  // measure 12
0001
0100
0001
0020
,  // measure 13
0031
0000
0002
0000
0103
0000
0010
1000
,  // measure 14
0000
1000
0000
0001
0000
0001
0010
0100
,  // measure 15
0000
0100
0000
0100
0000
0100
0010
1000
,  // measure 16
0000
1000
0000
1000
0000
1000
0001
0100
,  // measure 17
0000
0001
0000
0010
0000
1001
0001
0100
,  // measure 18
0020
0000
0000
0000
0000
0030
0100
0001
,  // measure 19
2000
0000
0000
0000
0000
3000
0001
1000
,  // measure 20
0200
0000
0000
0000
0000
0310
0100
1000
,  // measure 21
0001
0100
0010
1000
0000
0000
0002
0000
,  // measure 22
0003
2000
3000
0002
,  // measure 23
0003
2000
3000
0020
,  // measure 24
0030
0200
0300
0020
,  // measure 25
0030
0200
0300
1001
,  // measure 26
0001
1000
0010
1001
,  // measure 27
1000
0001
0100
1001
,  // measure 28
0010
1001
0100
1001
,  // measure 29
0110
0000
1001
0110
1001
0001
0100
0010
,  // measure 30
1000
1000
1000
1000
1000
0001
0010
0100
,  // measure 31
0010
0100
0010
0100
1000
0001
1000
0010
,  // measure 32
0100
0100
0100
0100
0010
1000
0001
0010
,  // measure 33
0001
1000
0100
0000
0000
1000
0010
0000
,  // measure 34
0100
0001
1000
0100
,  // measure 35
1000
0000
0010
0000
0100
0001
0010
0000
,  // measure 36
0100
0000
0010
0000
0001
1000
0100
0010
,  // measure 37
0001
1000
0001
1000
0000
0001
0000
0100
,  // measure 38
0000
0010
0000
1000
0000
0010
0100
0010
,  // measure 39
0000
1000
0001
1000
0000
0001
0000
0010
,  // measure 40
0000
0001
0000
1000
0000
0002
0000
0000
,  // measure 41
0003
2000
0000
0000
3000
0001
0000
0100
,  // measure 42
0010
1000
0100
0010
0001
0000
0010
0010
,  // measure 43
0001
0010
0100
1000
0001
1000
1000
1000
,  // measure 44
0001
0100
0010
1000
0001
0000
1000
1000
,  // measure 45
0100
0010
0001
1000
0000
0001
0100
0020
,  // measure 46
0000
0000
0000
0000
0030
0100
0001
2000
,  // measure 47
3000
2000
3000
0001
1000
0001
0100
0001
,  // measure 48
0020
0000
0000
0000
0030
0100
0010
0001
,  // measure 49
1000
1000
1000
0000
0000
0000
0000
0000
;

//---------------dance-single - ----------------
#NOTEDATA:;
#CHARTNAME:;
#STEPSTYPE:dance-single;
#DESCRIPTION:;
#CHARTSTYLE:;
#DIFFICULTY:Beginner;
#METER:20;
#RADARVALUES:0.102634,0.250625,0.054664,0.000000,0.000000,92.000000,85.000000,7.000000,0.000000,0.000000,0.000000,0.000000,0.000000,0.000000,0.102634,0.250625,0.054664,0.000000,0.000000,92.000000,85.000000,7.000000,0.000000,0.000000,0.000000,0.000000,0.000000,0.000000;
#CREDIT:;
#OFFSET:-2.164001;
#BPMS:0.000000=100.000000
;
#STOPS:38.750000=0.600000
,118.000000=0.300000
;
#DELAYS:;
#WARPS:;
#TIMESIGNATURES:0.000000=4=4
;
#TICKCOUNTS:0.000000=4
;
#COMBOS:0.000000=1
;
#SPEEDS:0.000000=1.000000=0.000000=0
;
#SCROLLS:0.000000=1.000000
;
#FAKES:;
#LABELS:0.000000=Song Start
;
#NOTES:
// measure 0
0000
0000
0000
0000
,  // measure 1
0000
0000
0000
0000
,  // measure 2
0000
0000
0000
0000
,  // measure 3
0000
0000
0000
0000
,  // measure 4
1000
0000
0000
0000
,  // measure 5
0001
0000
0000
0000
,  // measure 6
0100
0000
0000
0000
,  // measure 7
0010
0000
0000
1000
,  // measure 8
0001
0000
0000
0000
,  // measure 9
0100
0000
0000
0010
,  // measure 10
0000
0000
0000
1000
,  // measure 11
0000
0000
0000
0001
,  // measure 12
0000
0000
0000
0010
,  // measure 13
0000
0001
0000
1000
,  // measure 14
0000
0001
0000
1000
,  // measure 15
0000
0001
0000
0100
,  // measure 16
0000
0010
0000
0100
,  // measure 17
0000
0001
0000
1000
,  // measure 18
0001
0000
0000
0010
,  // measure 19
0100
0000
0000
1000
,  // measure 20
0010
0000
0000
0100
,  // measure 21
0001
1000
0000
0001
,  // measure 22
0000
0001
0000
1000
,  // measure 23
0000
1000
0000
0010
,  // measure 24
0000
0010
0000
0100
,  // measure 25
0000
0100
0000
1001
,  // measure 26
0000
0000
0000
0110
,  // measure 27
0000
0000
0000
1001
,  // measure 28
0000
0110
0000
1001
,  // measure 29
0110
0000
1001
0001
0001
1000
0000
0000
,  // measure 30
0000
0000
0000
0000
0000
0001
0000
0000
,  // measure 31
0000
0000
0000
0000
0000
0100
0000
0000
,  // measure 32
0000
0000
0000
0000
0000
0010
0000
1000
,  // measure 33
0000
0001
0000
0100
0000
0000
0010
0000
,  // measure 34
0000
0010
0000
0100
,  // measure 35
0000
0100
0000
0001
,  // measure 36
0000
0001
0000
1000
,  // measure 37
0000
0000
0000
0000
0000
1000
0000
0000
,  // measure 38
0000
0010
0000
0000
0000
0100
0000
0000
,  // measure 39
0000
0001
0000
0000
0000
0010
0000
0000
,  // measure 40
0000
0001
0000
0000
0000
1000
0000
0000
,  // measure 41
0000
1000
0000
0000
0000
0001
0000
0000
,  // measure 42
0000
1000
0000
0000
0000
0010
0000
0000
,  // measure 43
0000
0100
0000
0000
0000
0001
0000
0000
,  // measure 44
0000
0010
0000
0000
0000
0100
0000
0000
,  // measure 45
0000
0010
0000
0000
0000
0001
0000
1000
,  // measure 46
0000
0000
0000
0000
0000
0010
0000
0100
,  // measure 47
0000
0000
0000
0000
0000
0001
0000
0010
,  // measure 48
0000
0000
0000
0000
0000
0100
0000
1000
,  // measure 49
0000
0000
0000
0010
0000
0000
0000
0000
;
