#VERSION:0.83;
#TITLE:Dirty Car;
#SUBTITLE:;
#ARTIST:Studio Killers;
#TITLETRANSLIT:;
#SUBTITLETRANSLIT:;
#ARTISTTRANSLIT:;
#GENRE:;
#ORIGIN:;
#CREDIT:;
#BANNER:Dirty Car.png;
#BACKGROUND:Dirty Car-bg.png;
#PREVIEWVID:;
#JACKET:Dirty Car-jacket.png;
#CDIMAGE:;
#DISCIMAGE:;
#LYRICSPATH:;
#CDTITLE:;
#MUSIC:Dirty Car.ogg;
#OFFSET:-0.140000;
#SAMPLESTART:62.595898;
#SAMPLELENGTH:16.228172;
#SELECTABLE:YES;
#BPMS:0.000=122.000;
#STOPS:;
#DELAYS:;
#WARPS:;
#TIMESIGNATURES:0.000=4=4;
#TICKCOUNTS:0.000=4;
#COMBOS:0.000=1;
#SPEEDS:0.000=1.000=0.000=0;
#SCROLLS:0.000=1.000;
#FAKES:;
#LABELS:0.000=Song Start;
#BGCHANGES:;
#KEYSOUNDS:;
#ATTACKS:
;

//---------------dance-single - ----------------
#NOTEDATA:;
#CHARTNAME:;
#STEPSTYPE:dance-single;
#DESCRIPTION:;
#CHARTSTYLE:;
#DIFFICULTY:Hard;
#METER:70;
#RADARVALUES:0.307563,0.345706,0.100316,0.239216,0.131183,279.000000,266.000000,13.000000,31.000000,0.000000,0.000000,0.000000,0.000000,0.000000,0.307563,0.345706,0.100316,0.239216,0.131183,279.000000,266.000000,13.000000,31.000000,0.000000,0.000000,0.000000,0.000000,0.000000;
#CREDIT:;
#NOTES:
// measure 0
0000
0000
0000
0000
,  // measure 1
0000
0000
0000
0000
,  // measure 2
0000
0000
0000
0000
,  // measure 3
0000
0000
0000
0000
,  // measure 4
0000
0000
0000
0000
,  // measure 5
0000
0000
0000
0000
,  // measure 6
0000
0000
0000
0000
,  // measure 7
0000
0000
0000
0000
0000
1000
0100
0010
,  // measure 8
1002
0000
0100
0000
0010
0000
0103
0001
,  // measure 9
0100
1000
0100
0001
0010
0000
0100
1000
,  // measure 10
0002
0013
2000
3010
,  // measure 11
1001
0000
0000
0000
0000
0100
0010
0100
,  // measure 12
0002
0010
0100
0013
,  // measure 13
0100
0010
0001
1000
0010
0000
0100
0001
,  // measure 14
2000
3100
0002
0103
,  // measure 15
1001
0000
0000
0000
0000
1000
0001
0020
,  // measure 16
0000
0000
0030
0001
0200
0000
0010
0000
,  // measure 17
0301
0000
0000
0000
0000
0010
0001
1000
,  // measure 18
0000
0000
0001
1000
0000
0000
0001
0100
,  // measure 19
0000
0000
0000
0000
0000
0010
1000
0200
,  // measure 20
0000
0000
0000
0310
0200
0000
1000
0000
,  // measure 21
0310
0000
0000
0000
0000
0100
0010
0001
,  // measure 22
0000
0000
0010
0001
0000
0000
0010
0001
,  // measure 23
0000
0000
0000
1000
1001
0000
0110
0000
,  // measure 24
1001
0000
0001
0000
0000
0001
0000
0000
1000
0000
0000
1000
0000
0000
0001
0000
,  // measure 25
0000
0000
1000
0000
0000
0010
0000
0000
0100
0000
0000
0001
0000
0000
0010
0000
,  // measure 26
0000
0000
0100
0000
0000
0100
0000
0000
0010
0000
0000
0010
0000
0000
0001
0000
,  // measure 27
0000
0000
1000
0000
0000
0010
0000
0000
1000
0000
0000
0100
0000
0000
0010
0000
,  // measure 28
0000
0000
0100
0000
0000
0100
0000
0000
1000
0000
0000
1000
0000
0000
0001
0000
,  // measure 29
0000
0000
0100
0000
0000
0010
0000
0000
1000
0000
0000
0001
0000
0000
0010
0000
,  // measure 30
0000
0000
0100
0000
0000
0100
0000
0000
0010
0000
0000
0010
0000
0000
0001
0000
,  // measure 31
2000
3002
2000
3003
,  // measure 32
0001
0000
0100
0000
0010
0000
1000
0000
0100
0000
0001
0000
0100
0000
0010
0002
,  // measure 33
0000
2000
0000
0000
3003
0000
0000
0001
,  // measure 34
1000
0000
0010
0000
1000
0000
0100
0000
0010
0000
0100
0000
1000
0000
0100
0020
,  // measure 35
0000
0200
0000
0000
0330
0000
0000
0000
,  // measure 36
0010
0000
0000
0000
1001
0000
1000
0000
0001
0000
0010
0000
0001
0000
1000
0020
,  // measure 37
0000
2000
0000
0000
3030
0000
0100
0010
,  // measure 38
0100
0000
0001
0000
0010
0000
0100
0000
0010
0000
0001
0000
1000
0000
0100
0020
,  // measure 39
0000
0200
0000
0000
0330
1000
0100
0010
,  // measure 40
0001
0001
1000
1000
,  // measure 41
0001
0010
0100
1000
0001
0000
1000
0100
,  // measure 42
0020
0130
2000
3001
,  // measure 43
0110
0000
0000
0000
0000
0100
0010
1000
,  // measure 44
0001
0001
1000
1000
,  // measure 45
0001
0010
0100
1000
0100
0000
0010
0100
,  // measure 46
2000
3100
0002
0103
,  // measure 47
1001
0000
0000
0000
0000
1000
0100
0020
,  // measure 48
0000
0000
0000
0130
2000
0000
3002
0000
,  // measure 49
0103
1000
0100
0001
0100
0010
0100
0001
,  // measure 50
0000
0000
0001
1000
0000
0000
0001
0010
,  // measure 51
0000
0000
0000
0000
0000
0010
0100
2000
,  // measure 52
0000
0000
0000
3001
2000
0000
3020
0000
,  // measure 53
0130
0000
0000
0000
0000
0010
0100
0001
,  // measure 54
0000
0000
0100
0001
0000
0000
0100
0001
,  // measure 55
0000
0000
0000
1000
1001
0000
0110
0000
,  // measure 56
1001
0000
1000
0000
0000
1000
0000
0000
0001
0000
0000
0001
0000
0000
0100
0000
,  // measure 57
0000
0000
0010
0000
0000
0100
0000
0000
0001
0000
0000
0010
0000
0000
0100
0000
,  // measure 58
0000
0000
0010
0000
0000
0010
0000
0000
0100
0000
0000
0100
0000
0000
0010
0000
,  // measure 59
0000
0000
0100
0000
0000
1000
0000
0000
0010
0000
0000
0100
0000
0000
0001
0000
,  // measure 60
0000
0000
1000
0000
0000
1000
0000
0000
0001
0000
0000
0001
0000
0000
0100
0000
,  // measure 61
0000
0000
0010
0000
0000
1000
0000
0000
0010
0000
0000
0100
0000
0000
0001
0000
,  // measure 62
0000
0000
0010
0000
0000
0010
0000
0000
0100
0000
0000
0100
0000
0000
0010
0000
,  // measure 63
0000
0000
0001
0000
0000
0100
0000
0000
1000
0000
0000
0100
0000
0000
0010
0000
,  // measure 64
1001
0000
0000
0000
;

//---------------dance-single - ----------------
#NOTEDATA:;
#CHARTNAME:;
#STEPSTYPE:dance-single;
#DESCRIPTION:;
#CHARTSTYLE:;
#DIFFICULTY:Challenge;
#METER:85;
#RADARVALUES:0.479534,0.614631,0.524732,0.246933,0.354966,435.000000,367.000000,68.000000,32.000000,12.000000,0.000000,0.000000,0.000000,0.000000,0.479534,0.614631,0.524732,0.246933,0.354966,435.000000,367.000000,68.000000,32.000000,12.000000,0.000000,0.000000,0.000000,0.000000;
#CREDIT:;
#OFFSET:-0.140000;
#BPMS:0.000000=122.000000
,60.000000=61.000000
,62.000000=122.000000
,90.000000=61.000000
,92.000000=122.000000
,202.000000=61.000000
,204.000000=122.000000
;
#STOPS:159.750000=1.967209
,163.750000=0.983604
,164.250000=0.245903
,164.750000=0.245903
,168.750000=1.967209
,173.000000=1.475410
;
#DELAYS:;
#WARPS:;
#TIMESIGNATURES:0.000000=4=4
;
#TICKCOUNTS:0.000000=4
;
#COMBOS:0.000000=1
;
#SPEEDS:0.000000=1.000000=0.000000=0
;
#SCROLLS:0.000000=1.000000
;
#FAKES:;
#LABELS:0.000000=Song Start
;
#NOTES:
// measure 0
0000
0000
0000
0000
,  // measure 1
0000
0000
0000
0000
,  // measure 2
0000
0000
0000
0000
,  // measure 3
0000
0000
0000
0000
,  // measure 4
0000
0000
1000
0000
0000
0010
0000
0000
0100
0000
0000
0001
0000
0000
0010
0000
,  // measure 5
0000
0000
0100
0000
0000
0100
0000
0000
0010
0000
0000
0010
0000
0000
0001
0000
,  // measure 6
0000
0000
1000
0000
0000
0001
0000
0000
0100
0000
0000
0001
0000
0000
0010
0000
,  // measure 7
0000
0000
0100
0000
0000
0100
0000
0000
0010
0000
0001
0000
0010
0000
0100
0000
,  // measure 8
1000
0000
0001
0000
0100
0000
0001
0000
1000
0000
0100
0000
0010
0000
0001
0010
,  // measure 9
0000
0000
0001
0000
0000
1000
0000
0000
0001
0100
0000
0010
0000
1000
0100
0000
,  // measure 10
0010
0000
0001
0000
1000
0000
0010
0000
0100
0000
0001
0000
0010
0000
0100
0010
,  // measure 11
0000
0000
0001
0000
0000
0100
0000
0000
0010
1000
0000
0100
0000
0010
0100
0000
,  // measure 12
1000
0000
0001
0000
0100
0000
0001
0000
0010
0000
0100
0000
1000
0000
0010
1000
,  // measure 13
0000
0000
0100
0000
0000
0010
0000
0000
0001
0010
0000
0001
0000
0100
0010
0000
,  // measure 14
1000
0000
0001
0000
0010
0000
0100
0000
1000
0000
0001
0000
0100
0000
0010
1000
,  // measure 15
0000
0000
0100
0000
0000
0100
0000
0000
0100
0010
0000
0010
0000
0010
0100
0000
1001
0000
0000
0000
0000
0000
0000
0000
1010
0000
0000
0000
0000
0000
0000
0000
,  // measure 16
2000
0000
0000
0000
3002
0000
0000
0000
0023
0000
0100
0000
0030
0100
0000
0000
,  // measure 17
0100
1000
0100
0020
0000
0000
0130
0020
,  // measure 18
0000
0000
0000
0000
0130
0000
2000
0000
0000
0000
3001
0000
0000
0100
0000
0000
,  // measure 19
0010
0100
0001
2000
0000
0000
0000
3100
,  // measure 20
2000
0000
0000
0000
3020
0000
0000
0000
0230
0000
0010
0000
0300
1000
0000
0000
,  // measure 21
0001
1000
0010
0200
0000
0000
0310
0200
,  // measure 22
0000
0000
0000
0000
0000
0000
0000
0000
0000
0000
0000
0000
0310
0000
0000
0000
0000
0000
0200
0000
0000
0000
0000
0000
0010
0000
0010
0000
0010
0000
0310
0000
0000
1000
0000
0000
1001
0000
0000
0000
0000
0000
0110
0000
0000
0000
0000
0000
,  // measure 23
1001
0000
0011
0000
0000
1010
0000
0000
1100
0000
0000
1010
0000
0000
0101
0000
,  // measure 24
0000
0000
0011
0000
0000
0110
0000
0000
1100
0000
0000
0110
0000
0000
0011
0000
,  // measure 25
0000
0000
1001
0000
0000
1010
0000
0000
0101
0000
0000
0011
0000
0000
0110
0000
,  // measure 26
0000
0000
1100
0000
0000
0110
0000
0000
0011
0000
0000
0010
0001
0000
11MM
0000
,  // measure 27
0000
0000
0101
0000
0000
1010
0000
0000
0101
0000
0000
0011
0000
0000
0110
0000
,  // measure 28
0000
0000
1001
0000
0000
1001
0000
0000
1010
0000
0000
1001
0000
0000
0011
0000
,  // measure 29
0000
0000
0011
0000
0000
0110
0000
0000
1100
0000
1000
0000
0100
0000
0010
0000
,  // measure 30
0002
0000
0000
0000
2003
0000
0000
0000
3020
0000
0000
0000
1030
0010
1000
0010
,  // measure 31
0100
0010
0100
0000
0010
0000
1000
0000
0100
0000
0001
0000
0100
0000
0010
0002
,  // measure 32
0000
2000
0000
0000
3003
0000
0000
0001
,  // measure 33
1000
0000
0010
0000
1000
0000
0100
0000
0010
0000
0100
0000
1000
0000
0010
0200
,  // measure 34
0000
0000
0301
0000
0000
0001
0000
0000
0001
1000
0000
0001
0000
1000
0001
0000
,  // measure 35
MMMM
0000
MMMM
0000
0110
0000
0100
0000
1000
0000
0100
0000
0010
0000
1000
0010
,  // measure 36
0000
0200
0000
0000
0300
0000
0010
0100
,  // measure 37
0001
0000
1000
0000
0100
0000
1000
0000
0010
0000
0100
0000
0001
0000
0010
0001
,  // measure 38
0000
0000
0100
0000
0000
0010
0000
0000
0100
0001
0000
0100
0000
0010
1000
0000
,  // measure 39
0001
0000
0001
0000
0010
0000
0010
0000
0100
0000
0100
0000
1000
0000
0010
1000
,  // measure 40
0010
0000
0010
0000
0100
0000
0100
0000
0001
0000
0001
0000
1000
0000
0001
0010
,  // measure 41
0010
0100
1000
0001
0100
0000
0100
0000
0001
0000
0001
0000
0010
0000
0010
0000
,  // measure 42
0100
0000
0010
0001
1000
0000
1000
0000
0100
0000
0100
0000
1000
0000
1000
0000
,  // measure 43
0010
0000
0100
0001
0020
0000
0000
0000
0130
0000
0000
0000
1100
0000
0000
0000
,  // measure 44
1000
0010
0101
0000
1000
0100
0001
0100
,  // measure 45
1000
0001
0100
2000
0000
3100
0010
2000
,  // measure 46
0000
0000
3100
0000
0010
0000
0002
0000
0000
0000
1003
0000
0000
1000
0000
0000
,  // measure 47
0010
0000
0000
0100
0001
0000
0020
0000
0100
0000
0000
0000
0130
0000
0010
0000
,  // measure 48
0011
0000
0000
0000
1010
0000
0000
0000
0011
0000
0001
0000
0000
0001
0000
0000
,  // measure 49
1000
0010
0001
0020
0000
0000
0130
0020
,  // measure 50
0000
0000
0000
0000
0000
0000
0000
0000
0000
0000
0000
0000
0130
0000
0000
0000
0000
0000
0020
0000
0000
0000
0000
0000
0100
0000
0100
0000
0100
0000
0130
0000
0000
0001
0000
0000
1001
0000
0000
0000
0000
0000
0110
0000
0000
0000
0000
0000
,  // measure 51
1001
0000
1010
0000
0000
1001
0000
0000
0011
0000
0000
1100
0000
0000
0101
0000
,  // measure 52
0000
0000
1001
0000
0000
1010
0000
0000
1001
0000
0000
0001
0100
0000
1M1M
0000
,  // measure 53
0000
0000
1100
0000
0000
0110
0000
0000
0011
0000
0001
0000
0010
0000
0100
0000
,  // measure 54
2000
0000
0000
0000
3002
0000
0000
0000
0203
0000
0000
0000
0310
1000
0001
0000
,  // measure 55
0000
0000
0010
0100
0010
0000
0000
0000
0010
0000
0001
1000
0001
0000
0000
0000
,  // measure 56
0000
0000
1001
0000
0000
1010
0000
1000
0001
0000
0000
0001
0200
0000
0000
0000
,  // measure 57
0000
0300
1010
0000
0000
0110
0000
0000
1010
0000
0000
1001
0000
0000
1100
0000
,  // measure 58
0000
0000
0101
0000
0000
1010
0000
0000
0101
0000
0010
0100
0010
0100
0010
0100
,  // measure 59
0010
0000
0000
0000
;

//---------------dance-single - ----------------
#NOTEDATA:;
#CHARTNAME:;
#STEPSTYPE:dance-single;
#DESCRIPTION:;
#CHARTSTYLE:;
#DIFFICULTY:Easy;
#METER:25;
#RADARVALUES:0.146616,0.246933,0.077166,0.030867,0.000000,133.000000,123.000000,10.000000,4.000000,0.000000,0.000000,0.000000,0.000000,0.000000,0.146616,0.246933,0.077166,0.030867,0.000000,133.000000,123.000000,10.000000,4.000000,0.000000,0.000000,0.000000,0.000000,0.000000;
#CREDIT:;
#NOTES:
// measure 0
0000
0000
0000
0000
,  // measure 1
0000
0000
0000
0000
,  // measure 2
0000
0000
0000
0000
,  // measure 3
0000
0000
0000
0000
,  // measure 4
0000
0000
0000
0000
,  // measure 5
0000
0000
0000
0000
,  // measure 6
0000
0000
0000
0000
,  // measure 7
0000
0000
0000
1000
,  // measure 8
0001
0000
0000
0000
,  // measure 9
1000
0001
1000
0010
,  // measure 10
0100
0010
1000
0001
,  // measure 11
1001
0000
0000
0001
,  // measure 12
1000
0000
0000
0000
,  // measure 13
0100
1000
0100
1000
,  // measure 14
0010
0100
0001
1000
,  // measure 15
1001
0000
0000
0000
,  // measure 16
0001
0000
0010
0010
,  // measure 17
0001
0000
0000
1000
,  // measure 18
0000
1000
0000
1000
,  // measure 19
0000
0000
0000
0010
,  // measure 20
0000
0000
0100
0100
,  // measure 21
0100
0000
0000
0001
,  // measure 22
0000
0001
0000
0001
,  // measure 23
0000
0000
1001
0110
,  // measure 24
1001
0000
0001
0000
,  // measure 25
1000
0000
0010
0000
,  // measure 26
1000
0000
0100
0000
,  // measure 27
1000
0000
0010
0100
,  // measure 28
0010
0000
0100
0000
,  // measure 29
0001
0000
0010
0000
,  // measure 30
0001
0000
1000
0000
,  // measure 31
0001
1000
0001
0000
,  // measure 32
0100
0000
0010
0000
,  // measure 33
2000
0000
3000
0000
,  // measure 34
0010
0000
1000
0000
,  // measure 35
0200
0000
0300
0000
,  // measure 36
0000
1001
0000
0001
,  // measure 37
0020
0000
0030
0000
,  // measure 38
0001
0000
0100
0000
,  // measure 39
0002
0000
0003
0000
,  // measure 40
1000
0010
0100
0001
,  // measure 41
1000
0000
0000
0000
,  // measure 42
0001
0010
0100
1000
,  // measure 43
0001
0000
0000
0000
,  // measure 44
0100
0010
1000
0001
,  // measure 45
0000
0000
0000
0000
,  // measure 46
1000
0100
0010
0001
,  // measure 47
1000
0000
0000
0000
,  // measure 48
0001
0000
0100
0010
,  // measure 49
0100
0000
0000
0001
,  // measure 50
0000
0001
0000
0001
,  // measure 51
0000
0000
0000
1000
,  // measure 52
0000
0000
0100
0100
,  // measure 53
0100
0000
0000
0010
,  // measure 54
0000
0010
0000
0010
,  // measure 55
0000
0000
1001
0110
,  // measure 56
1001
0000
1000
0000
,  // measure 57
0001
0001
0100
0000
,  // measure 58
0010
0000
1000
0000
,  // measure 59
0100
0100
0010
0000
,  // measure 60
0100
0000
1000
0000
,  // measure 61
0010
0010
0100
0000
,  // measure 62
0001
0000
1000
0000
,  // measure 63
0010
0000
0100
0000
,  // measure 64
1001
0000
0000
0000
;

//---------------dance-single - ----------------
#NOTEDATA:;
#CHARTNAME:;
#STEPSTYPE:dance-single;
#DESCRIPTION:;
#CHARTSTYLE:;
#DIFFICULTY:Medium;
#METER:50;
#RADARVALUES:0.261264,0.321012,0.200633,0.138900,0.007717,237.000000,211.000000,26.000000,18.000000,0.000000,0.000000,0.000000,0.000000,0.000000,0.261264,0.321012,0.200633,0.138900,0.007717,237.000000,211.000000,26.000000,18.000000,0.000000,0.000000,0.000000,0.000000,0.000000;
#CREDIT:;
#NOTES:
// measure 0
0000
0000
0000
0000
,  // measure 1
0000
0000
0000
0000
,  // measure 2
0000
0000
0000
0000
,  // measure 3
0000
0000
0000
0000
,  // measure 4
0000
0000
0000
0000
,  // measure 5
0000
0000
0000
0000
,  // measure 6
0000
0000
0000
0000
,  // measure 7
0000
0000
0000
1000
,  // measure 8
0001
0001
1000
1000
,  // measure 9
0010
0100
0010
0100
0010
0000
1000
0010
,  // measure 10
1000
0001
0010
0001
,  // measure 11
1001
0000
0000
1000
,  // measure 12
0001
0001
1000
1000
,  // measure 13
0001
0010
0100
1000
0001
0000
1000
0001
,  // measure 14
0100
0100
0010
0010
,  // measure 15
2002
0000
3003
0000
,  // measure 16
0110
0010
1010
0101
,  // measure 17
1010
0000
1000
0000
0001
0000
0010
0001
,  // measure 18
0000
0000
0010
0001
0000
0000
0010
0002
,  // measure 19
0000
0000
0003
0000
0000
0100
0001
0010
,  // measure 20
0100
0010
0011
1100
,  // measure 21
0011
0000
0001
0000
0100
0000
0010
1000
,  // measure 22
0000
0000
0010
1000
0000
0000
0010
1000
,  // measure 23
0000
0000
1001
0110
,  // measure 24
1001
0001
0010
0001
,  // measure 25
1000
0100
1000
0010
,  // measure 26
0100
0001
0010
0001
,  // measure 27
0100
0000
0010
0000
1000
0000
0001
1001
,  // measure 28
0000
1000
0001
0010
,  // measure 29
0001
0100
0010
1000
,  // measure 30
0100
1000
0010
0100
,  // measure 31
0002
2003
0002
3003
,  // measure 32
0001
1000
0010
0100
,  // measure 33
0202
0000
0303
0001
,  // measure 34
1000
0100
1000
0010
,  // measure 35
2020
0000
3030
0000
,  // measure 36
0000
1001
0001
0010
,  // measure 37
0220
0000
0330
0100
,  // measure 38
0010
0001
0100
0010
,  // measure 39
2020
0000
3030
1000
,  // measure 40
0001
0010
0100
1000
,  // measure 41
0001
0000
0000
0000
,  // measure 42
1000
0100
0010
0001
,  // measure 43
1000
0000
0010
0100
,  // measure 44
0010
1000
0010
0100
,  // measure 45
0001
0000
0000
0000
,  // measure 46
0010
0001
1000
0100
,  // measure 47
0020
0000
0000
0000
,  // measure 48
0130
0010
0001
1000
,  // measure 49
0001
0010
0100
1000
0001
0000
1000
0000
,  // measure 50
0010
1000
0010
1000
,  // measure 51
0010
0100
0001
1000
,  // measure 52
0100
1000
1010
0101
,  // measure 53
1010
0000
1000
0000
0010
0000
0100
0001
,  // measure 54
0000
0000
0100
0001
0000
0000
0100
0001
,  // measure 55
0000
0000
1001
0110
,  // measure 56
1001
0001
0010
0001
,  // measure 57
1000
0000
0100
0000
1000
0000
0010
0110
,  // measure 58
0000
0100
0010
1000
,  // measure 59
0002
2003
3200
1300
,  // measure 60
0010
0000
0100
0000
0001
1000
0001
0000
,  // measure 61
1000
0000
0010
0000
0100
0010
0100
0000
,  // measure 62
0010
0000
1000
0000
0001
0100
0001
1000
,  // measure 63
0000
0000
0001
0000
0000
0010
0000
0000
0100
0000
0000
1000
0000
0000
0001
0000
,  // measure 64
1001
0000
0000
0000
;

//---------------dance-single - ----------------
#NOTEDATA:;
#CHARTNAME:;
#STEPSTYPE:dance-single;
#DESCRIPTION:;
#CHARTSTYLE:;
#DIFFICULTY:Beginner;
#METER:15;
#RADARVALUES:0.087088,0.172853,0.046300,0.000000,0.000000,79.000000,73.000000,6.000000,0.000000,0.000000,0.000000,0.000000,0.000000,0.000000,0.087088,0.172853,0.046300,0.000000,0.000000,79.000000,73.000000,6.000000,0.000000,0.000000,0.000000,0.000000,0.000000,0.000000;
#CREDIT:;
#NOTES:
// measure 0
0000
0000
0000
0000
,  // measure 1
0000
0000
0000
0000
,  // measure 2
0000
0000
0000
0000
,  // measure 3
0000
0000
0000
0000
,  // measure 4
0000
0000
0000
0000
,  // measure 5
0000
0000
0000
0000
,  // measure 6
0000
0000
0000
0000
,  // measure 7
0000
0000
0000
0000
,  // measure 8
1000
0000
0000
0000
,  // measure 9
0001
0000
0001
0000
,  // measure 10
0001
0000
0000
0000
,  // measure 11
0100
0000
0000
0000
,  // measure 12
0010
0000
0000
0000
,  // measure 13
1000
0000
1000
0000
,  // measure 14
1000
0000
0000
0000
,  // measure 15
0110
0000
0000
0000
,  // measure 16
1000
0000
0000
0000
,  // measure 17
0100
0000
0000
0000
,  // measure 18
1000
0000
1000
0000
,  // measure 19
1000
0000
0000
0000
,  // measure 20
0001
0000
0000
0000
,  // measure 21
0100
0000
0000
0000
,  // measure 22
0010
0000
0010
0000
,  // measure 23
0010
0000
0100
0100
,  // measure 24
1001
0000
0000
0000
,  // measure 25
1000
0000
0000
0000
,  // measure 26
0001
0000
0000
0000
,  // measure 27
0010
0000
0000
0000
,  // measure 28
0001
0000
0000
0000
,  // measure 29
0100
0000
0000
0000
,  // measure 30
0010
0000
0000
0000
,  // measure 31
1000
1000
1000
0000
,  // measure 32
1001
0000
0001
0000
,  // measure 33
0001
0000
0000
0000
,  // measure 34
0100
0000
0100
0000
,  // measure 35
0100
0000
0000
0000
,  // measure 36
0000
1001
0000
0000
,  // measure 37
0010
0000
0000
0000
,  // measure 38
1000
0000
1000
0000
,  // measure 39
1000
0000
0000
0000
,  // measure 40
0010
0000
0000
0000
,  // measure 41
0000
0000
0000
0000
,  // measure 42
0100
0000
0000
0000
,  // measure 43
0000
0000
0001
0001
,  // measure 44
1000
0000
0000
0000
,  // measure 45
0001
0000
0000
0000
,  // measure 46
1000
0000
0001
0000
,  // measure 47
0100
0000
0000
0000
,  // measure 48
0010
0000
0000
0000
,  // measure 49
1000
0000
0000
0000
,  // measure 50
0001
0000
0001
0000
,  // measure 51
0001
0000
0000
0000
,  // measure 52
0010
0000
0000
0000
,  // measure 53
0001
0000
0000
0000
,  // measure 54
1000
0000
1000
0000
,  // measure 55
1000
0000
0001
0001
,  // measure 56
1001
0000
0000
0000
,  // measure 57
0100
0000
0000
0000
,  // measure 58
0010
0000
0000
0000
,  // measure 59
1000
0000
0000
0000
,  // measure 60
0100
0000
0000
0000
,  // measure 61
1000
0000
0000
0000
,  // measure 62
0001
0000
0000
0000
,  // measure 63
0100
0000
0000
0000
,  // measure 64
1001
0000
0000
0000
;
