#VERSION:0.83;
#TITLE:Crazy Shuffle;
#SUBTITLE:;
#ARTIST:Yooh;
#TITLETRANSLIT:;
#SUBTITLETRANSLIT:;
#ARTISTTRANSLIT:;
#GENRE:;
#ORIGIN:;
#CREDIT:;
#BANNER:Crazy Shuffle.png;
#BACKGROUND:Crazy Shuffle-bg.png;
#PREVIEWVID:;
#JACKET:Crazy Shuffle-jacket.png;
#CDIMAGE:;
#DISCIMAGE:;
#LYRICSPATH:;
#CDTITLE:;
#MUSIC:Crazy Shuffle.ogg;
#OFFSET:-3.592001;
#SAMPLESTART:97.341995;
#SAMPLELENGTH:15.000000;
#SELECTABLE:YES;
#BPMS:0.000=128.000;
#STOPS:;
#DELAYS:;
#WARPS:;
#TIMESIGNATURES:0.000=4=4;
#TICKCOUNTS:0.000=4;
#COMBOS:0.000=1;
#SPEEDS:0.000=1.000=0.000=0;
#SCROLLS:0.000=1.000;
#FAKES:;
#LABELS:0.000=Song Start;
#BGCHANGES:;
#KEYSOUNDS:;
#ATTACKS:
;

//---------------dance-single - ----------------
#NOTEDATA:;
#CHARTNAME:;
#STEPSTYPE:dance-single;
#DESCRIPTION:;
#CHARTSTYLE:;
#DIFFICULTY:Hard;
#METER:65;
#RADARVALUES:0.368506,0.434449,0.175696,0.151738,0.063890,323.000000,301.000000,22.000000,19.000000,0.000000,0.000000,0.000000,0.000000,0.000000,0.368506,0.434449,0.175696,0.151738,0.063890,323.000000,301.000000,22.000000,19.000000,0.000000,0.000000,0.000000,0.000000,0.000000;
#CREDIT:;
#NOTES:
// measure 0
0000
0000
0000
0000
,  // measure 1
0000
0000
0000
0000
,  // measure 2
0000
0000
0000
0000
,  // measure 3
0000
0000
0000
0000
0000
0000
0001
0100
,  // measure 4
0002
0000
0010
0013
0000
0000
0100
1000
,  // measure 5
0020
0000
0030
0000
0000
0000
0100
0010
,  // measure 6
2000
0000
0100
3100
0000
0000
1000
0001
,  // measure 7
0100
0000
0100
0000
0100
0000
0100
0010
,  // measure 8
1000
0000
0000
0001
0000
0000
0100
0000
0000
0001
0000
0000
1000
0000
0100
0000
,  // measure 9
0010
0000
0000
0100
0000
0000
1000
0000
0000
0010
0000
0000
0100
0000
0010
0000
,  // measure 10
1000
0000
0000
0001
0000
0000
0010
0000
0000
0100
0000
0000
0010
0000
0001
0000
,  // measure 11
0100
0000
0100
0000
0100
0000
0100
0010
,  // measure 12
1001
0000
0001
1000
0001
0000
1000
0001
,  // measure 13
1001
0000
0001
1000
0001
0000
1000
0001
,  // measure 14
0100
0010
0100
0010
0100
0010
0100
0010
,  // measure 15
0200
0000
0000
0300
,  // measure 16
0001
0100
1000
0000
0100
0000
0010
0000
,  // measure 17
1000
0010
0001
0000
0010
0000
0100
0000
,  // measure 18
0001
0010
1000
0000
0010
0000
0001
0000
,  // measure 19
0100
1000
0001
0000
0010
0000
1001
0000
,  // measure 20
1000
0001
0010
0000
0100
0000
0010
0000
,  // measure 21
0001
1000
0010
0000
0100
0000
0001
0000
,  // measure 22
2000
0000
0001
3001
0000
0000
1000
0100
,  // measure 23
0010
0010
0010
0010
,  // measure 24
0000
0000
1001
0001
0100
0000
0001
0000
,  // measure 25
1000
0001
0010
0000
0100
0000
0010
0000
,  // measure 26
0001
0100
1000
0000
0100
0000
0010
0000
,  // measure 27
1000
0010
0100
0000
0001
0000
1010
0000
,  // measure 28
0001
0010
1000
0000
0010
0000
0001
0000
,  // measure 29
0100
0010
1000
0001
2000
0000
3010
0000
,  // measure 30
0200
0000
0001
0301
0000
0000
0010
0100
,  // measure 31
1000
1000
1000
1000
,  // measure 32
0201
0000
0000
0000
,  // measure 33
0310
0000
0000
1000
0000
0000
0100
0000
0000
1000
0000
0000
0001
0000
0010
0000
,  // measure 34
0100
0000
0000
0010
0000
0000
0001
0000
0000
0100
0000
0000
0010
0000
1000
0000
,  // measure 35
0001
0000
0001
0000
0001
0000
0001
1000
,  // measure 36
0010
0000
0000
1000
0000
0000
0010
0000
0000
0100
0000
0000
0010
0000
1000
0000
,  // measure 37
0100
0000
0000
0010
0000
0000
0001
0000
0000
0010
0000
0000
0001
0000
0010
0000
,  // measure 38
0100
0000
0000
0010
0000
0000
0001
0000
0000
0100
0000
0000
0010
0000
1000
0000
,  // measure 39
1001
0110
1001
0110
,  // measure 40
2000
0000
0000
3000
,  // measure 41
0002
0000
0010
0013
0000
0000
0000
0000
,  // measure 42
0200
0000
1000
1300
0000
0000
0000
0000
,  // measure 43
2000
0000
0010
3010
0000
0000
0000
0000
,  // measure 44
0200
0000
0301
1000
0020
0000
1030
0001
,  // measure 45
0200
0000
0301
1000
0020
0000
1030
0001
,  // measure 46
0100
0010
0100
0010
0100
0010
0100
0010
,  // measure 47
0100
0001
0010
1000
0010
0001
1000
0000
,  // measure 48
1001
0000
0110
0000
,  // measure 49
1001
1001
1001
0110
,  // measure 50
1001
1000
0100
0000
1000
0000
0010
0000
,  // measure 51
0100
0001
0010
0000
0100
0000
0011
0000
,  // measure 52
0001
1000
0100
0000
1000
0000
0010
0000
,  // measure 53
0100
0010
1000
0000
0001
0000
1000
0000
,  // measure 54
0001
1000
0001
0000
0100
0000
0010
1000
,  // measure 55
0100
0100
0100
0100
,  // measure 56
0010
0100
1000
0010
0100
0000
0001
0000
,  // measure 57
1000
0001
0010
0100
0010
0000
1001
0000
,  // measure 58
0001
0100
0001
0010
0100
0000
0010
0000
,  // measure 59
0001
1000
0010
0100
0010
0000
1001
0000
,  // measure 60
1000
0010
0100
0010
1000
0000
0100
0000
,  // measure 61
0010
0001
0100
0010
0200
0000
0320
0000
,  // measure 62
2030
0000
0001
3001
0000
0000
1000
0001
,  // measure 63
0100
0100
0100
0110
,  // measure 64
1001
0000
0000
0000
;

//---------------dance-single - ----------------
#NOTEDATA:;
#CHARTNAME:;
#STEPSTYPE:dance-single;
#DESCRIPTION:;
#CHARTSTYLE:;
#DIFFICULTY:Challenge;
#METER:90;
#RADARVALUES:0.515680,0.608548,0.327434,0.471186,0.371358,452.000000,411.000000,41.000000,59.000000,16.000000,0.000000,0.000000,0.000000,0.000000,0.515680,0.608548,0.327434,0.471186,0.371358,452.000000,411.000000,41.000000,59.000000,16.000000,0.000000,0.000000,0.000000,0.000000;
#CREDIT:;
#OFFSET:-3.592001;
#BPMS:0.000000=128.000000
;
#STOPS:193.000000=0.234375
,194.500000=0.234375
,195.000000=0.234375
,195.500000=0.234375
;
#DELAYS:;
#WARPS:;
#TIMESIGNATURES:0.000000=4=4
;
#TICKCOUNTS:0.000000=4
;
#COMBOS:0.000000=1
;
#SPEEDS:0.000000=1.000000=0.000000=0
;
#SCROLLS:0.000000=1.000000
;
#FAKES:;
#LABELS:0.000000=Song Start
;
#NOTES:
// measure 0
0000
0000
0000
0000
,  // measure 1
0000
0000
0000
0000
,  // measure 2
0000
0000
0000
0000
,  // measure 3
0000
0000
0000
0000
0000
0000
1000
0001
,  // measure 4
0020
0000
0100
0130
0000
0000
0010
0001
,  // measure 5
0200
0000
0300
0000
0000
0000
0010
1000
,  // measure 6
0002
0000
1000
1003
0000
0000
0100
0010
,  // measure 7
0002
0000
0000
0003
0002
0000
0000
0003
0002
0000
0000
0003
0001
0000
0010
0000
,  // measure 8
0100
0000
0000
0100
0000
0000
0010
0000
0000
0010
0000
0000
0100
0000
1000
0000
,  // measure 9
0010
0000
0000
0010
0000
0000
0100
0000
0000
0100
0000
0000
0010
0000
0100
0000
,  // measure 10
0001
0000
0000
0001
0000
0000
1000
0000
0000
1000
0000
0000
0001
0000
0010
0000
,  // measure 11
0200
0000
0000
0300
0200
0000
0000
0300
0200
0000
0000
0300
0010
0000
0001
0000
,  // measure 12
1001
0000
0001
0100
1010
0000
1000
0100
,  // measure 13
0011
0000
0001
0100
1010
0000
1000
0100
,  // measure 14
0011
0001
1000
1000
0010
0010
0100
0100
,  // measure 15
0000
0000
0010
0000
0100
0000
0001
1000
0000
0000
0100
0000
0000
0000
0000
0000
,  // measure 16
0001
0000
1000
0001
0000
0000
0010
0000
0000
0100
0000
0000
0010
0000
0000
0001
0000
0100
0000
0000
0010
0000
0000
0100
,  // measure 17
0000
0000
0010
1000
0000
0000
0100
0000
0000
1000
0000
0000
0001
0000
0000
0100
0000
0001
0000
0000
1000
0000
0000
0000
,  // measure 18
0100
0000
0010
0001
0000
0000
1000
0000
0000
0010
0000
0000
0100
0000
0000
0010
0000
1000
0000
0000
0001
0000
0000
0010
,  // measure 19
0000
0000
0100
1000
0000
0000
0100
0000
0000
0010
0000
0000
0100
0000
0000
0000
0000
0000
2MM2
0000
3003
0000
0000
0000
,  // measure 20
0001
0000
1000
0010
0000
0000
0100
0000
0000
0010
0000
0000
1000
0000
0000
0100
0000
1000
0000
0000
0001
0000
0000
0100
,  // measure 21
0000
0000
0010
1000
0000
0000
0001
0000
0000
0010
0000
0000
0100
0000
0000
0010
0000
0001
0000
0000
1000
0010
0000
0000
,  // measure 22
0210
0000
0010
0310
0000
0000
0100
0010
,  // measure 23
2000
0000
0000
3000
2000
0000
0000
3000
2000
0000
0000
3000
2000
0000
0000
3000
,  // measure 24
0001
0000
0000
1000
0000
0000
M11M
0000
0000
0100
0000
0000
0001
0000
0000
0010
0000
0100
0000
0000
1000
0000
0000
0100
,  // measure 25
0000
0000
1000
0010
0000
0000
0100
0000
0000
0010
0000
0000
1000
0000
0000
0001
0000
0010
0000
0000
0100
0000
0000
0000
,  // measure 26
0010
0000
0001
0100
0000
0000
0010
0000
0000
1000
0000
0000
0001
0000
0000
0010
0000
0001
0000
0000
1000
0000
0000
0010
,  // measure 27
0000
0000
0000
0000
0000
0000
0000
0000
0000
0000
0000
0000
0000
0000
0000
0000
0100
0000
0000
0000
0000
0000
0000
0000
0010
0000
0000
0000
0000
0000
0000
0000
0000
0000
0000
0000
0000
0000
0000
0000
0000
0000
0000
0000
0000
0000
0000
0000
1000
0000
0000
0000
0000
0000
0000
0000
0000
0000
0000
0000
0000
0000
0000
0000
0000
0000
0000
0000
0000
0000
0000
0000
0100
0000
0000
0000
0000
0000
0000
0000
0000
0000
0000
0000
0000
0000
0000
0000
0000
0000
0000
0000
0000
0000
0000
0000
1000
0000
0000
0000
0000
0000
0000
0000
0000
0000
0000
0000
0000
0000
0000
0000
0000
0000
0000
0000
0000
0000
0000
0000
0001
0000
0000
0000
0000
0000
0100
0000
0000
0000
0000
0000
0001
0000
0000
0000
0000
0000
0100
0000
0000
0000
0000
0000
0002
0000
0000
0000
0000
0000
0000
0000
0000
0000
0000
0000
0000
0000
0000
0000
0000
0000
0000
0000
0000
0000
0000
0000
0003
0000
0000
0000
0000
0000
0000
0000
0000
0000
0000
0000
0000
0000
0000
0000
0000
0000
0000
0000
0000
0000
0000
0000
,  // measure 28
1000
0000
0010
0100
0000
0000
0010
0000
0000
1000
0000
0000
0001
0000
0000
0010
0000
0100
0000
0000
0010
0000
0000
0001
,  // measure 29
0000
0000
1000
0010
0000
0000
1000
0000
0000
0010
0000
0000
0001
0000
0000
0020
0000
0000
0100
0000
0000
0130
0000
0000
,  // measure 30
1002
0000
0010
0013
0000
0000
0100
1000
,  // measure 31
0020
0000
0000
0030
0020
0000
0000
0030
0020
0000
0000
0030
1001
0000
0000
0000
,  // measure 32
0120
0000
1000
1000
0000
0000
0100
0130
,  // measure 33
0110
0000
0000
0010
0000
0000
1000
0000
0000
0001
0000
0000
0010
0000
0001
0000
,  // measure 34
0200
0000
0000
0301
0000
0000
1000
0000
0000
0001
0000
0000
0010
0000
0100
0000
,  // measure 35
0020
0000
0000
0000
0000
0000
0000
0000
0000
0030
0000
0000
0020
0000
0000
0000
0000
0000
0000
0000
0000
0030
0000
0000
0020
0000
0000
0000
0000
0000
0000
0000
0000
0030
0000
0000
0100
0000
0000
0000
0100
0000
0010
0000
0000
0000
0010
0000
,  // measure 36
0001
0000
0000
1000
0000
0000
0001
0000
0000
0100
0000
0000
0010
0000
1000
0000
,  // measure 37
0200
0000
0000
1300
0000
0000
0010
0000
0000
0100
0000
0000
0001
0000
1000
0000
,  // measure 38
0200
0000
0000
1300
0000
0000
0010
0000
0000
0100
0000
0000
0001
0000
1000
0000
,  // measure 39
1020
0000
0000
0030
0021
0000
0000
0030
1020
0000
0000
0030
0021
0000
0001
0030
,  // measure 40
1020
0000
0100
0130
0000
0000
0100
0010
,  // measure 41
1002
0000
0010
0013
0000
0000
0010
0100
,  // measure 42
2100
0000
0010
3010
0000
0000
0100
0010
,  // measure 43
0102
0000
0010
0013
0000
0000
0100
0010
,  // measure 44
2001
0000
3001
1000
1M2M
0000
1030
0001
,  // measure 45
M2M1
0000
0301
1000
1M2M
0000
1030
0001
,  // measure 46
M2M1
0000
0000
0000
0000
0000
0301
0000
0000
1000
0000
0000
0001
0000
1000
0001
0000
0001
1000
0000
1000
0001
0000
0001
,  // measure 47
1000
0100
0001
0010
0100
1000
1001
0000
,  // measure 48
0001
0000
1000
0010
0000
0000
0100
0000
0000
0001
0000
1000
0010
0000
0000
0100
0000
0000
1001
0000
0000
1001
0000
0000
,  // measure 49
1001
0000
0000
0010
0000
0000
0010
0000
0000
0000
0000
0000
1000
0000
0001
0010
0000
0000
0100
0000
0000
0010
0000
0000
,  // measure 50
0001
0000
0000
1000
0000
0010
0000
0000
0001
0000
0000
0010
0000
0000
0100
0001
0000
0000
0010
0000
0000
0001
0000
0000
,  // measure 51
0100
0000
0000
0000
0000
0000
0000
0000
0000
0000
0000
0000
2M2M
0000
0000
3030
0000
0000
0000
0000
0000
0000
0000
0000
1000
0000
0000
0000
0100
0000
0010
0000
0000
0000
0000
0000
0100
0000
0000
0000
0000
0000
1000
0000
0000
0000
0000
0000
,  // measure 52
0001
0000
0000
0100
0000
0001
0000
0000
0010
0000
0000
0100
0000
0000
0010
0001
0000
0000
1000
0000
0000
0010
0000
0000
,  // measure 53
0100
0000
0000
0001
0000
0100
0000
0000
0010
1000
0000
0000
1200
0000
0000
0000
0000
0000
0010
0000
0000
0310
0000
0000
,  // measure 54
0000
0000
0000
0000
0100
0000
0010
0000
2002
0000
0000
3000
0020
0000
0000
0030
,  // measure 55
2000
0000
0000
0000
0000
0000
0000
0000
0000
3000
0000
0000
0023
0000
0000
0000
0000
0000
0000
0000
0000
0000
0000
0000
0130
0000
0000
0000
0100
0000
0010
0000
0000
0000
0000
0000
0001
0000
0000
0000
0000
0000
0100
0000
0000
0000
0000
0000
,  // measure 56
1000
0000
0000
0100
0000
0010
0000
0000
1000
0000
0000
0001
0000
0000
0001
1000
0000
0000
0100
0000
0000
1000
0000
0000
,  // measure 57
0010
0000
0000
0100
0000
0020
0000
0000
0000
0030
0000
0000
1000
0000
1000
0010
0000
0000
0100
0000
0000
0001
0000
0000
,  // measure 58
0010
0000
0000
0100
0000
0010
0000
0000
0100
0000
0000
1000
0000
0000
0001
0100
0000
0000
0010
0000
0000
1000
0000
0000
,  // measure 59
0100
0000
0000
0000
0000
0000
MM22
0000
0033
0000
0000
0000
1001
0000
0001
0100
0000
0000
0010
0000
0000
1000
0000
0000
,  // measure 60
0100
0000
0000
0010
0000
0100
0000
0000
1000
0000
0000
1000
0001
0000
0001
1000
0000
0000
1010
0000
0000
0001
0000
0000
,  // measure 61
0021
0000
0000
0230
0000
0000
1300
0000
1000
0000
0001
0000
2000
0000
0000
0000
0000
0000
0100
0000
0000
3100
0000
0000
,  // measure 62
0000
0000
0000
0000
0010
0000
0001
0000
0201
0000
0000
0300
1200
0000
0000
0300
,  // measure 63
0201
0000
0000
0300
1001
0000
0000
0000
0110
0000
0000
0000
0000
0000
0000
0000
;

//---------------dance-single - ----------------
#NOTEDATA:;
#CHARTNAME:;
#STEPSTYPE:dance-single;
#DESCRIPTION:;
#CHARTSTYLE:;
#DIFFICULTY:Medium;
#METER:50;
#RADARVALUES:0.341125,0.408893,0.095834,0.127779,0.000000,299.000000,287.000000,12.000000,16.000000,0.000000,0.000000,0.000000,0.000000,0.000000,0.341125,0.408893,0.095834,0.127779,0.000000,299.000000,287.000000,12.000000,16.000000,0.000000,0.000000,0.000000,0.000000,0.000000;
#CREDIT:;
#NOTES:
// measure 0
0000
0000
0000
0000
,  // measure 1
0000
0000
0000
0000
,  // measure 2
0000
0000
0000
0000
,  // measure 3
0000
0000
0000
0000
0000
0000
0001
1000
,  // measure 4
0002
0000
1003
0010
0000
0000
1000
0010
,  // measure 5
0200
0000
0300
0000
0000
0000
0010
0100
,  // measure 6
0002
0000
0013
0100
0000
0000
0010
0001
,  // measure 7
1000
0000
1000
0000
1000
0000
1000
0001
,  // measure 8
0200
0000
0310
1000
0000
0000
0100
0010
,  // measure 9
0002
0000
0003
0000
0000
0000
0010
0100
,  // measure 10
2000
0000
3100
1000
0000
0000
0100
1000
,  // measure 11
0010
0000
0010
0000
0010
0000
0100
0001
,  // measure 12
1000
0000
0001
1000
0010
0000
1000
0001
,  // measure 13
1000
0000
0001
1000
0010
0000
1000
0001
,  // measure 14
1000
1000
1000
1000
,  // measure 15
0000
0100
0010
0001
0100
0010
0000
0000
,  // measure 16
0100
0010
0100
0000
0010
0000
1000
0000
,  // measure 17
0001
0010
0001
0000
0010
0000
0001
0000
,  // measure 18
1000
0010
1000
0000
0010
0000
0100
0000
,  // measure 19
0001
1000
0001
0000
0100
0000
1001
0000
,  // measure 20
0010
1000
0010
0000
0100
0000
0001
0000
,  // measure 21
1000
0100
1000
0000
0010
0000
0100
0000
,  // measure 22
0001
0000
1000
0010
0000
0000
0100
0010
,  // measure 23
1000
1000
1000
1000
,  // measure 24
0000
0000
0101
0001
0100
0000
0010
0000
,  // measure 25
1000
0010
0100
0000
0010
0000
1000
0000
,  // measure 26
0001
0010
0100
0000
0010
0000
0001
0000
,  // measure 27
1000
0010
0100
0000
0010
0000
1001
0000
,  // measure 28
0001
1000
0100
0000
1000
0000
0010
0000
,  // measure 29
0100
0001
0100
0001
0100
0000
0000
0000
,  // measure 30
0001
0000
1000
0100
0000
0000
0010
0100
,  // measure 31
1000
1000
1000
1000
,  // measure 32
0002
0000
0000
0000
0000
0000
0103
0001
,  // measure 33
0200
0000
0310
0000
1000
0000
0010
0100
,  // measure 34
0002
0000
1003
0000
0100
0000
1000
0010
,  // measure 35
0100
0000
0100
0000
0100
0000
0100
0010
,  // measure 36
2000
0000
3100
1000
0010
0000
0100
0010
,  // measure 37
2000
0000
3010
0000
0100
0000
0001
1000
,  // measure 38
0020
0000
0130
0001
1000
0000
0100
1000
,  // measure 39
0010
0010
0010
0010
,  // measure 40
1002
0000
0000
1000
,  // measure 41
2003
0000
0000
0001
,  // measure 42
3002
0000
0000
1000
,  // measure 43
2003
0000
0000
0001
,  // measure 44
3001
0000
1000
0001
1000
0000
0001
1000
,  // measure 45
0001
0000
1000
0001
1000
0000
0001
1000
,  // measure 46
0001
1001
0110
1001
,  // measure 47
0001
0100
0010
1000
0001
0100
0010
0000
,  // measure 48
1000
0001
1000
0000
1000
0001
1000
0000
,  // measure 49
0010
0000
0010
0000
0010
0100
0010
0000
,  // measure 50
1000
0010
0100
0000
0010
0000
1000
0000
,  // measure 51
0001
0010
0100
0000
0010
0000
1001
0000
,  // measure 52
0001
0100
0010
0000
0100
0000
0001
0000
,  // measure 53
1000
0100
0010
0000
0100
0000
1000
0000
,  // measure 54
0010
0100
0001
0000
1000
0000
0001
0100
,  // measure 55
0010
0010
0010
0010
,  // measure 56
1000
0001
1000
0000
0001
0000
0100
0001
,  // measure 57
0010
0100
0010
1001
,  // measure 58
0001
1000
0010
0000
1000
0000
0100
0000
,  // measure 59
1000
0010
0100
0000
0001
0000
1001
0000
,  // measure 60
0001
1000
0010
0000
1000
0000
0001
0000
,  // measure 61
0100
0001
0010
0100
0010
0000
0000
0000
,  // measure 62
0100
0000
1000
0010
0000
0000
0100
0001
,  // measure 63
1000
1000
1000
1001
,  // measure 64
0110
0000
0000
0000
;

//---------------dance-single - ----------------
#NOTEDATA:;
#CHARTNAME:;
#STEPSTYPE:dance-single;
#DESCRIPTION:;
#CHARTSTYLE:;
#DIFFICULTY:Easy;
#METER:30;
#RADARVALUES:0.227036,0.306670,0.111807,0.007986,0.000000,199.000000,185.000000,14.000000,1.000000,0.000000,0.000000,0.000000,0.000000,0.000000,0.227036,0.306670,0.111807,0.007986,0.000000,199.000000,185.000000,14.000000,1.000000,0.000000,0.000000,0.000000,0.000000,0.000000;
#CREDIT:;
#NOTES:
// measure 0
0000
0000
0000
0000
,  // measure 1
0000
0000
0000
0000
,  // measure 2
0000
0000
0000
0000
,  // measure 3
0000
0000
0000
0000
,  // measure 4
1000
0000
0000
0001
,  // measure 5
1000
0000
0000
0001
,  // measure 6
1000
0000
0000
0001
,  // measure 7
1000
1000
1000
0010
,  // measure 8
0100
0000
0000
0010
,  // measure 9
0100
0000
0000
0010
,  // measure 10
1000
0000
0000
1000
,  // measure 11
0001
0001
0001
1000
,  // measure 12
0001
0000
0001
0000
,  // measure 13
1000
0000
1000
0000
,  // measure 14
0010
0000
0100
0000
,  // measure 15
0010
0000
0000
0000
,  // measure 16
1000
0001
0010
0001
,  // measure 17
1000
0010
1000
0001
,  // measure 18
1000
0100
1000
0010
,  // measure 19
0100
0001
0010
1001
,  // measure 20
0001
1000
0100
1000
,  // measure 21
0010
0100
0010
0100
,  // measure 22
0001
1000
0010
1000
,  // measure 23
0100
0100
0100
0100
,  // measure 24
0000
1001
1000
0001
,  // measure 25
0010
0001
0100
0001
,  // measure 26
1000
0100
1000
0010
,  // measure 27
0100
0001
1000
1001
,  // measure 28
0001
1000
0010
1000
,  // measure 29
0001
0010
0100
0000
,  // measure 30
0010
0001
1000
0001
,  // measure 31
0100
0100
0100
0100
,  // measure 32
0020
0000
0000
1030
,  // measure 33
1001
0000
0000
0001
,  // measure 34
1000
0000
0000
0010
,  // measure 35
0100
0100
0100
0010
,  // measure 36
1000
0000
0000
0100
,  // measure 37
0010
0000
0000
0100
,  // measure 38
1000
0000
0000
0001
,  // measure 39
0100
0100
0100
0100
,  // measure 40
0010
0000
0000
0000
,  // measure 41
1000
0000
0000
0000
,  // measure 42
0001
0000
0000
0000
,  // measure 43
0100
0000
0000
0000
,  // measure 44
0010
0000
1000
0000
,  // measure 45
0010
0000
0100
0000
,  // measure 46
0001
0000
1000
0000
,  // measure 47
0001
0001
0001
1001
,  // measure 48
0110
0000
1001
0000
,  // measure 49
0110
0010
0010
1001
,  // measure 50
0110
0010
1000
0010
,  // measure 51
0100
0001
0010
1001
,  // measure 52
1000
0001
0100
0010
,  // measure 53
1000
0100
1000
0001
,  // measure 54
0100
0001
0010
0100
,  // measure 55
0010
0010
0010
0010
,  // measure 56
0100
0010
0001
1000
,  // measure 57
0010
0100
0001
1001
,  // measure 58
1000
0001
0100
0001
,  // measure 59
0010
0100
1000
1001
,  // measure 60
1000
0010
1000
0100
,  // measure 61
0010
0001
1000
0000
,  // measure 62
0001
0100
0010
1000
,  // measure 63
0001
0001
0001
1000
,  // measure 64
1001
0000
0000
0000
;

//---------------dance-single - ----------------
#NOTEDATA:;
#CHARTNAME:;
#STEPSTYPE:dance-single;
#DESCRIPTION:;
#CHARTSTYLE:;
#DIFFICULTY:Beginner;
#METER:20;
#RADARVALUES:0.101539,0.204447,0.047917,0.000000,0.000000,89.000000,83.000000,6.000000,0.000000,0.000000,0.000000,0.000000,0.000000,0.000000,0.101539,0.204447,0.047917,0.000000,0.000000,89.000000,83.000000,6.000000,0.000000,0.000000,0.000000,0.000000,0.000000,0.000000;
#CREDIT:;
#NOTES:
// measure 0
0000
0000
0000
0000
,  // measure 1
0000
0000
0000
0000
,  // measure 2
0000
0000
0000
0000
,  // measure 3
0000
0000
0000
0000
,  // measure 4
1000
0000
0000
0000
,  // measure 5
1000
0000
0000
0000
,  // measure 6
0001
0000
0000
0000
,  // measure 7
0001
0000
0001
0000
,  // measure 8
0100
0000
0000
0000
,  // measure 9
0010
0000
0000
0000
,  // measure 10
1000
0000
0000
0000
,  // measure 11
0001
0000
0001
0000
,  // measure 12
0001
0000
0000
0000
,  // measure 13
1000
0000
0000
0000
,  // measure 14
0010
0000
0100
0000
,  // measure 15
0010
0000
0000
0000
,  // measure 16
1001
0000
0000
0000
,  // measure 17
1000
0000
0000
0000
,  // measure 18
0010
0000
0000
0000
,  // measure 19
0100
0000
0000
0001
,  // measure 20
1000
0000
0000
0000
,  // measure 21
0001
0000
0000
0000
,  // measure 22
0100
0000
0000
0000
,  // measure 23
0010
0000
0010
0000
,  // measure 24
0010
1000
0000
0000
,  // measure 25
0001
0000
0000
0000
,  // measure 26
0100
0000
0000
0000
,  // measure 27
0010
0000
0000
0100
,  // measure 28
0010
0000
0000
0000
,  // measure 29
1000
1000
1000
0000
,  // measure 30
0001
0000
0000
0000
,  // measure 31
1000
0000
1000
0000
,  // measure 32
0010
0000
0000
0000
,  // measure 33
0110
0000
0000
0000
,  // measure 34
0100
0000
0000
0000
,  // measure 35
0010
0000
0000
0000
,  // measure 36
1000
0000
0000
0000
,  // measure 37
0001
0000
0000
0000
,  // measure 38
1000
0000
0000
0000
,  // measure 39
0100
0000
0000
0000
,  // measure 40
1001
0000
0000
0000
,  // measure 41
0000
0000
0000
0000
,  // measure 42
1001
0000
0000
0000
,  // measure 43
0000
0000
0000
0000
,  // measure 44
1000
0000
1000
0000
,  // measure 45
1000
0000
1000
0000
,  // measure 46
0001
0000
0001
0000
,  // measure 47
0100
0100
0100
1001
,  // measure 48
0010
0000
0010
0000
,  // measure 49
0100
0100
0100
0000
,  // measure 50
0010
0000
0000
0000
,  // measure 51
1000
0000
0000
0000
,  // measure 52
0001
0000
0000
0000
,  // measure 53
0010
0000
0000
0000
,  // measure 54
0001
0000
0000
0000
,  // measure 55
1000
0000
1000
0000
,  // measure 56
0010
0000
0000
0000
,  // measure 57
0100
0000
0000
0000
,  // measure 58
0001
0000
0000
0000
,  // measure 59
1000
0000
0000
0100
,  // measure 60
1000
0000
0000
0000
,  // measure 61
0010
0010
0010
0000
,  // measure 62
0100
0000
0000
0000
,  // measure 63
0001
0000
0001
0000
,  // measure 64
1001
0000
0000
0000
;
