#VERSION:0.83;
#TITLE:Crab Rave;
#SUBTITLE:;
#ARTIST:Noisestorm;
#TITLETRANSLIT:;
#SUBTITLETRANSLIT:;
#ARTISTTRANSLIT:;
#GENRE:;
#ORIGIN:;
#CREDIT:;
#BANNER:Crab Rave.png;
#BACKGROUND:Crab Rave-bg.png;
#PREVIEWVID:;
#JACKET:Crab Rave-jacket.png;
#CDIMAGE:;
#DISCIMAGE:;
#LYRICSPATH:;
#CDTITLE:cdtitle.png;
#MUSIC:Crab Rave.ogg;
#OFFSET:-0.006000;
#SAMPLESTART:30.726002;
#SAMPLELENGTH:15.360001;
#SELECTABLE:YES;
#BPMS:0.000=125.000;
#STOPS:;
#DELAYS:;
#WARPS:;
#TIMESIGNATURES:0.000=4=4;
#TICKCOUNTS:0.000=4;
#COMBOS:0.000=1;
#SPEEDS:0.000=1.000=0.000=0;
#SCROLLS:0.000=1.000;
#FAKES:;
#LABELS:0.000=Song Start;
#BGCHANGES:;
#KEYSOUNDS:;
#ATTACKS:
;

//---------------dance-single - ----------------
#NOTEDATA:;
#CHARTNAME:;
#STEPSTYPE:dance-single;
#DESCRIPTION:;
#CHARTSTYLE:;
#DIFFICULTY:Hard;
#METER:65;
#RADARVALUES:0.325727,0.395688,0.115335,0.079847,0.177439,257.000000,244.000000,13.000000,9.000000,0.000000,0.000000,0.000000,0.000000,0.000000,0.325727,0.395688,0.115335,0.079847,0.177439,257.000000,244.000000,13.000000,9.000000,0.000000,0.000000,0.000000,0.000000,0.000000;
#CREDIT:;
#NOTES:
// measure 0
0000
0000
0000
0000
,  // measure 1
0000
0000
0000
0000
,  // measure 2
0000
0000
0000
0000
,  // measure 3
0000
0000
0000
0000
,  // measure 4
1000
0000
0001
0000
1000
0001
1000
0000
,  // measure 5
0010
0000
0100
0000
0010
0100
0010
0000
,  // measure 6
0100
0000
0001
0000
0100
0001
0100
0000
,  // measure 7
0010
0000
1000
0000
0010
1000
0010
0000
,  // measure 8
1001
1000
0001
0100
,  // measure 9
0001
0010
1000
0010
,  // measure 10
1001
1000
0001
0010
,  // measure 11
0001
1000
0010
0001
,  // measure 12
1000
0100
0001
0101
,  // measure 13
0001
0100
1000
1010
,  // measure 14
0010
0100
0010
0100
0010
0100
0010
0100
,  // measure 15
0000
1001
0000
0110
0000
1001
0000
0000
,  // measure 16
0001
0000
1000
0000
0010
0000
0000
1000
0000
0000
0001
0000
0100
0000
0000
0010
,  // measure 17
0000
0000
1000
0000
0100
0000
0000
1000
0000
0001
0000
1000
0000
0000
0010
0000
,  // measure 18
0100
0000
0001
0000
0010
0000
0000
0100
0000
0000
1000
0000
0001
0000
0000
0100
,  // measure 19
0000
0000
0010
0000
1000
0000
0000
0001
0000
0010
0000
0001
0000
0000
0100
0000
,  // measure 20
0010
0000
1000
0000
0100
0000
0000
0010
0000
0000
0100
0000
1000
0000
0000
0001
,  // measure 21
0000
0000
0100
0000
0001
0000
0000
0010
0000
0010
0000
0100
0000
0000
0010
0000
,  // measure 22
0001
0000
1000
0000
0010
0000
0000
0100
0000
0000
0001
0000
1000
0000
0000
0100
,  // measure 23
0000
0000
0010
0000
0100
0000
0000
1000
0000
1000
0000
0001
0000
0000
0100
0000
,  // measure 24
0020
0000
1000
0000
,  // measure 25
0100
0000
2000
3030
,  // measure 26
0002
0000
1000
0000
,  // measure 27
0100
0000
2000
3003
,  // measure 28
0002
0000
0100
0000
,  // measure 29
0010
0000
0200
0303
,  // measure 30
0020
0000
1000
0000
,  // measure 31
0100
0000
2000
3030
,  // measure 32
0101
0001
0010
0010
,  // measure 33
0001
0000
1000
0000
0100
0000
0010
0100
,  // measure 34
1000
0100
0010
0010
,  // measure 35
0100
0000
1000
0000
0001
0000
1000
0001
,  // measure 36
0100
0001
0010
1001
,  // measure 37
0100
1000
0010
1001
,  // measure 38
0010
0100
0010
0100
0010
0100
0010
0100
,  // measure 39
0000
1001
0000
0110
0000
1001
0000
0000
,  // measure 40
0020
0000
0000
0000
0000
0000
0000
0000
0000
0000
0000
0000
0030
0000
0000
1000
,  // measure 41
0000
0000
0100
0000
1000
0000
0000
0001
0000
0100
0000
0010
0000
0000
0100
0000
,  // measure 42
0001
0000
1000
0000
0100
0000
0000
0010
0000
0000
0100
0000
1000
0000
0000
0010
,  // measure 43
0000
0000
0100
0000
0001
0000
0000
0010
0000
0001
0000
1000
0000
0000
0010
0000
,  // measure 44
0100
0000
0001
0000
0010
0000
0000
0100
0000
0000
0010
0000
0001
0000
0000
1000
,  // measure 45
0000
0000
0010
0000
0100
0000
0000
0010
0000
0010
0000
1000
0000
0000
0001
0000
,  // measure 46
0010
0000
0001
0000
0100
0000
0000
0010
0000
0000
1000
0000
0001
0000
0000
0010
,  // measure 47
0000
0000
0001
0000
0100
0000
0000
0010
0000
0010
0000
1000
0000
1000
0001
0000
,  // measure 48
0100
0010
1000
0100
,  // measure 49
0010
0000
0000
0100
0010
0001
1000
0000
,  // measure 50
0001
0100
0001
1000
,  // measure 51
0001
0000
0000
1000
0001
0100
0010
0000
,  // measure 52
1000
0010
1000
0001
,  // measure 53
1000
0000
0000
0100
1000
0010
0100
0000
,  // measure 54
1000
0100
0001
0100
,  // measure 55
1000
0000
0000
0100
0010
1000
0001
0000
;

//---------------dance-single - ----------------
#NOTEDATA:;
#CHARTNAME:;
#STEPSTYPE:dance-single;
#DESCRIPTION:;
#CHARTSTYLE:;
#DIFFICULTY:Challenge;
#METER:85;
#RADARVALUES:0.437260,0.689349,0.079847,0.150823,0.452469,345.000000,336.000000,9.000000,17.000000,6.000000,0.000000,0.000000,0.000000,0.000000,0.437260,0.689349,0.079847,0.150823,0.452469,345.000000,336.000000,9.000000,17.000000,6.000000,0.000000,0.000000,0.000000,0.000000;
#CREDIT:;
#OFFSET:-0.006000;
#BPMS:0.000000=124.999992
,160.000000=62.499996
,162.000000=124.999992
;
#STOPS:;
#DELAYS:;
#WARPS:;
#TIMESIGNATURES:0.000000=4=4
;
#TICKCOUNTS:0.000000=4
;
#COMBOS:0.000000=1
;
#SPEEDS:0.000000=1.000000=0.000000=0
;
#SCROLLS:0.000000=1.000000
;
#FAKES:;
#LABELS:0.000000=Song Start
;
#NOTES:
// measure 0
0000
0000
0000
0000
,  // measure 1
0000
0000
0000
0000
,  // measure 2
0000
0000
0000
0000
,  // measure 3
0000
0000
0000
0000
,  // measure 4
1000
0000
0010
0000
0100
0100
0100
0000
,  // measure 5
0010
0000
1000
0000
0001
0001
0001
0000
,  // measure 6
0010
0000
0100
0000
1000
1000
1000
0000
,  // measure 7
0100
0000
1000
0000
0010
0010
0010
0000
,  // measure 8
1001
0000
0000
0000
1000
0000
0000
0001
0000
0001
0000
0000
0100
0000
0000
0000
,  // measure 9
0010
0000
0000
0000
0100
0000
0000
0010
0000
0000
1000
0000
0010
0000
0100
0000
,  // measure 10
0001
0000
0000
0000
0010
0000
0000
0100
0000
0100
0000
0000
0010
0000
0000
0000
,  // measure 11
0001
0000
0000
0000
1000
0000
0000
0001
0000
0000
0100
0000
0001
0000
0010
0000
,  // measure 12
0100
0000
0000
0000
0010
0000
0000
0001
0000
1000
0000
0000
0101
0000
0000
0000
,  // measure 13
0100
0000
0000
0000
0010
0000
0000
1000
0000
0000
0010
0000
0100
0000
0001
0000
,  // measure 14
1000
0010
1000
0010
1000
0010
1000
0010
1000
0010
1000
0010
1000
0010
1000
0010
,  // measure 15
1000
M101
0001
110M
1000
M011
0001
0000
,  // measure 16
1000
0000
0001
0000
1000
0000
0010
1000
0000
1000
0010
0000
0100
0000
0100
0001
,  // measure 17
0000
0001
0100
0000
0001
0000
0001
0010
0000
0100
0000
0010
0000
0010
0001
0000
,  // measure 18
1000
0000
0010
0000
0100
0000
0001
0100
0000
0100
0001
0000
0001
0000
0010
0100
,  // measure 19
0000
0100
0010
0000
0010
0000
0100
0010
0000
0001
0000
0100
0000
1000
0100
0000
,  // measure 20
0010
0000
1000
0000
0001
0000
0010
0001
0000
0001
0010
0000
0010
0000
0010
0100
,  // measure 21
0000
0100
1000
0000
1000
0000
1000
0001
0000
0010
0000
1000
0000
0010
0100
0000
,  // measure 22
0010
0000
0001
0000
0100
0000
1000
0100
0000
0100
0010
0000
0010
0000
0010
0100
,  // measure 23
0000
0100
0001
0000
0001
0000
0001
0010
0000
0100
0000
0010
0000
0100
1000
0000
,  // measure 24
0002
0000
0203
0000
,  // measure 25
0320
0000
2030
0000
,  // measure 26
3002
0000
0023
0000
,  // measure 27
0230
0000
2300
0000
,  // measure 28
3002
0000
2003
0000
,  // measure 29
3020
0000
0230
0000
,  // measure 30
0320
0000
2030
0000
,  // measure 31
3002
0000
0203
0000
,  // measure 32
0301
0000
0000
0000
1000
0000
0000
0010
0000
0010
0000
0000
1000
0000
0000
0000
,  // measure 33
0001
0000
0000
0000
1000
0000
0000
0100
0000
0000
0010
0000
0100
0000
1000
0000
,  // measure 34
0001
0000
0000
0000
1000
0000
0000
0100
0000
0100
0000
0000
1000
0000
0000
0000
,  // measure 35
0001
0000
0000
0000
1000
0000
0000
0010
0000
0000
0100
0000
0001
0000
0010
0000
,  // measure 36
0100
0000
0000
0000
0010
0000
0000
0001
0000
0001
0000
0000
1100
0000
0000
0000
,  // measure 37
0100
0000
0000
0000
1000
0000
0000
0010
0000
0000
0100
0000
0010
0000
1000
0000
,  // measure 38
0001
1000
0001
1000
0001
1000
0001
1000
0001
1000
0001
1000
0001
1000
0001
1000
,  // measure 39
0010
10M1
0100
1M01
0010
10M1
0100
0000
,  // measure 40
0001
0000
0100
0000
1000
0000
1000
0100
0000
0001
0010
0000
1000
0000
0010
0001
0000
0000
1000
0000
0010
0000
0000
0000
0100
0000
0000
0000
0010
0000
1000
0000
,  // measure 41
0000
1000
0000
0001
0000
0010
0001
0000
1000
0000
0001
0000
0100
0000
0001
0010
,  // measure 42
0000
0100
1000
0000
0010
0000
0100
0010
0000
1000
0001
0000
0010
0000
0100
0010
,  // measure 43
0000
0010
0000
0001
0000
1000
0010
0000
0100
0000
0001
0000
0010
0000
0100
0010
,  // measure 44
0000
0001
0100
0000
0010
0000
1000
0010
0000
0100
0001
0000
0010
0000
0100
0010
,  // measure 45
0000
0010
0000
0100
0000
1000
0010
0000
0100
0000
0001
0000
0010
0000
0001
0100
,  // measure 46
0000
0100
0010
0000
0100
0000
0010
1000
0000
1000
0001
0000
0010
0000
0100
0010
,  // measure 47
0000
0001
0000
0100
0000
0010
1000
0000
0001
0000
0000
0000
0010
0000
0000
0000
,  // measure 48
0001
0000
0100
0000
0010
0000
0000
0100
,  // measure 49
0010
1000
0100
0000
0010
0000
0001
0000
,  // measure 50
1000
0000
0100
0000
1000
0000
0000
0100
,  // measure 51
1000
0010
0100
0000
0010
0000
0100
0000
,  // measure 52
0001
0000
0010
0000
0100
0000
0000
0010
,  // measure 53
0100
1000
0001
0000
0100
0000
0001
0000
,  // measure 54
0010
0000
0100
0000
0010
0000
0000
0100
,  // measure 55
1000
0010
0200
0000
0300
0000
0000
0000
;

//---------------dance-single - ----------------
#NOTEDATA:;
#CHARTNAME:;
#STEPSTYPE:dance-single;
#DESCRIPTION:;
#CHARTSTYLE:;
#DIFFICULTY:Easy;
#METER:30;
#RADARVALUES:0.190113,0.222575,0.000000,0.008872,0.000000,150.000000,150.000000,0.000000,1.000000,0.000000,0.000000,0.000000,0.000000,0.000000,0.190113,0.222575,0.000000,0.008872,0.000000,150.000000,150.000000,0.000000,1.000000,0.000000,0.000000,0.000000,0.000000,0.000000;
#CREDIT:;
#NOTES:
// measure 0
0000
0000
0000
0000
,  // measure 1
0000
0000
0000
0000
,  // measure 2
0000
0000
0000
0000
,  // measure 3
0000
0000
0000
0000
,  // measure 4
1000
0000
0010
0000
,  // measure 5
0100
0000
0001
0000
,  // measure 6
1000
0000
0010
0000
,  // measure 7
0100
0000
0001
0000
,  // measure 8
1000
0000
0001
0000
,  // measure 9
1000
0001
1000
0000
,  // measure 10
0010
0000
0100
0000
,  // measure 11
0010
0100
0010
0000
,  // measure 12
1000
0000
0001
0000
,  // measure 13
0100
0010
0100
0000
,  // measure 14
0001
1000
0001
1000
,  // measure 15
0000
0001
0000
0001
0000
0001
0000
0000
,  // measure 16
1000
0010
1000
0010
,  // measure 17
1000
0010
1000
0001
,  // measure 18
0010
0001
0010
0001
,  // measure 19
0010
0001
1000
0001
,  // measure 20
0100
0010
0100
0010
,  // measure 21
0100
0010
1000
0001
,  // measure 22
1000
0100
1000
0100
,  // measure 23
1000
0100
1000
0001
,  // measure 24
0100
0000
0010
0000
,  // measure 25
1000
0000
0001
0000
,  // measure 26
0010
0000
0001
0000
,  // measure 27
1000
0000
0001
0000
,  // measure 28
1000
0000
0100
0000
,  // measure 29
0010
0000
0001
0000
,  // measure 30
0010
0000
0100
0000
,  // measure 31
1000
0000
0001
0000
,  // measure 32
0100
0000
0010
0000
,  // measure 33
1000
0001
1000
0000
,  // measure 34
0100
0000
1000
0000
,  // measure 35
0001
1000
0001
0000
,  // measure 36
0100
0010
0100
0000
,  // measure 37
0010
1000
0010
0000
,  // measure 38
1000
0100
0010
0001
,  // measure 39
0000
1000
0000
1000
0000
1000
0000
0000
,  // measure 40
0020
0000
0000
0000
,  // measure 41
0130
0001
0100
0001
,  // measure 42
0010
0001
0010
0001
,  // measure 43
0010
0001
1000
0001
,  // measure 44
1000
0010
1000
0010
,  // measure 45
1000
0010
1000
0001
,  // measure 46
1000
0100
1000
0100
,  // measure 47
1000
0100
1000
0001
,  // measure 48
0100
0000
0001
0000
,  // measure 49
0010
0000
0100
0100
,  // measure 50
1000
0000
0001
0000
,  // measure 51
1000
0000
0010
0010
,  // measure 52
0100
0000
0010
0000
,  // measure 53
0100
0000
0001
0001
,  // measure 54
0010
0000
0100
0000
,  // measure 55
0010
0000
0001
1000
;

//---------------dance-single - ----------------
#NOTEDATA:;
#CHARTNAME:;
#STEPSTYPE:dance-single;
#DESCRIPTION:;
#CHARTSTYLE:;
#DIFFICULTY:Medium;
#METER:45;
#RADARVALUES:0.286437,0.296766,0.017744,0.044360,0.000000,226.000000,224.000000,2.000000,5.000000,0.000000,0.000000,0.000000,0.000000,0.000000,0.286437,0.296766,0.017744,0.044360,0.000000,226.000000,224.000000,2.000000,5.000000,0.000000,0.000000,0.000000,0.000000,0.000000;
#CREDIT:;
#NOTES:
// measure 0
0000
0000
0000
0000
,  // measure 1
0000
0000
0000
0000
,  // measure 2
0000
0000
0000
0000
,  // measure 3
0000
0000
0000
0000
,  // measure 4
1000
0000
0001
0000
1000
0001
1000
0000
,  // measure 5
0100
0000
0010
0000
0100
0010
0100
0000
,  // measure 6
1000
0000
0001
0000
1000
0001
1000
0000
,  // measure 7
0010
0000
0100
0000
0010
0100
0010
0000
,  // measure 8
1001
0001
1000
1000
,  // measure 9
0001
0000
0100
0000
0010
0000
1000
0010
,  // measure 10
0100
0010
1000
1000
,  // measure 11
0001
0000
0010
0000
0100
0000
0010
0001
,  // measure 12
1000
0001
0100
0101
,  // measure 13
0001
0000
0100
0000
0010
0000
1000
0010
,  // measure 14
0100
0010
0100
0010
,  // measure 15
0000
1000
0000
0001
0000
1000
0000
0000
,  // measure 16
0001
0000
0100
0000
0010
1000
0010
0000
,  // measure 17
1000
0010
1000
0000
0010
1000
0001
0000
,  // measure 18
0010
0000
0001
0000
0100
0001
0100
0000
,  // measure 19
0001
0100
0001
0000
0100
0010
1000
0000
,  // measure 20
0001
0000
1000
0000
0100
1000
0100
0000
,  // measure 21
1000
0100
1000
0000
0100
0010
0001
0000
,  // measure 22
1000
0000
0001
0000
0100
0010
0100
0000
,  // measure 23
0010
0100
0010
0000
0100
0010
1000
0000
,  // measure 24
0002
0000
1000
0000
,  // measure 25
1000
0000
1000
0000
,  // measure 26
2003
0000
0001
0000
,  // measure 27
0001
0000
0001
0000
,  // measure 28
3002
0000
1000
0000
,  // measure 29
1000
0000
1000
0000
,  // measure 30
2003
0000
0001
0000
,  // measure 31
0001
0000
0001
0000
,  // measure 32
3001
0100
0010
0010
,  // measure 33
0100
0000
0001
0000
1000
0000
0100
1000
,  // measure 34
0100
1000
0001
0001
,  // measure 35
0100
0000
0010
0000
1000
0000
0010
0100
,  // measure 36
0010
0000
1000
0000
0001
0010
0001
0000
,  // measure 37
0100
0000
0010
0000
1000
0000
0010
0100
,  // measure 38
0001
0001
0001
0001
,  // measure 39
0000
1000
0000
0010
0000
1000
0000
0000
,  // measure 40
0200
0000
0000
0000
,  // measure 41
1300
0000
0001
0000
0100
0001
0010
0000
,  // measure 42
0100
0000
0010
0000
0001
0100
0001
0000
,  // measure 43
0100
0001
0100
0000
0001
0100
0010
0000
,  // measure 44
0100
0000
0010
0000
1000
0001
1000
0000
,  // measure 45
0001
1000
0001
0000
1000
0001
0100
0000
,  // measure 46
0010
0000
1000
0000
0010
1000
0010
0000
,  // measure 47
1000
0010
1000
0000
0010
0100
0001
0000
,  // measure 48
1000
0100
0010
0001
,  // measure 49
1000
0000
0000
0001
0010
0100
1000
0000
,  // measure 50
0001
1000
0010
0100
,  // measure 51
0001
0000
0000
1000
0010
0100
0001
0000
,  // measure 52
1000
0100
0010
0001
,  // measure 53
1000
0000
0000
0001
0010
0100
1000
0000
,  // measure 54
0001
0100
0010
1000
,  // measure 55
0001
0000
0000
0100
0010
1000
0001
0000
;

//---------------dance-single - ----------------
#NOTEDATA:;
#CHARTNAME:;
#STEPSTYPE:dance-single;
#DESCRIPTION:;
#CHARTSTYLE:;
#DIFFICULTY:Beginner;
#METER:5;
#RADARVALUES:0.074778,0.098922,0.044360,0.000000,0.000000,59.000000,54.000000,5.000000,0.000000,0.000000,0.000000,0.000000,0.000000,0.000000,0.074778,0.098922,0.044360,0.000000,0.000000,59.000000,54.000000,5.000000,0.000000,0.000000,0.000000,0.000000,0.000000,0.000000;
#CREDIT:;
#NOTES:
// measure 0
0000
0000
0000
0000
,  // measure 1
0000
0000
0000
0000
,  // measure 2
0000
0000
0000
0000
,  // measure 3
0000
0000
0000
0000
,  // measure 4
1000
0000
0000
0000
,  // measure 5
0001
0000
0000
0000
,  // measure 6
1000
0000
0000
0000
,  // measure 7
0001
0000
0000
0000
,  // measure 8
0110
0000
0000
0000
,  // measure 9
0010
0000
0000
0000
,  // measure 10
0100
0000
0000
0000
,  // measure 11
0001
0000
0000
0000
,  // measure 12
1001
0000
0000
0000
,  // measure 13
1000
0000
0000
0000
,  // measure 14
0010
0000
0010
0000
,  // measure 15
0010
0000
0000
0000
,  // measure 16
0100
0000
0000
0000
,  // measure 17
0001
0000
0000
0000
,  // measure 18
1000
0000
0000
0000
,  // measure 19
0100
0000
0000
0000
,  // measure 20
1000
0000
0000
0000
,  // measure 21
0001
0000
0000
0000
,  // measure 22
0100
0000
0000
0000
,  // measure 23
0010
0000
0000
0000
,  // measure 24
1000
0000
0000
0000
,  // measure 25
0000
0000
0000
0000
,  // measure 26
1000
0000
0000
0000
,  // measure 27
0000
0000
0000
0000
,  // measure 28
1000
0000
0000
0000
,  // measure 29
0000
0000
0000
0000
,  // measure 30
1000
0000
0000
0000
,  // measure 31
0000
0000
0000
0000
,  // measure 32
0110
0000
0000
0000
,  // measure 33
0100
0000
0000
0000
,  // measure 34
0001
0000
0000
0000
,  // measure 35
0010
0000
0000
0000
,  // measure 36
1001
0000
0000
0000
,  // measure 37
0001
0000
0000
0000
,  // measure 38
0100
0000
0100
0000
,  // measure 39
0100
0000
0000
0000
,  // measure 40
0010
0000
0000
0000
,  // measure 41
1001
0000
0000
0000
,  // measure 42
1000
0000
0000
0000
,  // measure 43
0010
0000
0000
0000
,  // measure 44
0100
0000
0000
0000
,  // measure 45
0001
0000
0000
0000
,  // measure 46
0010
0000
0000
0000
,  // measure 47
0001
0000
0000
0000
,  // measure 48
1000
0000
0000
0000
,  // measure 49
0000
0000
0001
0001
,  // measure 50
1000
0000
0000
0000
,  // measure 51
0000
0000
0010
0010
,  // measure 52
0100
0000
0000
0000
,  // measure 53
0000
0000
0100
0100
,  // measure 54
0010
0000
0000
0000
,  // measure 55
0000
0000
1000
0001
;
