#VERSION:0.83;
#TITLE:Clione;
#SUBTITLE:;
#ARTIST:kors k;
#TITLETRANSLIT:;
#SUBTITLETRANSLIT:;
#ARTISTTRANSLIT:;
#GENRE:;
#ORIGIN:;
#CREDIT:;
#BANNER:Clione.png;
#BACKGROUND:Clione-bg.png;
#PREVIEWVID:;
#JACKET:Clione-jacket.png;
#CDIMAGE:;
#DISCIMAGE:;
#LYRICSPATH:;
#CDTITLE:;
#MUSIC:Clione.ogg;
#OFFSET:-1.786000;
#SAMPLESTART:40.704918;
#SAMPLELENGTH:12.972973;
#SELECTABLE:YES;
#BPMS:0.000=148.000;
#STOPS:;
#DELAYS:;
#WARPS:;
#TIMESIGNATURES:0.000=4=4;
#TICKCOUNTS:0.000=4;
#COMBOS:0.000=1;
#SPEEDS:0.000=1.000=0.000=0;
#SCROLLS:0.000=1.000;
#FAKES:;
#LABELS:0.000=Song Start;
#BGCHANGES:;
#KEYSOUNDS:;
#ATTACKS:
;

//---------------dance-single - ----------------
#NOTEDATA:;
#CHARTNAME:;
#STEPSTYPE:dance-single;
#DESCRIPTION:;
#CHARTSTYLE:;
#DIFFICULTY:Hard;
#METER:65;
#RADARVALUES:0.291907,0.461557,0.056092,0.264434,0.132217,255.000000,248.000000,7.000000,33.000000,0.000000,0.000000,0.000000,0.000000,0.000000,0.291907,0.461557,0.056092,0.264434,0.132217,255.000000,248.000000,7.000000,33.000000,0.000000,0.000000,0.000000,0.000000,0.000000;
#CREDIT:;
#NOTES:
0000
0000
0000
0000
,
0000
0000
0000
0000
,
0000
0000
0000
0000
,
0000
0000
0000
0000
,
2000
0100
3100
0000
,
0011
0000
0000
0000
,
0000
0001
0100
1000
0100
0010
1000
0001
,
0021
0000
0000
0000
0031
1000
0001
1000
,
1002
0000
0000
0203
0000
0000
0000
0310
,
2000
0000
0000
0000
0000
0000
0000
3100
,
2000
0000
0000
0000
3020
0000
0000
0230
,
0000
0000
0302
0000
0000
0023
0000
0130
,
0020
0000
0000
0000
,
0032
0000
2003
0000
,
0002
0000
0000
0000
,
0000
0000
0000
3003
,
0001
0100
0010
1000
,
0001
0000
0010
0000
0001
0000
0100
0010
,
0100
0001
0010
0001
,
0100
0000
0010
0000
1000
0000
0001
1000
,
0001
1000
0100
1000
,
0001
0000
0010
0000
0001
0000
0100
0010
,
0100
0010
0100
0001
,
1000
0100
1000
0001
,
1001
0000
1000
0000
0000
0010
0000
0000
0100
0000
0000
0001
0000
0000
0010
0000
,
0000
0000
0100
0000
0000
0010
0000
0000
0001
0000
0000
0100
0000
0000
0010
0000
,
0000
0000
1000
0000
0000
0010
0000
0000
0100
0000
0000
0001
0000
0000
0010
0000
,
0000
0000
0100
0000
0000
0010
0000
0000
0001
0000
0000
1000
0000
0000
0100
0000
,
0000
0000
1000
0000
0000
1000
0000
0000
0001
0000
0000
0001
0000
0000
0100
0000
,
0000
0000
0001
0000
0000
0001
0000
0000
0010
0000
0000
0010
0000
0000
0100
0000
,
0000
0000
1000
0000
0000
1000
0000
0000
0100
0000
0000
0100
0000
0000
0010
0000
,
0000
0000
0001
0000
0000
1000
0000
0000
0010
0000
0000
0100
0000
0000
0001
0000
,
2000
0000
0000
3002
0000
0000
0000
0013
,
0002
0000
0000
0203
0000
0000
0302
0000
,
2003
0000
0000
3200
0000
0000
2300
0000
,
3020
0000
0000
0000
,
0230
0000
0000
0000
,
0302
0000
0000
0000
0000
0000
0000
1003
,
0200
0000
0000
0000
,
0000
0000
0000
0000
0000
0000
0310
0100
,
1000
0000
0000
0000
,
0001
0000
0000
0100
0000
0000
0010
0000
,
1000
0000
0000
0100
0000
0000
0000
0000
,
0000
0000
0000
0010
0000
0001
0000
1000
,
0100
0000
0000
0000
0000
0000
1000
0010
,
0100
0000
0000
0010
0000
0000
0000
0100
,
0002
0000
0000
0010
0000
0000
0000
0000
,
0000
0000
0000
1003
0100
0010
0001
1000
,
0010
0000
0100
0100
,
1001
0000
0001
0000
0010
0000
0001
1000
,
0001
0000
0010
0100
1000
0100
0010
0100
,
1000
0000
0001
0000
0010
0000
0100
1000
,
0010
0100
0001
1000
,
0100
0000
1000
0010
0100
0000
0100
0010
,
1000
0100
0010
0001
,
0110
0000
0000
0000
,
0000
0000
1000
0000
0000
1000
0000
0000
0001
0000
0000
0001
0000
0000
1000
0000
,
0000
0000
0010
0000
0000
0010
0000
0000
0100
0000
0000
0100
0000
0000
0010
0000
,
0000
0000
1000
0000
0000
1000
0000
0000
0010
0000
0000
0010
0000
0000
1000
0000
,
0000
0000
0001
0000
0000
0001
0000
0000
0100
0000
0000
0100
0000
0000
0001
0000
,
0000
0000
0010
0000
0000
0010
0000
0000
0001
0000
0000
0001
0000
0000
0010
0000
,
0000
0000
0100
0000
0000
0100
0000
0000
1000
0000
0000
1000
0000
0000
0100
0000
,
0000
0000
1000
0000
0000
1000
0000
0000
0001
0000
0000
0001
0000
0000
0100
0000
,
0000
0000
0100
0000
0000
0010
0000
0000
1000
0000
0000
0100
0000
0000
0010
0000
,
0000
0000
1001
0000
1000
0100
0010
0100
,
1000
0001
0010
0100
0010
0001
1000
0100
,
0010
0000
0001
0000
0000
1000
0000
0000
0010
0000
1000
0000
0001
0000
1000
0000
,
0200
0000
0320
0000
,
0230
0000
0000
2300
0000
0000
0000
0000
,
3020
0000
0000
0000
0000
0000
0000
0130
,
0002
0000
0000
0000
,
0000
0000
0000
0000
,
0013
0000
0000
0000
;

//---------------dance-single - ----------------
#NOTEDATA:;
#CHARTNAME:;
#STEPSTYPE:dance-single;
#DESCRIPTION:;
#CHARTSTYLE:;
#DIFFICULTY:Challenge;
#METER:90;
#RADARVALUES:0.409815,0.894267,0.072118,0.320526,0.468769,358.000000,349.000000,9.000000,40.000000,6.000000,0.000000,0.000000,0.000000,0.000000,0.409815,0.894267,0.072118,0.320526,0.468769,358.000000,349.000000,9.000000,40.000000,6.000000,0.000000,0.000000,0.000000,0.000000;
#CREDIT:;
#NOTES:
// measure 0
0000
0000
0000
0000
,  // measure 1
0000
0000
0000
0000
,  // measure 2
0000
0000
0000
0000
,  // measure 3
0000
0000
0000
0000
,  // measure 4
1000
0100
1000
0000
0001
0100
0001
0000
1000
0100
1000
0000
0000
0000
0000
0000
,  // measure 5
0220
0000
0000
0330
0000
0000
0000
0000
0000
0000
0000
0000
0000
0000
0000
0000
,  // measure 6
0000
0000
0100
0000
0001
0000
1000
0000
0010
0000
1000
0100
0000
1000
0000
0010
,  // measure 7
0100
0001
0100
0001
0000
0000
0000
0000
1000
0001
1000
0001
1000
0010
0100
1000
,  // measure 8
0200
0000
0000
0000
0000
0000
0302
0000
0000
0000
0000
0000
0000
0000
0013
0100
,  // measure 9
2000
0000
0000
0000
0000
0000
3000
0100
,  // measure 10
2000
0000
0000
0000
3020
0000
0000
0032
,  // measure 11
0000
0000
0023
0000
0000
0230
0000
0310
,  // measure 12
2000
0000
0000
0000
,  // measure 13
3002
0000
2003
0000
,  // measure 14
0002
0000
0000
0000
,  // measure 15
00M0
0000
0000
3003
,  // measure 16
1000
0000
0010
0000
0000
0010
0000
0000
0100
0000
0000
0100
0000
0000
0010
0000
,  // measure 17
0000
0000
1000
0000
0000
0010
0000
0000
0100
0000
0000
0001
0000
0000
0010
0000
,  // measure 18
0000
0000
0100
0000
0000
0010
0000
0000
0001
0000
0000
0100
0000
0000
0010
0000
,  // measure 19
0000
0000
0100
0000
0000
0010
0000
0000
1000
0000
0000
0001
0000
0000
0010
0000
,  // measure 20
0200
0000
0000
0000
,  // measure 21
0320
0000
0000
0000
0000
0000
0000
0000
0000
0000
0000
0000
0000
0000
0031
1000
,  // measure 22
0002
0000
0000
0000
,  // measure 23
0000
0000
0000
0000
,  // measure 24
1003
0000
0100
0000
0010
0001
0000
0010
0001
0000
0010
0001
0000
0010
0100
0000
,  // measure 25
0000
0000
0100
0000
1000
0001
0000
1000
0001
0000
0001
1000
0000
1000
0010
0000
,  // measure 26
0000
0000
0100
0000
0001
0010
0000
0001
0010
0000
0010
0001
0000
0001
1000
0000
,  // measure 27
0000
0000
0010
0000
1000
0010
0000
1000
0010
0000
0010
1000
0000
1000
0001
0000
,  // measure 28
0010
0000
0100
0000
1000
0001
0000
1000
0001
0000
0001
1000
0000
1000
0010
0000
,  // measure 29
0100
0000
0001
0000
0010
0100
0000
0010
0100
0000
0100
0010
0000
0010
0001
0000
,  // measure 30
1000
0000
0001
0000
0100
0010
0000
0100
0010
0000
0010
0100
0000
0010
1000
0000
,  // measure 31
0100
0000
0010
0000
0001
1000
0000
0001
1000
0000
1000
0001
0000
1000
0010
0000
,  // measure 32
0100
0010
0100
0000
0001
1000
0001
0000
0200
0000
0000
0000
0000
0000
0310
1000
,  // measure 33
0002
0000
0000
0023
0000
0000
0230
0000
,  // measure 34
0320
0000
0000
0032
0000
0000
2003
0000
,  // measure 35
0002
0000
0000
0000
0000
0000
0000
3003
,  // measure 36
0200
0000
0000
0000
,  // measure 37
0320
0000
0000
0000
0000
0000
0000
0000
0000
0000
0000
0000
0000
0000
0130
0002
,  // measure 38
2000
0000
0000
0000
,  // measure 39
00M0
0000
0000
0000
0000
0000
0000
0000
0000
0000
0000
3003
0001
0010
0100
0010
,  // measure 40
0001
0000
0000
0000
,  // measure 41
0100
0000
0000
0010
0000
0000
1000
0000
,  // measure 42
0002
0000
0000
0100
0000
0000
0000
0000
,  // measure 43
0003
0000
0000
1000
0000
0100
0000
1000
,  // measure 44
0010
0000
0000
0000
0000
0000
0100
0001
,  // measure 45
0010
0000
0000
0100
0000
0000
0000
0010
,  // measure 46
0002
0000
0000
1000
0000
0000
0000
0000
,  // measure 47
0000
0000
0000
1003
0100
0001
0100
1000
,  // measure 48
0010
0000
0000
0000
0000
0000
0000
0000
1001
0000
1000
0001
1000
0000
0001
0000
,  // measure 49
1001
0000
0000
0000
1000
0000
0000
0000
1000
0010
0000
0010
0001
0000
1000
0000
,  // measure 50
0010
0000
0000
0000
1000
0001
1000
0001
1000
0001
0010
0100
1000
0001
0010
0100
,  // measure 51
1000
0000
0100
0000
1000
0000
0010
0100
,  // measure 52
0101
0001
1000
0001
,  // measure 53
0101
0000
0010
0110
0000
0000
1000
0100
,  // measure 54
0220
0000
0000
0000
,  // measure 55
M000
0000
0000
0330
,  // measure 56
1000
0000
0001
0000
1000
0010
0000
0100
0001
0000
0010
0100
0000
1000
0100
0000
,  // measure 57
0000
0000
1000
0000
0010
0100
0000
0001
0010
0000
0100
0010
0000
0001
1000
0000
,  // measure 58
0000
0000
0001
0000
0100
0010
0000
1000
0010
0000
0100
0001
0000
0010
0100
0000
,  // measure 59
0000
0000
0010
0000
0001
0100
0000
0010
1000
0000
0100
0010
0000
0100
1000
0000
,  // measure 60
0000
0000
0100
0000
0010
0001
0000
1000
0100
0000
1000
0010
0000
0100
0001
0000
,  // measure 61
0000
0000
1000
0000
0001
0010
0000
0100
1000
0000
0100
0010
0000
0001
1000
0000
,  // measure 62
0000
0000
0001
0000
0000
0010
0000
0000
0100
0000
0000
1000
0000
0000
0010
0000
,  // measure 63
0000
0001
0000
0000
0010
0000
0000
1000
0000
0000
0001
0000
0000
0010
0000
0000
,  // measure 64
0100
0000
0000
0000
1MM1
0000
0000
0000
1000
0010
0100
0001
0010
0100
0010
0001
,  // measure 65
1000
0001
0100
0001
1000
0100
1000
0010
1000
0001
0010
0100
0010
0001
0100
0010
,  // measure 66
1000
0001
1000
0000
0001
0100
0000
0010
1000
0000
0001
0100
0000
0010
1000
0100
,  // measure 67
0020
0000
0230
0000
,  // measure 68
2300
0000
0000
3002
0000
0000
0000
0000
,  // measure 69
0203
0000
0000
0000
0000
0000
0000
0000
0000
0000
0000
0000
0000
0000
0310
2000
,  // measure 70
0002
0000
0000
0000
,  // measure 71
0M00
0000
0000
0000
0000
0000
0000
3003
,  // measure 72
0110
0000
0000
0000
;

//---------------dance-single - ----------------
#NOTEDATA:;
#CHARTNAME:;
#STEPSTYPE:dance-single;
#DESCRIPTION:;
#CHARTSTYLE:;
#DIFFICULTY:Medium;
#METER:50;
#RADARVALUES:0.246118,0.375015,0.080131,0.232381,0.032053,215.000000,205.000000,10.000000,29.000000,0.000000,0.000000,0.000000,0.000000,0.000000,0.246118,0.375015,0.080131,0.232381,0.032053,215.000000,205.000000,10.000000,29.000000,0.000000,0.000000,0.000000,0.000000,0.000000;
#CREDIT:;
#NOTES:
0000
0000
0000
0000
,
0000
0000
0000
0000
,
0000
0000
0000
0000
,
0000
0000
0000
0000
,
1001
1001
1001
0000
,
0110
0000
0000
0000
,
0000
0001
0100
0000
0001
0000
0010
0000
,
1100
0000
0000
0000
,
1000
0000
0000
0020
0000
0000
0000
0130
,
0002
0000
0000
0000
0000
0000
0000
0013
,
0001
0000
0000
0000
1000
0000
0000
0010
,
0000
0000
0100
0000
0000
0001
0000
1000
,
0200
0000
0000
0000
,
2300
0000
3020
0000
,
0200
0000
0000
0000
,
0330
0000
0000
0000
,
0001
1000
0001
1000
,
0010
0100
0010
0100
,
0001
0100
0001
0100
,
0010
1000
0010
1000
,
0200
1300
0010
0100
,
0002
0000
0000
0003
0010
0000
0000
0000
0100
0000
0000
0000
1000
0000
0100
0000
,
0020
0130
0010
0001
,
1000
0010
0100
0001
,
0000
0000
1000
0000
0000
0010
0000
0000
0100
0000
0000
0001
0000
0000
1000
0000
,
0001
0010
0001
1000
,
0100
0000
1000
0000
0000
0010
0000
0000
0100
0000
0000
0001
0000
0000
1000
0000
,
0001
0010
0001
1000
,
0100
0000
1000
0000
0000
0010
0000
0000
0100
0000
0000
0001
0000
0000
1000
0000
,
0100
1000
0010
0100
,
0010
0000
1000
0000
0000
0010
0000
0000
0100
0000
0000
0001
0000
0000
0010
0000
,
0100
0010
0001
1000
,
0001
0000
0000
0200
0000
0000
0000
0310
,
2000
0000
0000
3001
0000
0000
0010
0000
,
0200
0000
0000
0310
0000
0000
0001
0000
,
2000
0000
0000
0000
,
3020
0000
0000
0000
,
0230
0000
0000
0000
0000
0000
0000
0302
,
2000
0000
0000
0000
,
3003
0000
0000
0000
0000
0000
0001
0010
,
0100
0000
0000
0000
,
0010
0000
0000
0001
0000
0000
1000
0000
,
0020
0000
0000
0100
0000
0000
0000
0000
,
0030
0000
0000
0100
0000
0010
0000
1000
,
0001
0000
0000
0000
0000
0000
1000
0010
,
1000
0000
0000
0010
0000
0000
0000
0100
,
0020
0000
0000
1000
0000
0000
0000
0000
,
0030
0000
0000
0100
0010
1000
0001
0010
,
0100
0000
0010
0001
,
1001
0000
0000
0100
,
1001
0000
0000
0010
0000
0000
0100
0010
,
1000
0000
0000
0000
0000
0000
0001
1000
,
0010
0000
0000
0000
,
0100
0000
0000
0010
0000
0000
0000
1000
,
0100
0000
0000
0000
,
0011
0000
0000
0000
,
0001
0100
0001
1000
,
0100
0000
0010
0200
0000
0000
0000
0000
,
0310
0001
0100
0010
,
1000
0010
0100
0001
,
1000
0001
0010
0001
,
0200
0301
0200
0310
,
0200
1300
0100
0010
,
1000
0001
0010
0100
,
0000
0000
1001
0000
0001
1000
0010
0000
,
1000
0001
0100
0000
0001
1000
0010
0000
,
1000
0000
0001
0000
0010
0000
0100
0010
,
0002
0000
2003
0000
,
3020
0000
0000
0230
0000
0000
0000
0000
,
0302
0000
0000
0000
,
0020
0000
0000
0000
,
0033
0000
0000
0000
,
1100
0000
0000
0000
;

//---------------dance-single - ----------------
#NOTEDATA:;
#CHARTNAME:;
#STEPSTYPE:dance-single;
#DESCRIPTION:;
#CHARTSTYLE:;
#DIFFICULTY:Easy;
#METER:20;
#RADARVALUES:0.137368,0.288473,0.032053,0.144237,0.000000,120.000000,116.000000,4.000000,18.000000,0.000000,0.000000,0.000000,0.000000,0.000000,0.137368,0.288473,0.032053,0.144237,0.000000,120.000000,116.000000,4.000000,18.000000,0.000000,0.000000,0.000000,0.000000,0.000000;
#CREDIT:;
#NOTES:
0000
0000
0000
0000
,
0000
0000
0000
0000
,
0000
0000
0000
0000
,
0000
0000
0000
0000
,
0001
0001
0001
0000
,
0100
0000
0000
0000
,
0010
0000
1000
0000
,
1001
0000
0000
0000
,
0110
0000
0000
0000
,
0100
0000
0000
0000
,
0010
0000
0001
0000
,
1000
0000
0010
0000
,
1000
0000
0000
0000
,
0001
0000
1000
0000
,
0002
0000
0000
0000
,
0003
0000
0000
0000
,
0100
0000
0010
0000
,
1000
0000
0010
0000
,
0100
0000
0001
0000
,
2000
0000
0000
0000
,
3001
0000
0000
0000
,
0010
0000
0000
0000
,
0200
0000
0000
0000
,
0300
0000
0000
0000
,
1000
0010
1000
0010
,
0100
0001
0100
0001
,
0010
0001
0010
0001
,
0010
0100
0010
0100
,
2000
3100
1000
0100
,
1000
0010
1000
0010
,
0100
0010
0100
0010
,
0100
0001
0100
0001
,
2000
0000
0000
0000
,
3002
0000
0000
0000
,
0203
0000
0000
0000
,
0320
0000
0000
0000
,
2030
0000
0000
0000
,
3002
0000
0000
0000
,
2000
0000
0000
0000
,
3003
0000
0000
0000
,
0100
0000
0000
0000
,
0010
0000
0000
0000
,
2000
0000
0000
0000
,
3000
0000
0001
0000
,
1000
0000
0000
0010
,
1000
0000
0000
0000
,
0200
0000
0000
0000
,
0000
0000
0000
0300
,
1001
0000
0000
0000
,
0010
0000
0000
0100
,
0001
0000
1000
0000
,
0001
0000
0000
0010
,
0001
0000
0000
0000
,
1000
0000
0000
0000
,
0010
0000
0000
0000
,
0100
0000
0000
0000
,
0001
0000
1000
0000
,
0010
0000
2000
0000
,
3001
0000
0010
0000
,
0001
0000
1000
0000
,
0100
0000
1000
0000
,
0010
0000
0100
0000
,
0020
0000
0000
0000
,
0000
0000
0000
0000
,
0030
1001
0001
0010
,
0001
1000
0100
1000
,
0010
1000
0010
0100
,
0002
0000
2000
3003
,
1000
0000
0001
0000
,
0100
0000
0000
0000
,
0020
0000
0000
0000
,
0000
0000
0000
0000
,
0130
0000
0000
0000
;

//---------------dance-single - ----------------
#NOTEDATA:;
#CHARTNAME:;
#STEPSTYPE:dance-single;
#DESCRIPTION:;
#CHARTSTYLE:;
#DIFFICULTY:Beginner;
#METER:10;
#RADARVALUES:0.083566,0.144237,0.040066,0.000000,0.000000,73.000000,68.000000,5.000000,0.000000,0.000000,0.000000,0.000000,0.000000,0.000000,0.083566,0.144237,0.040066,0.000000,0.000000,73.000000,68.000000,5.000000,0.000000,0.000000,0.000000,0.000000,0.000000,0.000000;
#CREDIT:;
#NOTES:
0000
0000
0000
0000
,
0000
0000
0000
0000
,
0000
0000
0000
0000
,
0000
0000
0000
0000
,
0010
0000
0000
0000
,
1001
0000
0000
0000
,
1000
0000
0000
0000
,
1001
0000
0000
0000
,
0010
0000
0000
0000
,
1000
0000
0000
0000
,
0001
0000
0000
0000
,
1000
0000
0000
0000
,
0010
0000
0000
0000
,
0100
0000
0000
0000
,
0001
0000
0000
0000
,
1000
0000
0000
0000
,
0010
0000
0000
0000
,
1000
0000
0000
0000
,
0100
0000
0000
0000
,
1000
0000
0000
0000
,
0001
0000
0000
0000
,
1000
0000
0000
0000
,
0010
0000
0000
0000
,
0000
0000
0000
0000
,
1001
0000
0000
0000
,
0100
0000
0000
0000
,
0010
0000
0000
0000
,
1000
0000
0000
0000
,
0001
0000
0000
0000
,
0010
0000
0001
0000
,
0010
0000
0000
0000
,
0100
0000
0000
0000
,
1000
0000
0000
0000
,
0001
0000
0000
0000
,
1000
0000
0000
0000
,
0001
0000
0000
0000
,
0100
0000
0000
0000
,
0010
0000
0000
0000
,
1000
0000
0000
0000
,
0000
0000
0000
0000
,
0001
0000
0000
0000
,
0010
0000
0000
0000
,
0001
0000
0000
0000
,
0000
0000
0000
0000
,
1000
0000
0000
0000
,
0010
0000
0000
0000
,
0100
0000
0000
0000
,
0000
0000
0000
0000
,
0010
0000
0000
0000
,
1000
0000
0000
0001
,
0001
0000
1000
0000
,
0001
0000
0000
0100
,
0100
0000
0000
0000
,
0010
0000
0000
0000
,
1000
0000
0000
0000
,
0000
0000
0000
0000
,
0001
0000
0000
0000
,
0100
0000
0000
0000
,
0010
0000
0000
0000
,
1000
0000
0000
0000
,
0100
0000
0000
0000
,
1000
0000
0001
0000
,
1000
0000
0000
0000
,
0000
0000
0000
0000
,
0000
1001
0000
0000
,
0001
0000
0000
0000
,
1000
0000
1000
0000
,
1000
0000
0000
0000
,
0010
0000
0000
0000
,
0100
0000
0000
0000
,
0001
0000
0000
0000
,
0000
0000
0000
0000
,
0110
0000
0000
0000
;
