#VERSION:0.83;
#TITLE:Carousel;
#SUBTITLE:;
#ARTIST:Skylar Spence;
#TITLETRANSLIT:;
#SUBTITLETRANSLIT:;
#ARTISTTRANSLIT:;
#GENRE:;
#ORIGIN:;
#CREDIT:;
#BANNER:Carousel.png;
#BACKGROUND:Carousel-bg.png;
#PREVIEWVID:;
#JACKET:Carousel-jacket.png;
#CDIMAGE:;
#DISCIMAGE:;
#LYRICSPATH:;
#CDTITLE:cdtitle.png;
#MUSIC:Carousel.ogg;
#OFFSET:-8.473014;
#SAMPLESTART:83.596390;
#SAMPLELENGTH:16.692749;
#SELECTABLE:YES;
#BPMS:0.000=115.020;
#STOPS:;
#DELAYS:;
#WARPS:;
#TIMESIGNATURES:0.000=4=4;
#TICKCOUNTS:0.000=4;
#COMBOS:0.000=1;
#SPEEDS:0.000=1.000=0.000=0;
#SCROLLS:0.000=1.000;
#FAKES:;
#LABELS:0.000=Song Start;
#BGCHANGES:;
#KEYSOUNDS:;
#ATTACKS:
;

//---------------dance-single - ----------------
#NOTEDATA:;
#CHARTNAME:;
#STEPSTYPE:dance-single;
#DESCRIPTION:;
#CHARTSTYLE:;
#DIFFICULTY:Hard;
#METER:60;
#RADARVALUES:0.294277,0.351541,0.071581,0.135208,0.003977,259.000000,250.000000,9.000000,17.000000,0.000000,0.000000,0.000000,0.000000,0.000000,0.294277,0.351541,0.071581,0.135208,0.003977,259.000000,250.000000,9.000000,17.000000,0.000000,0.000000,0.000000,0.000000,0.000000;
#CREDIT:;
#NOTES:
// measure 0
1000
0001
0200
0301
,  // measure 1
0010
0100
2000
3010
,  // measure 2
0100
0010
2000
3001
,  // measure 3
0010
0001
2000
3100
,  // measure 4
1000
0010
0100
0001
,  // measure 5
0010
0001
1001
1001
,  // measure 6
0001
0100
0010
1000
,  // measure 7
0001
0000
0000
0000
1000
0000
0000
0000
0010
0000
1000
0000
0000
0100
0000
0000
,  // measure 8
0010
0000
0000
0000
0000
0000
0100
1000
,  // measure 9
0000
0000
0001
0000
0100
0010
0100
0000
,  // measure 10
0001
0000
0001
0000
0001
0000
1000
0100
,  // measure 11
0000
0000
0010
0000
0001
0100
0001
0000
,  // measure 12
1000
0000
1000
0000
1000
0001
0100
0010
,  // measure 13
0000
1000
0000
0010
0100
0000
0100
0000
,  // measure 14
0001
0000
0001
0000
0001
0010
0100
0010
,  // measure 15
0000
0001
0000
0100
0000
0010
0100
0000
,  // measure 16
0001
0000
0001
0000
0001
0000
1000
0001
,  // measure 17
0000
0000
0100
0000
0010
1000
0100
0000
,  // measure 18
0010
0000
0010
0000
0010
0100
0010
0001
,  // measure 19
0000
0000
0010
0000
0100
1000
0001
0000
,  // measure 20
0100
0000
0100
0000
0100
0010
1000
0001
,  // measure 21
0000
1000
0000
1000
0001
0000
0001
0000
,  // measure 22
1000
0000
0010
0000
0100
0010
0100
0001
,  // measure 23
0000
1000
0000
1100
0000
0011
0000
1100
,  // measure 24
1000
0000
0010
0100
0001
0000
0000
0000
,  // measure 25
0000
0000
0101
1100
,  // measure 26
0101
0000
0001
0010
0100
0000
0000
0000
,  // measure 27
0000
0010
0001
1000
0200
0000
2300
0000
,  // measure 28
3001
0000
1000
0100
0010
0000
0000
0000
,  // measure 29
0000
0100
0010
0001
0020
0000
0032
0000
,  // measure 30
1003
0000
0001
0100
0010
0000
0000
0000
,  // measure 31
2000
0000
0000
3000
,  // measure 32
0001
0001
0001
0001
,  // measure 33
1000
1000
1000
1000
,  // measure 34
0010
0010
0100
0100
,  // measure 35
0010
0000
0100
0002
0000
1000
1003
0000
,  // measure 36
0001
0010
1000
0010
0001
0100
0000
0000
,  // measure 37
0000
0010
0100
0001
1000
0100
0010
0000
,  // measure 38
0100
1000
0100
0001
0100
1000
0000
0000
,  // measure 39
0000
0010
0100
0001
1000
0100
0020
0000
,  // measure 40
0031
0010
1000
0010
0001
0100
0010
2000
,  // measure 41
0000
3002
0000
0003
0000
0000
0000
1000
,  // measure 42
0100
0001
0100
0010
0100
1000
0010
0100
,  // measure 43
0000
0010
0100
0002
0000
2003
0000
3000
,  // measure 44
0001
0010
1000
0010
0100
1000
0000
0000
,  // measure 45
0000
0100
1000
0001
0010
0001
0100
0000
,  // measure 46
0001
0100
1000
0100
0001
1000
0000
0000
,  // measure 47
0000
0001
0010
0001
1000
0100
0010
0000
,  // measure 48
0100
1000
0100
0001
0100
0010
0100
2000
,  // measure 49
0000
3020
0000
0030
0000
0000
0000
0001
,  // measure 50
0010
1000
0010
0100
0001
1000
0100
1000
,  // measure 51
0001
0010
1000
0100
0001
1000
0001
0000
,  // measure 52
0110
0000
0000
0000
;

//---------------dance-single - ----------------
#NOTEDATA:;
#CHARTNAME:;
#STEPSTYPE:dance-single;
#DESCRIPTION:;
#CHARTSTYLE:;
#DIFFICULTY:Challenge;
#METER:80;
#RADARVALUES:0.388582,0.413578,0.214742,0.699901,0.075558,342.000000,315.000000,27.000000,88.000000,5.000000,0.000000,0.000000,0.000000,0.000000,0.388582,0.413578,0.214742,0.699901,0.075558,342.000000,315.000000,27.000000,88.000000,5.000000,0.000000,0.000000,0.000000,0.000000;
#CREDIT:;
#NOTES:
// measure 0
2000
0000
3002
0000
0023
0000
0130
0010
,  // measure 1
0002
0000
0203
0000
2300
0000
3100
0010
,  // measure 2
2000
0000
3002
0000
0023
0000
0130
0010
,  // measure 3
0002
0023
2030
3020
,  // measure 4
0130
0000
0010
0000
0001
0000
0100
0000
0010
0000
1000
0010
0000
0100
0001
0000
,  // measure 5
1000
0001
0010
0001
0100
0000
0110
0000
,  // measure 6
0100
0000
0010
0000
1000
0000
0001
0000
0010
0000
0100
0010
0000
0100
1000
0000
,  // measure 7
0100
0000
0010
0000
0001
0000
0100
0000
0010
0000
1000
0000
0000
0010
0000
0000
,  // measure 8
1001
0000
1000
0000
0100
0000
1000
0000
0010
0000
0100
0001
0000
0010
0100
0000
,  // measure 9
1000
0000
0001
0000
0010
0000
0001
0000
0100
0000
0010
1000
0000
0001
0010
0000
,  // measure 10
0100
0000
0010
0000
0001
0000
0100
0000
0010
0000
1000
0001
0000
0001
0010
0000
,  // measure 11
0100
0000
0010
0000
0001
0000
0100
0000
0010
0000
1000
0001
0000
0001
1000
0000
,  // measure 12
0100
0000
0010
0000
0100
0000
1000
0000
0010
0000
0100
0001
0000
0100
0001
0000
,  // measure 13
0010
1000
0010
0001
1000
0000
0110
0000
,  // measure 14
0001
0000
1000
0000
0010
0000
0100
0000
0001
0000
0010
0100
0000
0100
1000
0000
,  // measure 15
0001
0000
1000
0000
0010
0000
0100
0000
0001
0000
1000
0001
0000
0001
1000
0000
,  // measure 16
0001
0000
1100
0000
0011
0000
0001
0200
,  // measure 17
0000
0000
2300
0000
3100
0010
1000
0000
,  // measure 18
1001
0000
1001
0000
0110
0100
0010
2000
,  // measure 19
0000
0000
3200
0000
0301
0100
0010
0000
,  // measure 20
0110
0000
1100
0000
0110
0010
0001
0200
,  // measure 21
0000
2000
3300
0100
0100
0000
0110
0000
,  // measure 22
0001
0000
0001
0000
0001
1000
0100
0020
,  // measure 23
0000
0230
0300
1001
0000
0110
0000
1001
,  // measure 24
0101
0000
0010
1000
1100
0000
0000
0000
,  // measure 25
0000
0100
0010
0001
0011
0000
1010
0000
,  // measure 26
1001
0000
0001
0100
0020
0000
0000
0000
,  // measure 27
0000
2030
3020
0230
0302
0000
2003
0000
,  // measure 28
3100
0000
1000
0100
0020
0000
0000
0000
,  // measure 29
0000
0130
1000
0010
0200
0000
0002
0300
,  // measure 30
0023
0000
0130
0010
0002
0000
0000
0000
,  // measure 31
2000
0000
0000
0000
0000
0000
0000
3003
,  // measure 32
0001
0001
0001
0001
,  // measure 33
1000
1000
1000
1000
,  // measure 34
0010
0100
0010
0100
0010
0100
0001
0010
,  // measure 35
0100
0010
0001
1000
0010
0100
0001
0000
,  // measure 36
0002
0203
2300
3020
0032
2003
3000
0000
,  // measure 37
0000
0001
0010
1000
0010
0001
1001
0000
,  // measure 38
0002
0203
2300
3020
0032
2003
3000
0000
,  // measure 39
0000
0001
0010
1000
0010
0100
0010
0000
,  // measure 40
0021
0032
0203
2300
3020
0032
2003
3100
,  // measure 41
0000
0200
0000
0010
0310
0000
1001
0002
,  // measure 42
0203
2300
3020
0032
2003
3020
1030
0100
,  // measure 43
0000
0010
0001
0200
0000
0020
0000
0330
,  // measure 44
2000
3002
0023
2030
3200
0320
0030
0000
,  // measure 45
0000
0100
1000
0010
0100
0001
0010
0000
,  // measure 46
0002
0203
2300
3020
0032
2003
3000
0000
,  // measure 47
0000
0001
0010
1000
0010
0100
1000
0000
,  // measure 48
1200
2300
3020
0032
0203
2300
3001
0100
,  // measure 49
0000
0200
0000
0010
0310
0000
1001
2000
,  // measure 50
3002
0023
2030
3200
0302
2003
3001
1000
,  // measure 51
0001
010M
1M00
M010
00M1
100M
1001
0000
,  // measure 52
0110
0000
0000
0000
;

//---------------dance-single - ----------------
#NOTEDATA:;
#CHARTNAME:;
#STEPSTYPE:dance-single;
#DESCRIPTION:;
#CHARTSTYLE:;
#DIFFICULTY:Medium;
#METER:40;
#RADARVALUES:0.262463,0.330862,0.302230,0.039767,0.000000,231.000000,193.000000,38.000000,5.000000,0.000000,0.000000,0.000000,0.000000,0.000000,0.262463,0.330862,0.302230,0.039767,0.000000,231.000000,193.000000,38.000000,5.000000,0.000000,0.000000,0.000000,0.000000,0.000000;
#CREDIT:;
#NOTES:
// measure 0
1000
0001
0200
0301
,  // measure 1
0100
0010
2000
3100
,  // measure 2
1000
0001
0200
0310
,  // measure 3
0100
0001
2000
3001
,  // measure 4
1000
1000
0001
1000
,  // measure 5
0010
0100
1001
1001
,  // measure 6
0001
0001
0100
0010
,  // measure 7
1000
0001
0110
0110
,  // measure 8
1001
0000
0000
0001
,  // measure 9
1000
0000
0100
0000
0010
0001
0100
0000
,  // measure 10
0010
0100
0001
1000
,  // measure 11
0001
0000
0010
0000
0100
0010
0100
0000
,  // measure 12
0010
0000
0010
0000
0001
0000
1000
0001
,  // measure 13
0000
0100
0000
0001
0010
0000
0100
0000
,  // measure 14
0010
0000
0010
0000
0010
0000
0100
1000
,  // measure 15
0000
0001
0000
0100
0000
0010
1000
0000
,  // measure 16
0100
0100
0100
1000
,  // measure 17
0001
0000
0100
0000
0010
1000
0010
0000
,  // measure 18
1000
0001
0010
0001
,  // measure 19
0100
0000
0010
0000
1000
0001
1000
0000
,  // measure 20
0001
0001
0010
0001
,  // measure 21
0100
0001
1000
1000
,  // measure 22
0100
1000
0010
0100
,  // measure 23
0001
1000
1001
0110
,  // measure 24
1001
0000
0001
0100
0010
0000
0000
0000
,  // measure 25
0000
0000
0110
1010
,  // measure 26
1100
0000
0100
0010
0001
0000
0000
0000
,  // measure 27
0000
0010
0001
0100
,  // measure 28
0110
0000
0010
1000
0001
0000
0000
0000
,  // measure 29
0000
1000
0001
0100
,  // measure 30
1001
0000
0001
1000
0010
0000
0000
0000
,  // measure 31
0200
0000
0000
0300
,  // measure 32
0010
0000
1000
0000
,  // measure 33
0001
0000
0100
0000
,  // measure 34
0001
0001
1000
1000
,  // measure 35
0010
0100
0001
1000
,  // measure 36
1001
0110
1001
0000
,  // measure 37
0000
0000
0001
0000
0100
0010
1000
0000
,  // measure 38
1100
0011
1100
0000
,  // measure 39
0000
1000
0001
0100
,  // measure 40
1010
0101
1010
1000
,  // measure 41
0001
0000
0000
0000
,  // measure 42
0101
0011
0101
0001
,  // measure 43
1000
0100
0010
0100
,  // measure 44
1100
1100
1100
0000
,  // measure 45
0000
0000
1000
0000
0001
0010
0100
0000
,  // measure 46
0110
0110
0110
0000
,  // measure 47
0000
0100
1000
0001
,  // measure 48
0101
0101
0101
0001
,  // measure 49
1000
0000
0000
0000
,  // measure 50
1001
0011
1001
0001
,  // measure 51
1000
0100
0010
0001
0100
0010
1000
0000
,  // measure 52
1001
0000
0000
0000
;

//---------------dance-single - ----------------
#NOTEDATA:;
#CHARTNAME:;
#STEPSTYPE:dance-single;
#DESCRIPTION:;
#CHARTSTYLE:;
#DIFFICULTY:Easy;
#METER:20;
#RADARVALUES:0.153387,0.206789,0.039767,0.031814,0.000000,135.000000,130.000000,5.000000,4.000000,0.000000,0.000000,0.000000,0.000000,0.000000,0.153387,0.206789,0.039767,0.031814,0.000000,135.000000,130.000000,5.000000,4.000000,0.000000,0.000000,0.000000,0.000000,0.000000;
#CREDIT:;
#NOTES:
// measure 0
1000
0000
0000
0000
,  // measure 1
1000
0000
0000
0000
,  // measure 2
1000
0000
0000
0000
,  // measure 3
1000
0000
0001
0001
,  // measure 4
0100
0000
0000
0000
,  // measure 5
0100
0000
0010
0000
,  // measure 6
0100
0000
0000
0000
,  // measure 7
0100
0000
0000
0010
,  // measure 8
1000
0000
0000
0001
,  // measure 9
1000
0100
1000
0001
,  // measure 10
0000
0000
0000
0100
,  // measure 11
0001
1000
0001
0010
,  // measure 12
0000
0000
0000
0100
,  // measure 13
0100
0000
0000
0000
,  // measure 14
0000
0000
0000
0010
,  // measure 15
0010
0001
1000
0100
,  // measure 16
1000
1000
1000
0000
,  // measure 17
0001
0000
0100
0000
,  // measure 18
0010
0010
0010
0000
,  // measure 19
1000
0000
0001
0000
,  // measure 20
0010
0010
0010
0000
,  // measure 21
0100
0000
0010
0000
,  // measure 22
0001
0001
0001
0000
,  // measure 23
1000
0000
0001
1000
,  // measure 24
1001
0001
0001
0000
,  // measure 25
0000
0000
0100
0010
,  // measure 26
0110
0100
0100
0000
,  // measure 27
0000
0010
1000
0001
,  // measure 28
1001
1000
1000
0000
,  // measure 29
0000
0001
1000
0010
,  // measure 30
1001
0001
0001
0000
,  // measure 31
0200
0000
0000
0000
,  // measure 32
0310
0000
0000
0000
,  // measure 33
1000
0000
0000
0000
,  // measure 34
0001
0000
1000
0000
,  // measure 35
0010
0100
0010
1000
,  // measure 36
0001
0001
0001
0000
,  // measure 37
0000
1000
0001
1000
,  // measure 38
0010
0010
0010
0000
,  // measure 39
0000
0100
0010
1000
,  // measure 40
0100
0100
0100
0010
,  // measure 41
0002
0003
0000
0000
,  // measure 42
1000
1000
1000
0001
,  // measure 43
0100
0010
2000
3000
,  // measure 44
0100
0100
0100
0000
,  // measure 45
0000
0010
0100
1000
,  // measure 46
0001
0001
0001
0000
,  // measure 47
0000
0100
0010
1000
,  // measure 48
0100
0100
0100
0010
,  // measure 49
0200
0300
0000
0000
,  // measure 50
0010
0001
1000
0100
,  // measure 51
1000
0001
0100
0010
,  // measure 52
1001
0000
0000
0000
;

//---------------dance-single - ----------------
#NOTEDATA:;
#CHARTNAME:;
#STEPSTYPE:dance-single;
#DESCRIPTION:;
#CHARTSTYLE:;
#DIFFICULTY:Beginner;
#METER:10;
#RADARVALUES:0.081807,0.124073,0.071581,0.000000,0.000000,72.000000,63.000000,9.000000,0.000000,0.000000,0.000000,0.000000,0.000000,0.000000,0.081807,0.124073,0.071581,0.000000,0.000000,72.000000,63.000000,9.000000,0.000000,0.000000,0.000000,0.000000,0.000000,0.000000;
#CREDIT:;
#NOTES:
// measure 0
1000
0000
0000
0000
,  // measure 1
1000
0000
0000
0000
,  // measure 2
1000
0000
0000
0000
,  // measure 3
1000
0000
0000
0000
,  // measure 4
0001
0000
0000
0000
,  // measure 5
0001
0000
0001
0000
,  // measure 6
0100
0000
0000
0000
,  // measure 7
0100
0000
0000
0000
,  // measure 8
0010
0000
0000
0000
,  // measure 9
1000
0000
0001
0000
,  // measure 10
1000
0000
0000
0000
,  // measure 11
0010
0000
0100
0000
,  // measure 12
0010
0000
0000
0000
,  // measure 13
1000
0000
0000
0000
,  // measure 14
0000
0000
0000
0000
,  // measure 15
0001
0000
1000
0000
,  // measure 16
0010
0000
0000
0000
,  // measure 17
0100
0000
0010
0000
,  // measure 18
0100
0000
0000
0000
,  // measure 19
0001
0000
1000
0000
,  // measure 20
0001
0000
0000
0000
,  // measure 21
0010
0000
0000
0000
,  // measure 22
0000
0000
0000
0000
,  // measure 23
0100
0000
0010
0000
,  // measure 24
0001
0001
0001
0000
,  // measure 25
0000
0000
0000
0000
,  // measure 26
1000
1000
1000
0000
,  // measure 27
0000
0000
0000
0000
,  // measure 28
0010
0010
0010
0000
,  // measure 29
0000
0000
0000
0000
,  // measure 30
0100
0100
0100
0000
,  // measure 31
0000
0000
0000
0000
,  // measure 32
0001
0000
0000
0000
,  // measure 33
1000
0000
0000
0000
,  // measure 34
0010
0000
0000
0000
,  // measure 35
0100
0000
0000
0000
,  // measure 36
1001
0000
0000
0000
,  // measure 37
0100
0000
0000
0000
,  // measure 38
0110
0000
0000
0000
,  // measure 39
0001
0000
0000
0000
,  // measure 40
1001
0000
0000
0000
,  // measure 41
1000
0000
0000
0000
,  // measure 42
0110
0000
0000
0000
,  // measure 43
0100
0000
0000
0000
,  // measure 44
1001
0000
0000
0000
,  // measure 45
0001
0000
0000
0000
,  // measure 46
1001
0000
0000
0000
,  // measure 47
1000
0000
0000
0000
,  // measure 48
0110
0000
0000
0000
,  // measure 49
0001
0000
0000
0000
,  // measure 50
1001
0000
0000
0000
,  // measure 51
1000
0000
0001
0000
,  // measure 52
0110
0000
0000
0000
;
