#VERSION:0.83;
#TITLE:CODE\:1;
#SUBTITLE:;
#ARTIST:HEXA;
#TITLETRANSLIT:;
#SUBTITLETRANSLIT:;
#ARTISTTRANSLIT:;
#GENRE:;
#ORIGIN:;
#CREDIT:;
#BANNER:CODE 1.png;
#BACKGROUND:CODE 1-bg.png;
#PREVIEWVID:;
#JACKET:CODE 1-jacket.png;
#CDIMAGE:;
#DISCIMAGE:;
#LYRICSPATH:;
#CDTITLE:;
#MUSIC:CODE 1.mp3;
#OFFSET:-1.163000;
#SAMPLESTART:87.231964;
#SAMPLELENGTH:13.241379;
#SELECTABLE:YES;
#BPMS:0.000=145.000;
#STOPS:;
#DELAYS:;
#WARPS:;
#TIMESIGNATURES:0.000=4=4;
#TICKCOUNTS:0.000=4;
#COMBOS:0.000=1;
#SPEEDS:0.000=1.000=0.000=0;
#SCROLLS:0.000=1.000;
#FAKES:;
#LABELS:0.000=Song Start;
#BGCHANGES:;
#KEYSOUNDS:;
#ATTACKS:
;

//---------------dance-single - ----------------
#NOTEDATA:;
#CHARTNAME:;
#STEPSTYPE:dance-single;
#DESCRIPTION:;
#CHARTSTYLE:;
#DIFFICULTY:Hard;
#METER:70;
#RADARVALUES:0.371411,0.525124,0.411862,0.214511,0.055773,303.000000,255.000000,48.000000,25.000000,0.000000,0.000000,0.000000,0.000000,0.000000,0.371411,0.525124,0.411862,0.214511,0.055773,303.000000,255.000000,48.000000,25.000000,0.000000,0.000000,0.000000,0.000000,0.000000;
#CREDIT:;
#NOTES:
// measure 0
0000
0000
0000
0000
,  // measure 1
0000
0000
0000
0000
,  // measure 2
0000
0000
0000
0000
,  // measure 3
0000
0000
1001
0110
,  // measure 4
1001
0001
0010
0001
,  // measure 5
1001
1000
0010
0000
,  // measure 6
1001
0001
0100
0001
,  // measure 7
1001
0000
1000
0000
0100
1000
0100
1000
,  // measure 8
1001
1000
0010
1000
,  // measure 9
1001
0001
0010
0000
,  // measure 10
0001
0000
0001
0000
,  // measure 11
0001
0100
0001
1000
1001
0000
0110
0000
,  // measure 12
1001
1000
0010
0100
,  // measure 13
1001
0001
0010
0100
,  // measure 14
1001
0001
0010
0001
,  // measure 15
1001
0000
1000
0000
0010
0100
0001
0010
,  // measure 16
1001
0001
0010
0001
,  // measure 17
1001
1000
0100
1000
,  // measure 18
1001
0010
0100
0001
,  // measure 19
2002
0000
0000
0000
0000
3000
1000
1003
,  // measure 20
1100
0100
0010
0001
,  // measure 21
0011
0001
0100
0010
,  // measure 22
1010
1000
0010
0100
,  // measure 23
1001
0000
0001
1000
0010
0100
0001
0010
,  // measure 24
0011
0000
0001
0000
0100
0000
0010
1000
,  // measure 25
1010
0000
0010
0000
0100
0010
1000
0100
,  // measure 26
1001
0000
0000
1000
0000
0000
0001
0000
0110
0000
0000
0010
0000
0000
0100
0000
,  // measure 27
1001
0000
0110
0000
1001
0001
0000
1000
,  // measure 28
1002
0000
0000
0003
,  // measure 29
2000
0000
0000
3000
,  // measure 30
0020
0000
0000
0030
,  // measure 31
0200
0000
0000
0300
,  // measure 32
0002
0000
0000
0003
,  // measure 33
0200
0000
0000
0300
,  // measure 34
0020
0000
0000
0030
,  // measure 35
2000
0000
0000
3000
,  // measure 36
0002
1000
0000
1003
,  // measure 37
0200
0010
0000
0310
,  // measure 38
2000
0001
0000
3001
,  // measure 39
0020
0100
0000
0130
,  // measure 40
0200
1000
0000
1300
,  // measure 41
0002
1000
0000
1003
,  // measure 42
2000
3001
0002
1003
,  // measure 43
0020
0000
0000
0030
1001
0000
0110
0000
,  // measure 44
1001
0001
0100
0010
,  // measure 45
1010
0100
0010
1000
,  // measure 46
1001
0001
0010
0100
,  // measure 47
0011
0000
0001
0000
0100
0010
1000
0001
,  // measure 48
1001
0010
0100
1000
,  // measure 49
0101
0001
0010
0100
,  // measure 50
1001
0000
0000
0000
0010
0000
0000
0000
0100
0000
0000
0000
0010
0000
0000
1000
,  // measure 51
0001
0000
0000
0001
1000
0000
0000
1000
0001
0000
0000
0001
0100
0000
0000
0000
,  // measure 52
0001
2000
0100
0000
3001
0000
0100
0000
,  // measure 53
0010
0200
0001
0000
0310
0000
1000
0000
,  // measure 54
0100
0020
0001
0000
0130
0000
1000
0000
,  // measure 55
0001
0000
0200
0000
0010
0000
0000
0000
0301
0000
0000
1000
0000
0000
0100
0000
,  // measure 56
0010
0200
1000
0000
0310
0000
0001
0000
,  // measure 57
0100
0020
1000
0000
0130
0000
0001
0000
,  // measure 58
1000
0001
1000
0001
0100
0010
0100
0010
,  // measure 59
1000
0010
0100
0001
1000
0010
0100
0001
,  // measure 60
1001
0001
0010
0001
,  // measure 61
1001
1000
0010
1000
,  // measure 62
1001
1000
0100
1000
,  // measure 63
1001
0001
0100
0001
,  // measure 64
1001
0000
0000
1000
0000
0000
0000
0000
0000
0000
0000
1000
0000
0000
0000
0000
,  // measure 65
0000
0000
0000
1000
0000
0000
0000
0000
0000
0000
0000
1000
0000
0000
0000
0000
,  // measure 66
0000
0000
0000
0001
0000
0000
0000
0000
0000
0000
0000
0001
0000
0000
0000
0000
,  // measure 67
1001
0000
0110
0000
1000
1001
0000
0001
,  // measure 68
1001
0000
0000
0000
;

//---------------dance-single - ----------------
#NOTEDATA:;
#CHARTNAME:;
#STEPSTYPE:dance-single;
#DESCRIPTION:;
#CHARTSTYLE:;
#DIFFICULTY:Medium;
#METER:50;
#RADARVALUES:0.334638,0.466777,0.420442,0.120126,0.000000,273.000000,224.000000,49.000000,14.000000,0.000000,0.000000,0.000000,0.000000,0.000000,0.334638,0.466777,0.420442,0.120126,0.000000,273.000000,224.000000,49.000000,14.000000,0.000000,0.000000,0.000000,0.000000,0.000000;
#CREDIT:;
#NOTES:
// measure 0
0000
0000
0000
0000
,  // measure 1
0000
0000
0000
0000
,  // measure 2
0000
0000
0000
0000
,  // measure 3
0000
0000
1001
0110
,  // measure 4
1001
0001
1000
0001
,  // measure 5
1001
1000
0001
0000
,  // measure 6
1001
1000
0001
1000
,  // measure 7
1001
0000
0001
0000
0010
0100
0010
0100
,  // measure 8
0110
0010
0100
0010
,  // measure 9
0110
0100
0010
0000
,  // measure 10
0100
0000
0100
0000
,  // measure 11
0010
0001
0100
0010
1001
0000
0110
0000
,  // measure 12
1001
0001
1000
0010
,  // measure 13
1010
1000
0010
0100
,  // measure 14
0101
0001
0010
0100
,  // measure 15
1100
0000
0100
0000
1000
0001
1000
0001
,  // measure 16
1001
0001
0100
0001
,  // measure 17
0011
0001
0100
0010
,  // measure 18
1010
1000
0010
0100
,  // measure 19
2002
0000
0000
3003
,  // measure 20
1001
0001
0010
0001
,  // measure 21
0101
0100
0010
1000
,  // measure 22
1010
1000
0010
0100
,  // measure 23
1001
0000
0001
0010
0010
0000
0001
1000
,  // measure 24
1001
0001
0100
0010
,  // measure 25
1010
1000
0010
0100
,  // measure 26
1001
0010
1001
0100
,  // measure 27
1001
0110
1001
0110
,  // measure 28
1002
0000
0003
0000
,  // measure 29
2000
0000
3000
0000
,  // measure 30
0020
0000
0030
0000
,  // measure 31
0200
0000
0300
0000
,  // measure 32
0002
0000
0003
0000
,  // measure 33
0020
0000
0030
0000
,  // measure 34
0200
0000
0300
0000
,  // measure 35
2000
0000
0000
0000
,  // measure 36
3001
0100
0001
0000
,  // measure 37
1000
0100
1000
0000
,  // measure 38
0010
1000
0010
0000
,  // measure 39
0100
0001
0100
0000
,  // measure 40
0001
1000
0010
0000
,  // measure 41
1000
0001
0100
0000
,  // measure 42
1000
0001
0100
0010
,  // measure 43
0200
0300
1001
0110
,  // measure 44
1001
0001
0100
1000
,  // measure 45
1100
1000
0100
0001
,  // measure 46
0011
0010
1000
0010
,  // measure 47
0011
0000
0001
0000
0100
0010
1000
0001
,  // measure 48
0011
0010
1000
0010
,  // measure 49
0011
0001
0100
1000
,  // measure 50
1100
0100
0001
1000
,  // measure 51
1001
0110
1001
0110
,  // measure 52
0001
0100
0001
0000
0100
0000
0010
0000
,  // measure 53
1000
0010
1000
0000
0010
0000
0100
0000
,  // measure 54
0001
1000
0001
0000
0010
0000
0100
0000
,  // measure 55
1000
0010
1000
0000
0010
0000
0100
0000
,  // measure 56
0001
0100
0010
0000
0100
0000
0010
0000
,  // measure 57
1000
0001
0010
0000
0100
0000
0010
0000
,  // measure 58
0001
0100
0010
1000
,  // measure 59
0001
1000
0001
1000
0001
1000
0001
1000
,  // measure 60
0001
0000
1000
0000
,  // measure 61
0010
0000
0100
0000
,  // measure 62
0010
0000
1000
0000
,  // measure 63
0010
0000
0100
0000
,  // measure 64
0002
0000
0000
0003
,  // measure 65
2000
0000
0000
3000
,  // measure 66
0020
0000
0000
0030
,  // measure 67
1001
0110
1001
0110
,  // measure 68
1001
0000
0000
0000
;

//---------------dance-single - ----------------
#NOTEDATA:;
#CHARTNAME:;
#STEPSTYPE:dance-single;
#DESCRIPTION:;
#CHARTSTYLE:;
#DIFFICULTY:Easy;
#METER:35;
#RADARVALUES:0.263542,0.408429,0.240253,0.145868,0.000000,215.000000,187.000000,28.000000,17.000000,0.000000,0.000000,0.000000,0.000000,0.000000,0.263542,0.408429,0.240253,0.145868,0.000000,215.000000,187.000000,28.000000,17.000000,0.000000,0.000000,0.000000,0.000000,0.000000;
#CREDIT:;
#NOTES:
// measure 0
0000
0000
0000
0000
,  // measure 1
0000
0000
0000
0000
,  // measure 2
0000
0000
0000
0000
,  // measure 3
0000
0000
1001
0110
,  // measure 4
1001
0001
1000
0001
,  // measure 5
1000
0001
1000
0000
,  // measure 6
0001
1000
0001
1000
,  // measure 7
0001
1000
0001
0001
,  // measure 8
0100
0010
0100
0010
,  // measure 9
0100
0010
0100
0000
,  // measure 10
0010
0000
1000
0000
,  // measure 11
0001
1000
1001
0110
,  // measure 12
1001
0001
0010
0001
,  // measure 13
0100
0001
0100
0001
,  // measure 14
0100
0010
0100
0010
,  // measure 15
1000
0010
1000
0100
,  // measure 16
0010
0001
0010
0001
,  // measure 17
0100
0001
0100
0001
,  // measure 18
0100
0010
0100
0010
,  // measure 19
2000
0000
0000
0000
,  // measure 20
3001
0010
0001
0010
,  // measure 21
0001
0100
0001
0100
,  // measure 22
0010
0100
0010
0100
,  // measure 23
0010
1000
0010
0100
,  // measure 24
0010
1000
0010
1000
,  // measure 25
0010
0100
0001
0010
,  // measure 26
0100
0000
0010
0000
,  // measure 27
1001
0110
1001
0110
,  // measure 28
1001
0000
0000
0000
,  // measure 29
0010
0000
0000
0000
,  // measure 30
0010
0000
0000
0000
,  // measure 31
0010
0000
0000
0000
,  // measure 32
0100
0000
0000
0000
,  // measure 33
0100
0000
0000
0000
,  // measure 34
0100
0000
0000
0000
,  // measure 35
0100
0000
0000
0000
,  // measure 36
1002
0000
0000
0003
,  // measure 37
2000
0000
0000
3000
,  // measure 38
0020
0000
0000
0030
,  // measure 39
0200
0000
0000
0300
,  // measure 40
0020
0000
0000
0030
,  // measure 41
2000
0000
0000
3000
,  // measure 42
0002
0000
0000
0003
,  // measure 43
2000
0000
3001
0110
,  // measure 44
1001
1000
0001
1000
,  // measure 45
0010
0100
0010
0100
,  // measure 46
0001
0100
0001
0100
,  // measure 47
0001
0010
0100
1000
,  // measure 48
0100
0010
0100
0010
,  // measure 49
0001
1000
0001
1000
,  // measure 50
0010
1000
0010
1000
,  // measure 51
1001
0110
1001
0110
,  // measure 52
2000
3010
0100
0001
,  // measure 53
2000
3100
0010
0100
,  // measure 54
2000
3001
0100
0010
,  // measure 55
2000
3010
0100
0001
,  // measure 56
0020
0130
0010
0001
,  // measure 57
2000
3001
0100
0010
,  // measure 58
2000
3010
0200
0301
,  // measure 59
1001
0110
1001
0110
,  // measure 60
1001
0000
0001
0000
,  // measure 61
1000
0000
1000
0000
,  // measure 62
0010
0000
0010
0000
,  // measure 63
0100
0000
0100
0000
,  // measure 64
0010
0000
0000
0000
,  // measure 65
0100
0000
0000
0000
,  // measure 66
0010
0000
0000
0000
,  // measure 67
1001
0110
1001
0110
,  // measure 68
1001
0000
0000
0000
;

//---------------dance-single - ----------------
#NOTEDATA:;
#CHARTNAME:;
#STEPSTYPE:dance-single;
#DESCRIPTION:;
#CHARTSTYLE:;
#DIFFICULTY:Beginner;
#METER:20;
#RADARVALUES:0.101740,0.233388,0.017161,0.000000,0.000000,83.000000,81.000000,2.000000,0.000000,0.000000,0.000000,0.000000,0.000000,0.000000,0.101740,0.233388,0.017161,0.000000,0.000000,83.000000,81.000000,2.000000,0.000000,0.000000,0.000000,0.000000,0.000000,0.000000;
#CREDIT:;
#NOTES:
// measure 0
0000
0000
0000
0000
,  // measure 1
0000
0000
0000
0000
,  // measure 2
0000
0000
0000
0000
,  // measure 3
0000
0000
0000
0000
,  // measure 4
1000
0000
0000
0000
,  // measure 5
1000
0000
0000
0000
,  // measure 6
0001
0000
0000
0000
,  // measure 7
0001
0000
1000
0000
,  // measure 8
0010
0000
0000
0000
,  // measure 9
0010
0000
0000
0000
,  // measure 10
0100
0000
0000
0000
,  // measure 11
0100
0000
0010
0100
,  // measure 12
0001
0000
0000
0000
,  // measure 13
1000
0000
0000
0000
,  // measure 14
0001
0000
0000
0000
,  // measure 15
1000
0000
0000
0000
,  // measure 16
0010
0000
0000
0000
,  // measure 17
0100
0000
0000
0000
,  // measure 18
0010
0000
0000
0000
,  // measure 19
0100
0000
0000
0000
,  // measure 20
1000
0000
0000
0000
,  // measure 21
0001
0000
0000
0000
,  // measure 22
0100
0000
0000
0000
,  // measure 23
0010
0000
0100
0000
,  // measure 24
0001
0000
0000
0000
,  // measure 25
1000
0000
0000
0000
,  // measure 26
0010
0000
0100
0000
,  // measure 27
0001
0001
1000
0001
,  // measure 28
1001
0000
0000
0000
,  // measure 29
1000
0000
0000
0000
,  // measure 30
1000
0000
0000
0000
,  // measure 31
1000
0000
0000
0000
,  // measure 32
0001
0000
0000
0000
,  // measure 33
0001
0000
0000
0000
,  // measure 34
0001
0000
0000
0000
,  // measure 35
0001
0000
0000
0000
,  // measure 36
0100
0000
0000
0000
,  // measure 37
0010
0000
0000
0000
,  // measure 38
1000
0000
0000
0000
,  // measure 39
0100
0000
0000
0000
,  // measure 40
1000
0000
0000
0000
,  // measure 41
0001
0000
0000
0000
,  // measure 42
0100
0000
0010
0000
,  // measure 43
1000
0000
0001
1000
,  // measure 44
0010
0000
0000
0000
,  // measure 45
0100
0000
0000
0000
,  // measure 46
0001
0000
0000
0000
,  // measure 47
1000
0000
0000
0000
,  // measure 48
0100
0000
0000
0000
,  // measure 49
1000
0000
0000
0000
,  // measure 50
0010
0000
0000
0000
,  // measure 51
0100
0000
0010
0000
,  // measure 52
1000
0000
0000
0000
,  // measure 53
0001
0000
0000
0000
,  // measure 54
0100
0000
0000
0000
,  // measure 55
0010
0000
0000
0000
,  // measure 56
1000
0000
0000
0000
,  // measure 57
0001
0000
0000
0000
,  // measure 58
0010
0000
0001
0000
,  // measure 59
1000
0000
0001
0000
,  // measure 60
0100
0000
0000
0000
,  // measure 61
0100
0000
0000
0000
,  // measure 62
0100
0000
0000
0000
,  // measure 63
0100
0000
0000
0000
,  // measure 64
0010
0000
0000
0000
,  // measure 65
0010
0000
0000
0000
,  // measure 66
0010
0000
0000
0000
,  // measure 67
1000
0001
1000
0000
,  // measure 68
1001
0000
0000
0000
;

//---------------dance-single - ----------------
#NOTEDATA:;
#CHARTNAME:;
#STEPSTYPE:dance-single;
#DESCRIPTION:;
#CHARTSTYLE:;
#DIFFICULTY:Challenge;
#METER:85;
#RADARVALUES:0.471925,0.721294,0.248833,0.120126,0.510537,385.000000,356.000000,29.000000,14.000000,61.000000,0.000000,12.000000,0.000000,0.000000,0.471925,0.721294,0.248833,0.120126,0.510537,385.000000,356.000000,29.000000,14.000000,61.000000,0.000000,12.000000,0.000000,0.000000;
#CREDIT:;
#OFFSET:-1.163000;
#BPMS:0.000000=145.000000
;
#STOPS:14.000000=0.206897
,14.500000=0.206896
,45.000000=0.206896
,45.500000=0.206898
,172.000000=0.206902
,172.500000=0.206902
;
#DELAYS:;
#WARPS:;
#TIMESIGNATURES:0.000000=4=4
;
#TICKCOUNTS:0.000000=4
;
#COMBOS:0.000000=1
;
#SPEEDS:0.000000=1.000000=0.000000=0
;
#SCROLLS:0.000000=1.000000
;
#FAKES:;
#LABELS:0.000000=Song Start
;
#NOTES:
// measure 0
0000
0000
0000
0000
,  // measure 1
MMMM
M000
M000
M000
MMMM
0000
0000
0000
MMMM
M00M
M00M
M00M
MMMM
0000
0000
0000
,  // measure 2
MM00
M0M0
M00M
M0M0
MM00
0000
0000
0000
MMMM
M000
MMMM
M000
MMMM
0000
0000
0000
,  // measure 3
00M0
0MM0
M0M0
00M0
00M0
00M0
MMMM
0000
1001
0000
0110
0000
1001
0000
0000
0000
,  // measure 4
1000
0010
1000
1001
,  // measure 5
0001
0010
0000
1001
,  // measure 6
0001
0100
0001
1001
,  // measure 7
1000
0000
0100
0100
0100
0100
1001
0000
,  // measure 8
0001
1000
0001
1001
,  // measure 9
1000
0001
0000
0110
,  // measure 10
0000
0000
0110
0000
0000
0000
0010
0010
,  // measure 11
0010
0000
0010
0100
0010
0000
1001
0000
0101
0000
0000
0001
0000
0000
1000
0000
,  // measure 12
0000
0000
0100
0000
0000
0000
0000
0000
1000
0000
0000
0100
0000
0000
0010
0000
,  // measure 13
0000
0000
0010
0001
0000
0000
0001
0000
0100
0000
0000
0010
0000
0000
1000
0000
,  // measure 14
0000
0000
0001
0000
0000
0000
0000
0000
1000
0000
0000
0001
0000
0000
0100
0000
,  // measure 15
0010
0000
0010
0000
0010
0000
0010
0000
0110
0000
0000
0100
0000
0000
0001
0000
,  // measure 16
0000
0000
1000
0000
0000
0000
0000
0000
0100
0000
0000
1000
0000
0000
0010
0000
,  // measure 17
0000
0000
0100
0010
0000
0000
0100
0000
0001
0000
0000
1000
0000
0000
0001
0000
,  // measure 18
0000
0100
0000
0010
4004
0000
0000
0000
,  // measure 19
0000
0000
3003
0000
0110
0000
0110
0000
1001
0000
0000
1000
0010
0000
0000
0000
,  // measure 20
0100
0000
0000
0001
0010
0000
0000
0000
0100
0000
0000
1000
0010
0000
0000
0000
,  // measure 21
0100
0000
0010
1000
0000
1000
0001
0000
0010
0000
0000
0100
1000
0000
0000
0000
,  // measure 22
0100
0000
0000
0010
0001
0000
0000
0000
1000
0000
0000
0001
0100
0000
0100
0000
,  // measure 23
0010
0000
1000
0001
1000
0000
0001
0000
0010
0000
0000
0100
1000
0000
0000
0000
,  // measure 24
0100
0000
0000
0010
0001
0000
0000
0000
0011
0000
0000
0001
0100
0000
0000
0000
,  // measure 25
0010
0000
0010
0000
1000
0000
0010
0100
0010
0000
0000
1010
0000
0000
1000
0000
,  // measure 26
0001
0000
0000
0011
0000
0000
0001
0000
0400
0300
0010
0100
0004
0003
1000
0001
,  // measure 27
0040
0030
0040
0030
0100
0010
0004
0003
2000
0000
0000
0001
0000
0000
0000
0000
,  // measure 28
0000
0000
0000
0001
0000
0000
0000
0000
0000
0000
0000
0010
0000
0000
0000
0000
,  // measure 29
0000
0000
0000
0010
0000
0000
0000
0000
0000
0000
0000
0100
0000
0000
0000
0000
,  // measure 30
0000
0000
0000
0100
0000
0000
0000
0000
0000
0000
0000
0001
0000
0000
0000
0000
,  // measure 31
0000
0000
0000
3001
0000
0000
0000
0000
0002
0000
0000
1000
0000
0000
0000
0000
,  // measure 32
0000
0000
0000
1000
0000
0000
0000
0000
0000
0000
0000
0100
0000
0000
0000
0000
,  // measure 33
0000
0000
0000
0100
0000
0000
0000
0000
0000
0000
0000
0010
0000
0000
0000
0000
,  // measure 34
0000
0000
0000
0010
0000
0000
0000
0000
0000
0000
0000
1000
0000
0000
0000
0000
,  // measure 35
0000
0000
0000
1000
0003
0000
1000
0000
0020
0000
0000
0000
0130
0000
0000
0000
,  // measure 36
0010
1000
0001
0000
0020
0000
0130
0000
,  // measure 37
0010
0001
1000
0000
0200
0000
1300
0000
,  // measure 38
0100
0010
0001
0000
0200
0000
0310
0000
,  // measure 39
1000
0001
1000
0000
0001
0000
0010
0000
0100
0000
0000
0100
0000
0000
0100
0000
,  // measure 40
0010
0000
0000
0010
0000
0000
0010
0000
0001
0000
0000
0001
0000
0000
0001
0000
,  // measure 41
1000
0000
0000
1000
0000
0000
1000
0000
0010
0000
0000
1000
0000
0000
0010
0000
,  // measure 42
0100
0000
0000
0001
0000
0000
0010
0000
0220
0000
0000
0000
0000
0000
0330
0000
,  // measure 43
1001
0000
0110
0000
1001
0000
0000
1000
0001
0000
0000
0001
1000
0000
0000
1000
,  // measure 44
0001
0000
0000
0001
0100
0000
0000
0100
0001
0000
0000
0001
0100
0000
0000
0100
,  // measure 45
0001
0000
0000
0001
0010
0000
0000
0010
0001
0000
0000
0001
0010
0000
0000
0010
,  // measure 46
0001
0000
0000
1000
0010
0000
0000
0010
1000
0000
0000
1000
0010
0000
0010
0000
,  // measure 47
0010
0000
0010
0000
1001
0000
0000
1000
0010
0000
0000
0010
0100
0000
0000
0100
,  // measure 48
0001
0000
0000
0001
0010
0000
0000
0010
0100
0000
0000
0100
1000
0000
0000
1000
,  // measure 49
0001
0000
0000
0001
0100
0000
0000
0100
0010
0000
0000
0010
1000
0000
0000
1000
,  // measure 50
0001
0000
1000
0001
1000
0000
0000
0010
0100
0000
0000
0001
1000
0000
0000
0010
,  // measure 51
0100
0000
0000
0000
0010
0000
1000
0000
0200
0000
0000
0000
0300
0000
0010
0001
,  // measure 52
0000
0010
0100
0000
0000
0000
0010
0000
0002
0000
0000
0000
0003
0000
1000
0010
,  // measure 53
0000
0100
0001
0000
0000
0000
1000
0000
0020
0000
0000
0000
0030
0000
0100
0010
,  // measure 54
0000
0100
0001
0000
0000
0000
1000
0000
0200
0000
0000
0000
0310
0000
0000
0001
,  // measure 55
0000
0000
0100
0000
0010
0000
1000
0000
0002
0000
0000
0000
0003
0000
1000
0100
,  // measure 56
0000
0100
0010
0000
0000
0000
0100
0000
2000
0000
0000
0000
3000
0000
0010
1000
,  // measure 57
0000
0001
0010
0000
0100
0000
0010
0000
0001
0000
0100
0000
0010
0000
1000
0000
,  // measure 58
0001
0000
0010
0000
0001
1000
0001
1000
0001
1000
0001
1000
0001
1000
0001
1000
,  // measure 59
0001
1000
0001
1000
0001
0000
0000
0000
1000
0000
0000
0000
0010
0000
0000
0000
,  // measure 60
0100
0101
0001
0100
,  // measure 61
0010
1010
1000
0100
,  // measure 62
0010
0011
0010
0100
,  // measure 63
1000
0000
0000
0000
0100
0000
0000
0010
0000
0000
0000
0000
0000
0000
0000
0010
,  // measure 64
0000
0000
0000
0000
0000
0000
0000
0100
0000
0000
0000
0000
0000
0000
0000
0100
,  // measure 65
0000
0000
0000
0000
0000
0000
0000
0010
0000
0000
0000
0000
0000
0000
0000
0010
,  // measure 66
0000
0000
0000
0000
0400
0300
1000
0001
4000
3000
0001
1000
0004
0003
0004
0003
,  // measure 67
0100
0010
4000
3000
1001
0000
0000
0000
0000
0000
0000
0000
0000
0000
0000
0000
;
