#VERSION:0.83;
#TITLE:CODE\:2;
#SUBTITLE:;
#ARTIST:HEXA;
#TITLETRANSLIT:;
#SUBTITLETRANSLIT:;
#ARTISTTRANSLIT:;
#GENRE:;
#ORIGIN:;
#CREDIT:;
#BANNER:CODE 2.png;
#BACKGROUND:CODE 2-bg.png;
#PREVIEWVID:;
#JACKET:;
#CDIMAGE:;
#DISCIMAGE:;
#LYRICSPATH:;
#CDTITLE:;
#MUSIC:CODE 2.mp3;
#OFFSET:-2.596999;
#SAMPLESTART:8.770547;
#SAMPLELENGTH:12.387097;
#SELECTABLE:YES;
#BPMS:0.000=155.000;
#STOPS:;
#DELAYS:;
#WARPS:;
#TIMESIGNATURES:0.000=4=4;
#TICKCOUNTS:0.000=4;
#COMBOS:0.000=1;
#SPEEDS:0.000=1.000=0.000=0;
#SCROLLS:0.000=1.000;
#FAKES:;
#LABELS:0.000=Song Start;
#BGCHANGES:;
#KEYSOUNDS:;
#ATTACKS:
;

//---------------dance-single - ----------------
#NOTEDATA:;
#CHARTNAME:;
#STEPSTYPE:dance-single;
#DESCRIPTION:;
#CHARTSTYLE:;
#DIFFICULTY:Hard;
#METER:95;
#RADARVALUES:0.597164,0.754157,0.896313,0.214163,0.226061,527.000000,414.000000,113.000000,27.000000,0.000000,0.000000,0.000000,0.000000,0.000000,0.597164,0.754157,0.896313,0.214163,0.226061,527.000000,414.000000,113.000000,27.000000,0.000000,0.000000,0.000000,0.000000,0.000000;
#CREDIT:;
#NOTES:
0000
0000
0000
0000
,
0000
0000
0000
0000
,
0000
0000
0000
0000
,
0020
0000
0230
0000
0302
0000
2003
3000
1001
0000
0000
0000
0110
0000
0000
0000
,
1001
0000
1001
0000
0010
0100
0001
0000
,
0010
0100
1000
0000
0100
1000
0001
0100
,
0110
0000
0110
0000
0100
0001
1000
0000
,
0100
0010
0001
0000
0010
0001
0001
0000
,
1100
0000
1100
0000
0100
1000
0010
0000
,
0100
0010
1000
0000
0010
1000
0001
0000
,
0101
0000
0101
0000
0001
1000
0010
0000
,
0100
0010
1001
0000
0100
0010
1001
0000
,
1010
0000
0011
0000
0010
0001
0100
0000
,
0010
1000
0100
0000
1000
0100
0010
0000
,
1100
0000
1100
0000
0100
0010
0001
0000
,
0010
0001
0100
0000
0001
1000
1000
0000
,
1010
0000
1010
0000
1000
0001
0010
0000
,
0100
0010
0001
0000
0010
0001
0100
0000
,
0110
0000
0110
0000
1000
1000
0001
0001
,
0110
0000
0000
0000
,
1010
0000
0000
1100
0000
0000
1010
0000
0000
1100
0000
0000
1010
0000
0000
1100
,
0000
0000
1010
0000
0000
1100
0000
0000
1010
0000
0000
0000
0000
0000
0000
0000
,
0101
0000
0000
0011
0000
0000
0101
0000
0000
0011
0000
0000
0101
0000
0000
0011
,
0000
0000
0101
0000
0000
0011
0000
0000
0001
0000
0100
0000
0010
0000
1000
0000
,
1001
0000
0000
1010
0000
0000
1001
0000
0000
1010
0000
0000
1001
0000
0000
1010
,
0000
0000
1001
0000
0000
1010
0000
0000
1001
0000
0000
0000
0000
0000
0000
0000
,
1001
0000
0000
0011
0000
0000
1001
0000
0000
0011
0000
0000
1001
0000
0000
0001
,
0010
0000
0000
0010
0100
0000
0000
0100
1000
0000
0001
0000
1000
0000
0001
0000
,
1000
0010
0200
0000
0301
0010
2000
0000
,
3010
0001
0200
0000
0310
0100
0001
0010
,
0100
0010
0002
0000
1003
0001
0200
0000
,
0310
0000
1000
0000
0002
0000
0000
0000
0013
0000
0000
0100
0000
0000
0010
0000
,
0001
1000
0020
0000
0130
0001
2000
0000
,
3100
0010
0002
0000
0013
0100
0010
0001
,
0100
0000
0010
0000
0100
0000
0010
0000
1000
0001
1000
0001
1000
0001
1000
0001
,
1000
0000
1001
0000
0000
0011
0000
0000
0110
0000
0000
1100
0000
0000
0110
0000
,
1001
0001
1000
0001
,
0010
0001
0100
0010
,
1001
1000
0001
0100
,
0001
1000
0100
0010
,
1001
1000
0001
0010
,
0001
0100
0010
1000
,
1001
0001
1000
0010
,
0100
0010
1000
0100
,
1000
0000
0000
1000
0000
0000
1000
0000
0001
0000
0000
0001
0000
0000
0001
0000
,
0100
0000
0000
0010
0000
0000
1000
0000
0010
0000
0000
0100
0000
0000
0001
0000
,
0010
0000
0000
0010
0000
0000
0010
0000
0100
0000
0000
0100
0000
0000
0100
0000
,
0010
0000
0000
0001
0000
0000
1000
0000
0010
0000
0000
0100
0000
0000
0001
0000
,
1000
0000
0000
1000
0000
0000
1000
0000
0010
0000
0000
0010
0000
0000
0010
0000
,
0100
0000
0000
0001
0000
0000
0010
0000
0100
0000
0000
0010
0000
0000
0001
0000
,
0100
0000
0000
0100
0000
0000
0100
0000
0010
0000
0000
0010
0000
0000
0010
0000
,
2000
0000
3002
0000
0203
0000
0320
0030
0110
0000
0000
0000
1001
0000
0000
0000
,
0110
0000
1010
0000
0001
0010
0110
0000
,
0100
1000
1010
0010
0100
0001
0010
0100
,
1100
0000
0101
0000
0001
1000
1010
0000
,
1000
0010
0110
0100
0001
0010
0100
1000
,
1001
0000
0110
0000
0001
0010
0011
0000
,
0001
0100
0110
0010
1000
0100
0010
0001
,
0011
0000
0011
0000
0001
1000
1010
0000
,
1000
0001
0101
0001
1000
0010
1000
0100
,
0010
0000
0100
2000
0010
0000
3001
0200
,
0010
0000
0301
2000
0100
0000
3001
0200
,
0010
0000
0301
0020
0100
0000
0031
2000
,
0100
0000
3001
0200
0010
0000
0301
0000
,
1001
0000
0001
2000
0010
0000
3100
0020
,
0001
0000
0130
2000
0010
0000
3100
0010
,
0001
0000
0000
0000
0001
0010
0000
0000
0100
0000
1000
0000
0010
0100
0000
0000
,
1001
0000
0110
0000
,
0101
0000
0000
1010
0000
0000
0101
0000
0000
1010
0000
0000
0101
0000
0000
1010
,
0000
0000
0101
0000
0000
1010
0000
0000
1001
0000
0000
0000
0000
0000
0000
0000
,
1100
0000
0000
0011
0000
0000
1100
0000
0000
0011
0000
0000
1100
0000
0000
0011
,
0000
0000
1100
0000
0000
0011
0000
0000
1000
0000
0100
0000
0010
0000
0001
0000
,
1001
0000
0000
0011
0000
0000
1001
0000
0000
1010
0000
0000
1001
0000
0000
0011
,
0000
0000
1001
0000
0000
1010
0000
0000
1001
0000
0000
0000
0000
0000
0000
0000
,
1001
0000
0000
1100
0000
0000
1001
0000
0000
0101
0000
0000
1001
0000
0000
1000
,
0100
0000
0010
0000
0001
0000
1000
0000
0010
0000
0100
0001
0010
0000
0100
0000
,
1000
0001
0000
0000
0000
0000
0000
0000
0000
0000
0000
0000
0000
0000
0000
0000
;

//---------------dance-single - ----------------
#NOTEDATA:;
#CHARTNAME:;
#STEPSTYPE:dance-single;
#DESCRIPTION:;
#CHARTSTYLE:;
#DIFFICULTY:Challenge;
#METER:105;
#RADARVALUES:0.685549,0.739285,0.460055,0.325211,0.694048,605.000000,547.000000,58.000000,41.000000,58.000000,0.000000,4.000000,0.000000,0.000000,0.685549,0.739285,0.460055,0.325211,0.694048,605.000000,547.000000,58.000000,41.000000,58.000000,0.000000,4.000000,0.000000,0.000000;
#CREDIT:;
#OFFSET:-2.596999;
#BPMS:0.000000=155.000000
;
#STOPS:14.000000=0.193549
,14.500000=0.193548
,44.000000=0.193550
,45.500000=0.193548
,204.000000=0.193550
,204.500000=0.193550
,265.000000=0.580643
,265.500000=0.580643
;
#DELAYS:;
#WARPS:;
#TIMESIGNATURES:0.000000=4=4
;
#TICKCOUNTS:0.000000=4
;
#COMBOS:0.000000=1
;
#SPEEDS:0.000000=1.000000=0.000000=0
;
#SCROLLS:0.000000=1.000000
;
#FAKES:;
#LABELS:0.000000=Song Start
;
#NOTES:
MMMM
M000
MMMM
0000
MMMM
M00M
M00M
MMMM
,
0000
0000
MM00
00M0
M00M
000M
M00M
00M0
MM00
0000
0000
0000
MMMM
0000
M000
0000
,
MMM0
0000
M000
0000
MMMM
0000
0000
0000
0MMM
M00M
000M
00M0
0M00
M000
MMMM
0000
,
0040
0400
0000
0000
0000
0000
0330
0000
1001
0000
0110
0000
1001
0000
0000
0000
,
0001
0100
0000
0000
0010
0000
1000
0000
0001
0100
0000
0000
0001
0000
0010
0000
,
0100
1000
0000
0000
0001
0000
1000
0000
0001
1000
0001
0000
0010
0000
0000
0000
,
0100
0010
0000
0000
0100
0000
1000
0000
0100
0010
0000
0000
0100
0000
0010
0000
,
0001
1000
0000
0000
0010
0000
1000
0001
1000
0001
0000
0000
1000
0000
0000
0000
,
0001
0100
0000
0000
0010
0000
0100
0000
0001
0100
0000
0000
0010
0000
0100
0000
,
0001
1000
0000
0000
0100
0000
0010
0000
0001
1000
0001
0000
1000
0000
0000
0000
,
0001
0100
0000
0000
0010
0000
1000
0000
0001
1000
0000
0000
0010
0000
1000
0000
,
2200
3300
0010
0000
0001
0000
0022
0033
1001
0000
0000
0000
0010
0100
0000
0000
,
0010
0000
1000
0000
0100
0010
0000
0000
0100
0000
0010
0000
0001
0100
0000
0000
,
0010
0000
1000
0000
0001
1000
0001
0000
0011
0000
0000
0000
0100
0010
0000
0000
,
0100
0000
1000
0000
0010
0100
0000
0000
0010
0000
1000
0000
0001
0010
0000
0000
,
0100
0000
1000
0001
1000
0001
0000
0000
0101
0000
0000
0000
0010
1000
0000
0000
,
0100
0000
1000
0000
0010
0100
0000
0000
0010
0000
0100
0000
0001
0010
0000
0000
,
0100
0000
0010
0000
0001
1000
0001
0000
1010
0000
0000
0000
0001
0010
0000
0000
,
0110
0000
0010
0000
0001
0010
0100
0000
1001
0000
0000
0000
0000
0000
0000
0000
,
0000
0000
0000
0000
0000
0000
0000
0000
1001
0000
1000
0010
0000
0001
0010
0000
,
1000
0010
0000
0001
0010
0000
1000
0010
0000
0001
0010
0000
1000
0010
0000
0001
,
0010
0000
0000
0000
0000
0000
0000
0000
1001
0000
0001
0100
0000
1000
0100
0000
,
0001
0100
0000
1000
0100
0000
0001
0100
0000
1000
0100
0000
0001
0100
0000
1000
,
0100
0000
0110
0000
0010
0000
0110
0000
1001
0000
0001
0100
0000
0010
1000
0000
,
0001
0100
0000
0010
1000
0000
0001
0100
0000
0010
1000
0000
0001
0100
0000
0010
,
1000
0000
0000
0000
0000
0000
1000
0001
1001
0000
1000
0100
0000
0010
0001
0000
,
1000
0100
0000
0010
0001
0000
1000
0100
0010
0000
0000
0001
0010
0000
0000
0010
,
0100
0000
1000
0000
0010
0000
0100
0000
0001
1000
0200
0000
0010
0000
0000
0000
,
0310
0001
0200
0000
0010
0000
0000
0000
0310
1000
0002
0000
1000
0000
0000
0000
,
1003
0001
0020
0000
0100
0000
0000
0000
0130
0010
0002
0000
0100
0000
0000
0000
,
0103
0010
2000
0000
0100
0000
0000
0000
3100
1000
0020
0000
0100
0000
0000
0000
,
0130
0001
2000
0000
0010
0000
0000
0000
3010
0100
0002
0000
1000
0000
0000
0000
,
0013
0100
2000
0000
0100
0000
0000
0000
3010
0100
0002
0000
0010
0000
0000
0000
,
1003
0001
0200
0000
0010
0000
0000
0000
0301
0000
1000
0000
0100
0000
0001
0000
,
0100
0010
0001
0100
0010
1000
0001
0010
0000
0000
0110
0000
0000
0011
0000
0000
,
1010
0000
0000
0101
0000
0000
1001
0000
0110
0000
0000
0000
0010
0100
0000
0000
,
0000
0000
0000
0000
0010
1000
0000
0000
0000
0000
0000
0000
0001
0100
0000
0000
,
0000
0000
0001
1000
0001
0000
0000
0000
1000
0000
0000
0000
1000
0001
0000
0000
,
0000
0000
0000
0000
0010
0100
0000
0000
0000
0000
0000
0000
0100
1000
0000
0000
,
0000
0000
0001
0100
0001
0100
0000
0000
0010
0100
0000
0000
0100
0010
0000
0000
,
0000
0000
0000
0000
0100
1000
0000
0000
0000
0000
0000
0000
1000
0001
0000
0000
,
0000
0000
0001
1000
0001
0000
0000
0000
1000
0000
0000
0000
0100
0001
0000
0000
,
0000
0000
0000
0000
1000
0010
0000
0000
0000
0000
0000
0000
1000
0100
0000
0000
,
0000
0000
0010
0001
0010
0001
0000
0000
1000
0000
0000
1000
0000
0000
2000
0000
,
0001
0000
0000
0001
0000
0000
3002
0000
0203
0000
0000
0320
0000
0000
2030
0000
,
3002
0000
0000
0023
0000
0000
0230
0000
0010
0000
0000
0010
0000
0000
0320
0000
,
0100
0000
0000
0100
0000
0000
0230
0000
0320
0000
0000
0032
0000
0000
0203
0000
,
2300
0000
0000
3200
0000
0000
0320
0000
1000
0000
0000
1000
0000
0000
2030
0000
,
0001
0000
0000
0001
0000
0000
3002
0000
0023
0000
0000
2030
0000
0000
3020
0000
,
0032
0000
0000
0203
0000
0000
2300
0000
0100
0000
0000
0100
0000
0000
3200
0000
,
0010
0000
0000
0010
0000
0000
0310
0000
0004
4000
0000
0000
0000
0000
0000
3003
,
1001
0000
0110
0000
1001
0000
0000
0000
0001
0010
0000
0000
0110
0000
0010
0000
,
0001
0100
0000
0000
0001
0000
0100
0000
1100
0000
0100
0000
0010
0000
1000
0000
,
1010
0000
0001
0000
1001
0000
0000
0000
1000
0010
0000
0000
0100
0000
0001
0000
,
0010
0100
0000
0000
0010
0000
0001
0000
0011
0000
0001
0000
0100
0000
1000
0000
,
1100
0000
0100
0000
0110
0000
0000
0000
0100
0001
0000
0000
0010
0000
0100
0000
,
1000
0001
0000
0000
1000
0000
0010
0000
0011
0000
0001
0000
0010
0000
1000
0000
,
1010
0000
0010
0000
0110
0000
0000
0000
0010
0001
0000
0000
0010
0000
0001
0000
,
0101
0000
1000
0010
1000
0001
0010
0100
,
0010
0000
0001
0000
1000
0000
0000
0000
0001
0100
0010
0000
1010
0000
0000
0000
,
1000
0010
0100
0000
0101
0000
0000
0000
0001
0100
0010
0000
1010
0000
0000
0000
,
1000
0010
0100
0000
1001
0000
0000
0000
1000
0010
0100
0000
0101
0000
0000
0000
,
0001
0100
0010
0000
1010
0000
0000
0000
1000
0010
0100
0000
0101
0000
0000
0000
,
0001
0100
0010
0000
1001
0000
0000
0000
1000
0100
0001
0000
0101
0000
0000
0000
,
0001
0100
1000
0000
1100
0000
0000
0000
1000
0100
0001
0000
0101
0000
0000
0000
,
0001
0100
1000
0000
1001
0000
0000
0000
1000
0010
0001
0000
0011
0000
0000
0000
,
0001
0010
1000
0000
1001
0000
0110
0000
1001
0000
0001
0100
0000
1000
0100
0000
,
0001
0100
0000
1000
0100
0000
0001
0100
0000
1000
0100
0000
0001
0100
0000
1000
,
0100
0000
0000
0000
0000
0000
0000
0000
1001
0000
1000
0010
0000
0001
0010
0000
,
1000
0010
0000
0001
0010
0000
1000
0010
0000
0001
0010
0000
1000
0010
0000
0001
,
0010
0000
0110
0000
0100
0000
0110
0000
1001
0000
1000
0010
0000
0100
0001
0000
,
1000
0010
0000
0100
0001
0000
1000
0010
0000
0100
0001
0000
1000
0010
0000
0100
,
0001
0000
0000
0000
0000
0000
0001
1000
1001
0000
0001
0010
0000
0100
1000
0000
,
0001
0010
0000
0100
1000
0000
0001
0010
0100
0000
1000
0000
0100
0000
0010
0000
,
0100
0000
0000
0000
0000
0000
1000
0000
0001
0000
1000
0000
0001
0000
0000
0000
0000
0000
0010
0000
0000
0000
0000
0000
0100
0000
0000
0100
0000
0000
0000
0000
0000
0000
0000
0000
0000
0000
0000
0000
0000
0000
0000
0000
0000
0000
0000
0000
;

//---------------dance-single - ----------------
#NOTEDATA:;
#CHARTNAME:;
#STEPSTYPE:dance-single;
#DESCRIPTION:;
#CHARTSTYLE:;
#DIFFICULTY:Medium;
#METER:70;
#RADARVALUES:0.458921,0.512827,0.269687,0.111048,0.178469,405.000000,371.000000,34.000000,14.000000,0.000000,0.000000,0.000000,0.000000,0.000000,0.458921,0.512827,0.269687,0.111048,0.178469,405.000000,371.000000,34.000000,14.000000,0.000000,0.000000,0.000000,0.000000,0.000000;
#CREDIT:;
#NOTES:
0000
0000
0000
0000
,
0000
0000
0000
0000
,
0000
0000
0000
0000
,
1000
0010
0100
0001
1001
0000
0110
0000
,
1001
0000
0011
0000
0001
0100
0010
0000
,
0100
0010
1000
0000
0001
0000
1001
0000
,
1000
0000
1010
0000
0010
0100
0001
0000
,
1000
0001
0010
0000
0100
0010
0010
0000
,
0100
0000
1001
0000
1000
0001
0010
0000
,
0100
0010
0001
0000
0010
0001
1000
0000
,
0001
0000
1010
0000
1000
0010
0100
0000
,
0001
0010
2000
0000
3010
0001
0200
0000
,
0310
0000
1001
0000
0001
0100
0010
0000
,
0100
0010
1000
0000
0010
0100
0001
0000
,
1000
0000
0011
0000
0010
0100
1000
0000
,
0100
1000
0010
0000
0100
0001
0001
0000
,
1000
0000
0011
0000
0010
0100
1000
0000
,
0100
1000
0010
0000
0100
0001
1000
0000
,
0001
0000
1010
0000
1000
0010
0100
0001
,
1001
0000
0000
0000
,
0001
0000
0000
0001
0000
0000
0001
0000
0000
0001
0000
0000
0001
0000
0000
0001
,
0000
0000
0001
0000
0000
0001
0000
0000
0001
0000
0000
0000
0000
0000
0000
0000
,
1000
0000
0000
1000
0000
0000
1000
0000
0000
1000
0000
0000
1000
0000
0000
1000
,
0000
0000
1000
0000
0000
1000
0000
0000
1000
0000
0010
0000
0100
0000
0001
0000
,
0100
0000
0000
0100
0000
0000
0100
0000
0000
0100
0000
0000
0100
0000
0000
0100
,
0000
0000
0100
0000
0000
0100
0000
0000
0100
0000
0000
0000
0000
0000
0000
0000
,
0010
0000
0000
0010
0000
0000
0010
0000
0000
0010
0000
0000
0010
0000
0000
0000
,
0110
1001
0110
1001
,
0001
1000
0020
0000
2030
0000
3100
0000
,
0010
0001
0200
0000
0302
0000
1003
0000
,
0100
0010
0002
0000
0023
0000
0130
0000
,
0010
0001
2000
0000
3020
0000
0130
0000
,
0010
1000
0002
0000
0023
0000
0031
0000
,
0010
0001
0200
0000
0320
0000
0130
0000
,
0010
0100
0001
1000
0001
0010
0100
1000
,
0000
0000
0001
0000
0000
0010
0000
0000
0001
0000
0000
1000
0000
0000
0010
0000
,
0100
0001
0100
1000
,
0100
0001
0100
1000
,
0100
0010
1000
0010
,
0001
0010
1000
0010
,
0100
0001
0010
0001
,
0100
0001
0010
0001
,
1000
0100
0010
0100
,
1000
0100
0010
0100
,
1000
0000
0000
0000
0010
1000
0000
0000
0000
0000
0000
0000
0001
0100
0000
0000
,
0000
0000
0000
0000
0010
1000
0000
0000
0000
0000
0000
0000
0001
0100
0000
0000
,
0000
0000
0000
0000
0001
1000
0000
0000
0000
0000
0000
0000
0001
0010
0000
0000
,
0000
0000
0000
0000
0100
1000
0000
0000
0000
0000
0000
0000
0001
0010
0000
0000
,
0000
0000
0000
0000
0001
0100
0000
0000
0000
0000
0000
0000
0100
0010
0000
0000
,
0000
0000
0000
0000
0010
1000
0000
0000
0000
0000
0000
0000
1000
0100
0000
0000
,
0000
0000
0000
0000
0100
0010
0000
0000
0000
0000
0000
0000
0010
0001
0000
0000
,
0001
0100
1000
0100
0110
0000
1001
0000
,
0001
0000
0101
0000
0001
0100
0110
0000
,
0010
0000
1010
0000
1000
0100
0110
0000
,
0100
0000
1100
0000
0100
1000
1010
0000
,
0010
0000
0101
0000
0100
0001
0011
0000
,
0001
0000
1001
0000
1000
0001
0101
0000
,
0001
0000
0110
0000
0010
1000
0110
0000
,
0010
0000
1001
0000
0001
0100
0110
0000
,
0001
0100
0010
1000
0001
0100
0010
1000
,
0001
0000
1000
0010
0100
0000
0010
1000
,
0001
0000
0010
0100
1000
0000
0100
1000
,
0010
0000
0100
0001
0010
0000
0100
0010
,
0001
0000
0010
0100
1000
0000
0100
1000
,
0010
0000
0100
0001
1000
0000
0100
1000
,
0010
0000
0100
0001
1000
0000
0001
0010
,
0100
0000
0010
0001
0100
0010
0100
0001
,
1000
0000
0110
0000
,
0001
0000
0000
1000
0000
0000
0010
0000
0000
0100
0000
0000
0001
0000
0000
1000
,
0000
0000
0010
0000
0000
0100
0000
0000
0001
0000
0000
0000
0000
0000
0000
0000
,
1000
0000
0000
0100
0000
0000
0010
0000
0000
0001
0000
0000
1000
0000
0000
0100
,
0000
0000
0010
0000
0000
0001
0000
0000
0010
0000
0100
0000
1000
0000
0010
0000
,
0100
0000
0000
0010
0000
0000
1000
0000
0000
0001
0000
0000
0010
0000
0000
0100
,
0000
0000
0010
0000
0000
0001
0000
0000
0100
0000
0000
0000
0000
0000
0000
0000
,
0010
0000
0000
0100
0000
0000
0001
0000
0000
1000
0000
0000
0010
0000
0000
0000
,
0100
0010
1000
0001
0010
0100
1000
0001
,
1000
0010
0000
0000
0000
0000
0000
0000
0000
0000
0000
0000
0000
0000
0000
0000
;

//---------------dance-single - ----------------
#NOTEDATA:;
#CHARTNAME:;
#STEPSTYPE:dance-single;
#DESCRIPTION:;
#CHARTSTYLE:;
#DIFFICULTY:Easy;
#METER:45;
#RADARVALUES:0.298016,0.421981,0.206231,0.134844,0.000000,263.000000,237.000000,26.000000,17.000000,0.000000,0.000000,0.000000,0.000000,0.000000,0.298016,0.421981,0.206231,0.134844,0.000000,263.000000,237.000000,26.000000,17.000000,0.000000,0.000000,0.000000,0.000000,0.000000;
#CREDIT:;
#NOTES:
0000
0000
0000
0000
,
0000
0000
0000
0000
,
0000
0000
0000
0000
,
0020
0000
0100
0130
,
1001
0001
1000
0010
,
1000
0001
0010
0001
,
1001
1001
0001
1000
,
0010
0000
1000
0000
0001
1000
0001
0000
,
1001
1001
0001
0010
,
0001
1000
0100
1000
,
1001
1001
0001
1000
,
0010
0100
0010
0000
0100
0010
0100
0000
,
0110
0110
0010
1000
,
0001
0010
0100
0010
,
0110
0110
0100
1000
,
0010
0000
0100
0000
0001
0100
0001
0000
,
0110
0110
0010
1000
,
0001
0010
0001
1000
,
0110
0000
0110
0000
0100
0010
1000
0001
,
1000
0000
0000
0000
,
0001
0000
1000
0000
,
0010
0000
0100
0000
,
0010
0000
1000
0000
,
0001
0000
0010
0001
,
1000
0000
0100
0000
,
1000
0000
0010
0000
,
0100
0000
0001
0000
,
1000
0001
0100
0010
,
1000
0010
0100
0001
,
0100
0010
1000
0001
,
0010
0100
0010
0001
,
1000
0001
0100
0001
,
1000
0100
0010
0100
,
1000
0010
0100
0001
,
1000
0001
0100
0010
,
1000
0010
0100
0001
,
1001
0000
0001
0000
,
1000
0000
0010
0000
,
0100
0000
0010
0000
,
1000
0000
0001
0000
,
0010
0000
0001
0000
,
1000
0000
0100
0000
,
1000
0000
0010
0000
,
0100
0000
0001
0000
,
1000
0001
0000
0100
,
0000
1000
0000
0100
,
0000
0010
0000
1000
,
0000
0001
0000
0010
,
0000
1000
0000
0010
,
0000
0100
0000
0010
,
0000
0001
0000
1000
,
0020
0000
0000
0000
0100
0000
0100
0030
,
0100
1001
0010
1001
,
0001
0100
0010
1000
,
1001
0010
1001
0100
,
0001
1000
0100
0010
,
1001
0010
1001
0100
,
0001
0100
0010
1000
,
1001
0010
1001
0100
,
0001
0100
0010
1000
,
0001
2000
3100
2000
,
3010
0200
0310
0020
,
1030
2000
3001
0002
,
0013
0020
0130
0200
,
0310
0020
0031
0002
,
1003
2000
3001
0002
,
0103
0200
0320
0230
,
0301
0000
1001
0000
,
0001
0000
1000
0000
,
0010
0000
0100
0000
,
0010
0000
1000
0000
,
0001
0000
0010
0001
,
1000
0000
0100
0000
,
1000
0000
0010
0000
,
0100
0000
0010
0000
,
1000
0010
0100
0001
,
1001
0000
0000
0000
;

//---------------dance-single - ----------------
#NOTEDATA:;
#CHARTNAME:;
#STEPSTYPE:dance-single;
#DESCRIPTION:;
#CHARTSTYLE:;
#DIFFICULTY:Beginner;
#METER:25;
#RADARVALUES:0.151841,0.271274,0.087252,0.000000,0.000000,134.000000,123.000000,11.000000,0.000000,0.000000,0.000000,0.000000,0.000000,0.000000,0.151841,0.271274,0.087252,0.000000,0.000000,134.000000,123.000000,11.000000,0.000000,0.000000,0.000000,0.000000,0.000000,0.000000;
#CREDIT:;
#NOTES:
// measure 0
0000
0000
0000
0000
,  // measure 1
0000
0000
0000
0000
,  // measure 2
0000
0000
0000
0000
,  // measure 3
0000
0000
0110
1001
,  // measure 4
0001
0000
0000
0000
,  // measure 5
1000
0000
0000
0000
,  // measure 6
0010
0000
0000
0000
,  // measure 7
0100
0000
0100
0000
,  // measure 8
0010
0000
0000
0000
,  // measure 9
1000
0000
0000
0000
,  // measure 10
0001
0000
0000
0000
,  // measure 11
0010
0000
0100
0000
,  // measure 12
1001
0000
0000
0000
,  // measure 13
1000
0000
0000
0000
,  // measure 14
0010
0000
0000
0000
,  // measure 15
0100
0000
0000
0000
,  // measure 16
0001
0000
0000
0000
,  // measure 17
0010
0000
0000
0000
,  // measure 18
0001
0000
1000
0000
,  // measure 19
0110
0000
0000
0000
,  // measure 20
0010
0000
0010
0000
,  // measure 21
0010
0000
0010
0000
,  // measure 22
0100
0000
0100
0000
,  // measure 23
0100
0000
0100
0100
,  // measure 24
0001
0000
0001
0000
,  // measure 25
0001
0000
0001
0000
,  // measure 26
1000
0000
1000
0000
,  // measure 27
1000
0000
0001
0000
,  // measure 28
0100
0000
0010
0000
,  // measure 29
1000
0000
0001
0000
,  // measure 30
0100
0000
0010
0000
,  // measure 31
1000
0000
0001
0000
,  // measure 32
1000
0000
0100
0000
,  // measure 33
0010
0000
0001
0000
,  // measure 34
1000
0000
0100
0000
,  // measure 35
0010
0000
0001
0000
,  // measure 36
1001
0000
0000
0000
,  // measure 37
0000
0000
0000
0000
,  // measure 38
0100
0000
0000
0000
,  // measure 39
0000
0000
0000
0000
,  // measure 40
0010
0000
0000
0000
,  // measure 41
0000
0000
0000
0000
,  // measure 42
1000
0000
0000
0000
,  // measure 43
0000
0000
0000
0000
,  // measure 44
0001
0000
0000
0000
,  // measure 45
1000
0000
0000
0000
,  // measure 46
0010
0000
0000
0000
,  // measure 47
0100
0000
0000
0000
,  // measure 48
0001
0000
0000
0000
,  // measure 49
1000
0000
0000
0000
,  // measure 50
0010
0000
0000
0000
,  // measure 51
0000
0000
0110
1001
,  // measure 52
0001
0000
1000
0000
,  // measure 53
0010
0010
0010
0000
,  // measure 54
1000
0000
0001
0000
,  // measure 55
0100
0100
0100
0000
,  // measure 56
0010
0000
0100
0000
,  // measure 57
0001
0001
0001
0000
,  // measure 58
0010
0000
0100
0000
,  // measure 59
1000
1000
1000
1000
,  // measure 60
0001
0000
1000
0000
,  // measure 61
0001
0000
1000
0000
,  // measure 62
0010
0000
0100
0000
,  // measure 63
0010
0000
0100
0000
,  // measure 64
0001
0000
1000
0000
,  // measure 65
0001
0000
1000
0000
,  // measure 66
0010
0000
0100
0000
,  // measure 67
0110
0000
0110
0000
,  // measure 68
1000
0000
1000
0000
,  // measure 69
1000
0000
1000
0000
,  // measure 70
0001
0000
0001
0000
,  // measure 71
0001
0000
0001
0001
,  // measure 72
0100
0000
0100
0000
,  // measure 73
0100
0000
0100
0000
,  // measure 74
0010
0000
0010
0000
,  // measure 75
0010
0000
0010
0110
,  // measure 76
1001
0000
0000
0000
;
