#VERSION:0.83;
#TITLE:BUILD UP;
#SUBTITLE:;
#ARTIST:FORWARD;
#TITLETRANSLIT:;
#SUBTITLETRANSLIT:;
#ARTISTTRANSLIT:;
#GENRE:;
#ORIGIN:;
#CREDIT:;
#BANNER:BUILD UP.png;
#BACKGROUND:BUILD UP-bg.png;
#PREVIEWVID:;
#JACKET:BUILD UP-jacket.png;
#CDIMAGE:;
#DISCIMAGE:;
#LYRICSPATH:;
#CDTITLE:;
#MUSIC:BUILD UP.ogg;
#OFFSET:0.000000;
#SAMPLESTART:7.131111;
#SAMPLELENGTH:14.222223;
#SELECTABLE:YES;
#BPMS:0.000=135.000;
#STOPS:;
#DELAYS:;
#WARPS:;
#TIMESIGNATURES:0.000=4=4;
#TICKCOUNTS:0.000=4;
#COMBOS:0.000=1;
#SPEEDS:0.000=1.000=0.000=0;
#SCROLLS:0.000=1.000;
#FAKES:;
#LABELS:0.000=Song Start;
#BGCHANGES:;
#KEYSOUNDS:;
#ATTACKS:
;

//---------------dance-single - ----------------
#NOTEDATA:;
#CHARTNAME:;
#STEPSTYPE:dance-single;
#DESCRIPTION:;
#CHARTSTYLE:;
#DIFFICULTY:Hard;
#METER:70;
#RADARVALUES:0.379447,0.453702,0.482932,0.076252,0.279592,209.000000,171.000000,38.000000,6.000000,0.000000,0.000000,0.000000,0.000000,0.000000,0.379447,0.453702,0.482932,0.076252,0.279592,209.000000,171.000000,38.000000,6.000000,0.000000,0.000000,0.000000,0.000000,0.000000;
#CREDIT:;
#NOTES:
0000
0000
0000
0000
,
0000
0000
0000
0000
,
0000
0000
0000
0000
,
0000
0000
0000
0000
,
0001
0000
0100
0000
0000
0001
0000
0010
0000
0000
0000
0000
0110
0000
0000
0000
,
0010
0000
0001
0000
0000
1000
0000
0010
0000
0000
0000
0000
0110
0000
0000
0000
,
0010
0000
1000
0000
0000
0001
0000
0010
0000
0000
0000
0000
0110
0000
0000
0000
,
0010
0000
0001
0000
0000
0100
0000
0010
0000
0000
1000
0000
0000
0020
0000
0000
,
0130
0000
0010
0000
0000
1000
0000
0001
0000
0000
0000
0000
1001
0000
0000
0000
,
0001
0000
0010
0000
0000
0100
0000
0010
0000
0000
0000
0000
1001
0000
0000
0000
,
0001
0000
1000
0000
0000
0010
0000
0100
0000
0000
0000
0000
1001
0000
0000
0000
,
1000
0000
0001
0000
0000
0010
0000
0100
0000
0000
0010
0000
0000
0002
0000
0000
,
1003
1000
1000
1000
,
1000
1000
1000
1000
,
1001
1000
1000
1000
,
1000
1000
1000
1000
,
1001
0001
0001
0001
,
0001
0001
0001
0001
,
1001
0001
0001
0001
,
1001
0110
1001
0110
,
1000
0000
0000
0010
0000
0000
0100
0000
0000
0010
0000
0000
0100
0000
0100
0000
,
0000
0000
0000
0001
0000
0000
0010
0000
0000
0100
0000
0000
1000
0000
1000
0000
,
0000
0000
0000
0100
0000
0000
0010
0000
0000
0001
0000
0000
1000
0000
1000
0000
,
0001
0000
0000
0000
,
1001
0000
0000
0010
0000
0000
1000
0000
0000
0010
0000
0000
0100
0000
0100
0000
,
0010
0000
0000
1000
0000
0000
0001
0000
0000
0010
0000
0000
0100
0000
0110
0000
,
0110
0000
0000
0010
0000
0000
0001
0000
0000
0100
0000
0000
0010
0000
0010
0000
,
1000
0000
0000
0001
0000
0000
0100
0000
0000
0010
0000
0000
1000
0000
1000
0000
,
1010
0000
0000
0010
0000
0000
1000
0000
0000
0001
0000
0000
0010
0000
0010
0000
,
0000
0000
0000
0100
0000
0000
0010
0000
0000
0001
0000
0000
1000
0000
0000
0000
,
1001
0000
0110
1001
,
0010
0000
0110
1001
,
0100
0000
0110
1001
,
0010
0000
0000
0000
0110
0110
0110
0000
,
0100
0000
1001
0110
,
0001
0000
0110
1001
,
1000
0000
1001
0110
,
0001
0000
0000
0000
1001
1001
1001
1001
,
1001
0000
0000
0000
0000
0000
1000
0000
0000
0010
0000
0100
0020
0000
0000
0000
,
1030
0000
0000
0000
0000
0000
0001
0000
0000
0010
0000
0100
0020
0000
0000
0000
,
0031
0000
0000
0000
0000
0000
1000
0000
0000
0010
0000
0100
0002
0000
0000
0000
,
0003
0000
0000
0000
0000
0000
1000
0000
0000
0001
0000
0100
0020
0000
0000
0000
,
0030
0000
0000
0000
;

//---------------dance-single - ----------------
#NOTEDATA:;
#CHARTNAME:;
#STEPSTYPE:dance-single;
#DESCRIPTION:;
#CHARTSTYLE:;
#DIFFICULTY:Challenge;
#METER:80;
#RADARVALUES:0.399418,0.576659,0.393971,0.127087,0.292301,220.000000,168.000000,31.000000,10.000000,32.000000,21.000000,0.000000,0.000000,0.000000,0.399418,0.576659,0.393971,0.127087,0.292301,220.000000,168.000000,31.000000,10.000000,32.000000,21.000000,0.000000,0.000000,0.000000;
#CREDIT:;
#OFFSET:0.000000;
#BPMS:0.000000=135.000000
;
#STOPS:92.000000=1.333332
;
#DELAYS:;
#WARPS:;
#TIMESIGNATURES:0.000000=4=4
;
#TICKCOUNTS:0.000000=4
;
#COMBOS:0.000000=1
;
#SPEEDS:0.000000=1.000000=0.000000=0
;
#SCROLLS:0.000000=1.000000
;
#FAKES:;
#LABELS:0.000000=Song Start
;
#NOTES:
// measure 0
0000
0000
0000
0000
,  // measure 1
0000
0000
0000
0000
,  // measure 2
0000
0000
0000
0000
,  // measure 3
0000
0000
0000
0000
,  // measure 4
1000
0000
0010
0000
0000
0100
0000
0010
0000
0000
0000
0000
1002
0000
0000
0000
,  // measure 5
0013
0000
0100
0000
0000
1000
0000
0100
0000
0000
0000
0000
0012
0000
0000
0000
,  // measure 6
0103
0000
1000
0000
0000
0010
0000
0100
0000
0000
0000
0000
0102
0000
0000
0000
,  // measure 7
0013
0000
0100
0000
0000
0010
0000
0100
0000
0000
0001
0000
0001
0100
0000
0100
,  // measure 8
0010
0000
1000
0000
0000
0100
0000
1000
0000
0000
0000
0000
0012
0000
0000
0000
,  // measure 9
0103
0000
0010
0000
0000
1000
0000
0010
0000
0000
0000
0000
0102
0000
0000
0000
,  // measure 10
0013
0000
0100
0000
0000
1000
0000
0100
0000
0000
0000
0000
1020
0000
0000
0000
,  // measure 11
0130
0000
0010
0000
0000
1000
0000
0001
0100
0000
0010
1000
0000
0001
0100
0000
,  // measure 12
M001
100M
M001
100M
,  // measure 13
M001
100M
M001
100M
,  // measure 14
M001
100M
M001
100M
,  // measure 15
M001
100M
M001
100M
,  // measure 16
0M10
01M0
0M10
01M0
,  // measure 17
0M10
01M0
0M10
01M0
,  // measure 18
0M10
01M0
0M10
01M0
,  // measure 19
0M10
01M0
0M10
01M0
,  // measure 20
0000
0000
0000
0001
0000
0000
0100
0000
0000
0010
0000
0000
1000
0000
1000
0000
,  // measure 21
0000
0000
0000
0001
0000
0000
0010
0000
0000
0100
0000
0000
0010
0000
0010
0000
,  // measure 22
0000
0000
0000
0001
0000
0000
0100
0000
0000
0010
0000
0000
1000
0000
1000
0000
,  // measure 23
0000
0000
0000
0000
1001
0000
0000
0001
0000
0000
0100
0000
0000
0010
0000
0000
,  // measure 24
1000
0000
1000
0000
0010
0000
0000
0100
0000
0000
0001
0000
0000
0010
0000
0000
,  // measure 25
0100
0000
0110
0000
0011
0000
0000
0010
0000
0000
0100
0000
0000
1000
0000
0000
,  // measure 26
0100
0000
0100
0000
1000
0000
0000
0010
0000
0000
0100
0000
0000
0001
0000
0000
,  // measure 27
1000
0000
0001
0000
0101
0000
0000
0001
0000
0000
0010
0000
0000
0100
0000
0000
,  // measure 28
0010
0000
0010
0000
0001
0000
0000
0100
0000
0000
0010
0000
0000
1000
0000
0000
,  // measure 29
0001
1011
0000
1101
,  // measure 30
1101
0000
0000
1110
,  // measure 31
1110
0000
0000
0111
,  // measure 32
0111
0000
0000
0000
0000
0000
1101
1101
,  // measure 33
1101
0000
0000
1101
,  // measure 34
1101
0000
0000
0111
,  // measure 35
0111
0000
0000
1110
,  // measure 36
1110
0000
0000
0000
0000
0000
1011
1011
,  // measure 37
1011
0000
1011
0000
1011
0000
0000
0000
0000
0000
0001
0000
0000
0100
0000
0010
,  // measure 38
2000
0000
0000
0000
3100
0000
0000
0000
0000
0000
0010
0000
0000
0001
0000
0010
,  // measure 39
0200
0000
0000
0000
0310
0000
0000
0000
0000
0000
0001
0000
0000
0100
0000
0010
,  // measure 40
2000
0000
0000
0000
3000
0000
0000
0000
0000
0000
0100
0000
0000
0010
0000
0001
,  // measure 41
2000
3000
0000
0000
;

//---------------dance-single - ----------------
#NOTEDATA:;
#CHARTNAME:;
#STEPSTYPE:dance-single;
#DESCRIPTION:;
#CHARTSTYLE:;
#DIFFICULTY:Medium;
#METER:45;
#RADARVALUES:0.315903,0.346949,0.343136,0.050835,0.000000,174.000000,147.000000,27.000000,4.000000,0.000000,0.000000,0.000000,0.000000,0.000000,0.315903,0.346949,0.343136,0.050835,0.000000,174.000000,147.000000,27.000000,4.000000,0.000000,0.000000,0.000000,0.000000,0.000000;
#CREDIT:;
#NOTES:
0000
0000
0000
0000
,
0000
0000
0000
0000
,
0000
0000
0000
0000
,
0000
0000
0000
0000
,
1000
0001
0010
1001
,
0001
1000
0010
1001
,
0001
1000
0100
1001
,
1000
0000
0001
0000
0100
0010
0100
0000
,
0001
0100
0010
1010
,
1000
0010
0100
0101
,
0001
0010
0100
1100
,
0100
0000
1000
0000
0010
0100
0010
0000
,
1000
1000
1000
1000
,
1000
1000
1000
1000
,
1001
1000
1000
1000
,
1000
1000
1000
1000
,
1001
0001
0001
0001
,
0001
0001
0001
0001
,
1001
0001
0001
0001
,
0100
0100
0100
0100
,
0010
0000
1000
0000
0001
0000
0010
0010
,
0001
0000
0100
0000
0010
0000
1000
1000
,
0001
0000
0010
0000
0100
0000
0010
0010
,
0001
0000
0000
0000
,
1001
0000
0001
0000
0100
0000
0010
0010
,
1000
0000
0010
0000
0100
0000
0001
0001
,
1001
0000
1000
0000
0001
0000
0010
0010
,
0001
0000
0100
0000
0010
0000
1000
1000
,
1010
0000
0010
0000
0100
0000
0001
0001
,
1000
0001
0010
0100
,
1001
0000
0110
1001
,
0000
0000
1001
0110
,
0000
0000
0110
1001
,
0000
0000
0000
0000
0110
0010
0010
0000
,
0000
0000
1001
0110
,
0000
0000
0110
1001
,
0000
0000
0110
1001
,
0000
0000
0000
0000
0110
0100
0100
0100
,
0100
0010
1000
0002
,
0013
0001
1000
0020
,
1030
0100
0010
0200
,
1300
0100
0010
0002
,
0003
0000
0000
0000
;

//---------------dance-single - ----------------
#NOTEDATA:;
#CHARTNAME:;
#STEPSTYPE:dance-single;
#DESCRIPTION:;
#CHARTSTYLE:;
#DIFFICULTY:Easy;
#METER:25;
#RADARVALUES:0.156136,0.266884,0.228757,0.050835,0.000000,86.000000,68.000000,18.000000,4.000000,0.000000,0.000000,0.000000,0.000000,0.000000,0.156136,0.266884,0.228757,0.050835,0.000000,86.000000,68.000000,18.000000,4.000000,0.000000,0.000000,0.000000,0.000000,0.000000;
#CREDIT:;
#NOTES:
0000
0000
0000
0000
,
0000
0000
0000
0000
,
0000
0000
0000
0000
,
0000
0000
0000
0000
,
1000
0000
0000
0001
,
1000
0000
0000
0001
,
1000
0000
0000
0001
,
1000
0000
0010
0000
,
0100
0000
0000
0010
,
0100
0000
0000
0010
,
0100
0000
0000
0010
,
0100
0000
0010
0000
,
1000
0000
0000
0000
,
1000
0000
0000
0000
,
1001
0000
0000
0000
,
0001
0100
0001
0000
,
0110
0000
0000
0000
,
0010
0000
0000
0000
,
1001
0000
0000
0000
,
1000
0001
1000
0000
,
0010
0000
1000
0000
,
0100
0000
1000
0000
,
0001
0000
0100
0000
,
0010
0000
0000
0000
,
1001
0000
0000
0000
,
0000
0000
0000
0000
0000
0000
0000
1000
,
0001
0000
0000
0000
,
0000
0000
0000
0000
,
1001
0000
0000
0000
,
0000
0000
0000
0000
,
1001
0000
1001
1001
,
0000
0000
0110
0110
,
0000
0000
1001
1001
,
0000
0000
0000
0000
0010
0100
0010
0000
,
0000
0000
1001
0110
,
0000
0000
0110
1001
,
0000
0000
1001
0110
,
0000
0000
0000
0000
0001
1000
0001
1000
,
0001
0000
1000
0020
,
0030
0000
0100
0002
,
0003
0000
0010
0200
,
0300
0000
1000
0002
,
0003
0000
0000
0000
;

//---------------dance-single - ----------------
#NOTEDATA:;
#CHARTNAME:;
#STEPSTYPE:dance-single;
#DESCRIPTION:;
#CHARTSTYLE:;
#DIFFICULTY:Beginner;
#METER:10;
#RADARVALUES:0.087146,0.159177,0.050835,0.000000,0.000000,48.000000,44.000000,4.000000,0.000000,0.000000,0.000000,0.000000,0.000000,0.000000,0.087146,0.159177,0.050835,0.000000,0.000000,48.000000,44.000000,4.000000,0.000000,0.000000,0.000000,0.000000,0.000000,0.000000;
#CREDIT:;
#NOTES:
0000
0000
0000
0000
,
0000
0000
0000
0000
,
0000
0000
0000
0000
,
0000
0000
0000
0000
,
0010
0000
0000
0000
,
0010
0000
0000
0000
,
0010
0000
0000
0000
,
0010
0000
0000
0000
,
0100
0000
0000
0000
,
0100
0000
0000
0000
,
0100
0000
0000
0000
,
0100
0000
0000
0000
,
0001
0000
0000
0000
,
0000
0000
0000
0000
,
0000
0000
0000
0000
,
1000
0000
0000
0000
,
0010
0000
0000
0000
,
0000
0000
0000
0000
,
0000
0000
0000
0000
,
0100
0000
0000
0000
,
0001
0000
0000
0000
,
1000
0000
0000
0000
,
0010
0000
0000
0000
,
0100
0000
0000
0000
,
1001
0000
0000
0000
,
1000
0000
0000
0000
,
1001
0000
0000
0000
,
0001
0000
0000
0000
,
0110
0000
0000
0000
,
0100
0000
0000
0000
,
0110
0000
0010
0010
,
0000
0000
0010
0010
,
0000
0000
0010
0010
,
0000
0000
0010
0010
,
0000
0000
0100
0100
,
0000
0000
0100
0100
,
0000
0000
0100
0100
,
0000
0000
0100
0100
,
0100
0000
0000
0010
,
0000
0000
0000
1000
,
0000
0000
0000
0001
,
0000
0000
0000
0010
;
