#VERSION:0.83;
#TITLE:1116;
#SUBTITLE:;
#ARTIST:BEMANI Sound Team "Dustup";
#TITLETRANSLIT:;
#SUBTITLETRANSLIT:;
#ARTISTTRANSLIT:Dustup;
#GENRE:;
#ORIGIN:;
#CREDIT:;
#BANNER:1116.png;
#BACKGROUND:1116-bg.png;
#PREVIEWVID:;
#JACKET:1116-jacket.png;
#CDIMAGE:;
#DISCIMAGE:;
#LYRICSPATH:;
#CDTITLE:;
#MUSIC:1116.mp3;
#OFFSET:-1.299999;
#SAMPLESTART:36.648575;
#SAMPLELENGTH:10.105267;
#SELECTABLE:YES;
#BPMS:0.000=190.000;
#STOPS:64.000=4.737,
191.000=0.316;
#DELAYS:;
#WARPS:;
#TIMESIGNATURES:0.000=4=4;
#TICKCOUNTS:0.000=4;
#COMBOS:0.000=1;
#SPEEDS:0.000=1.000=0.000=0;
#SCROLLS:0.000=1.000;
#FAKES:;
#LABELS:0.000=Song Start;
#BGCHANGES:;
#KEYSOUNDS:;
#ATTACKS:
;

//---------------dance-single - ----------------
#NOTEDATA:;
#CHARTNAME:;
#STEPSTYPE:dance-single;
#DESCRIPTION:;
#CHARTSTYLE:;
#DIFFICULTY:Hard;
#METER:100;
#RADARVALUES:0.668012,0.853301,0.401051,0.273056,0.392518,548.000000,501.000000,47.000000,32.000000,0.000000,0.000000,0.000000,0.000000,0.000000,0.668012,0.853301,0.401051,0.273056,0.392518,548.000000,501.000000,47.000000,32.000000,0.000000,0.000000,0.000000,0.000000,0.000000;
#CREDIT:;
#NOTES:
// measure 0
0000
0000
0000
0000
,  // measure 1
0000
0000
0000
0000
,  // measure 2
0000
0000
0000
0000
,  // measure 3
0000
0000
0000
0000
,  // measure 4
1001
0010
0000
0010
,  // measure 5
1001
0010
0000
0010
,  // measure 6
1001
0010
0000
0010
,  // measure 7
0101
0010
0000
0010
,  // measure 8
1001
0000
0000
0001
0000
0000
0010
0000
0000
0001
0000
0000
1000
0000
0010
0000
,  // measure 9
1001
0000
0000
0001
0000
0000
1000
0000
0000
0010
0000
0000
1000
0000
0001
0000
,  // measure 10
1001
0000
0000
0001
0000
0000
0010
0000
0000
0001
0000
0000
1000
0000
0001
0000
,  // measure 11
0101
0000
0000
0001
0000
0000
0100
0000
0000
0010
0000
0000
0100
0000
0001
0000
,  // measure 12
1001
1000
0100
0010
0001
0010
0100
0010
,  // measure 13
1001
0001
0010
0100
1000
0100
0010
0100
,  // measure 14
1001
0001
0010
0100
1000
0010
0100
0001
,  // measure 15
0011
0000
0000
0000
,  // measure 16
1100
0000
0000
0000
1000
0000
0000
0010
0000
0000
0100
0000
0000
0010
0000
0000
,  // measure 17
1000
0000
0001
0000
0010
0000
0000
0001
0000
0000
1000
0000
0001
0000
0000
0100
,  // measure 18
0000
0000
0010
0000
1000
0000
0000
0010
0000
0000
0100
0000
0000
0001
0000
0000
,  // measure 19
0010
0000
0001
0000
1000
0000
0000
0001
0000
0000
0010
0000
0200
0000
0000
0000
,  // measure 20
2300
0000
0000
0000
3001
0000
0000
0100
0000
0000
0010
0000
0000
1000
0000
0000
,  // measure 21
0100
0000
0010
0000
0001
0000
0000
1000
0000
0000
0010
0000
1000
0000
0000
0100
,  // measure 22
0000
0000
0010
0000
0100
0000
0000
0010
0000
0000
0001
0000
0000
1000
0000
0000
,  // measure 23
0010
0000
0100
0000
0001
0000
0000
1000
0000
0000
0100
0000
0020
0000
0130
0000
,  // measure 24
2000
3001
1000
0001
0010
0001
1000
0100
,  // measure 25
0010
0001
1000
0010
0001
0010
1000
0010
,  // measure 26
0001
0010
1000
0010
0100
0001
1000
0100
,  // measure 27
0010
0000
0001
0000
1000
0001
1000
0001
1000
0001
1000
0001
0100
0000
0001
0000
,  // measure 28
1000
0001
1000
0010
0100
0001
0010
0100
,  // measure 29
1000
0001
1000
0010
0001
0010
1000
0010
,  // measure 30
0001
0010
0100
0010
1000
0001
0010
0100
,  // measure 31
0010
0000
0001
0000
1000
0100
1000
0100
1000
0100
1000
0100
1000
0000
0100
0000
,  // measure 32
0010
0001
1000
0001
0100
0020
0230
0000
,  // measure 33
0301
0000
0010
0100
0010
0002
2003
0000
,  // measure 34
3100
0000
0010
0100
1000
0002
0203
0000
,  // measure 35
0310
0000
0000
0000
1000
0010
0100
0001
1000
0010
0100
0001
2000
0000
0000
0000
,  // measure 36
3002
0000
0013
0100
1000
0002
0203
0000
,  // measure 37
0310
0000
0100
0001
1000
0200
0320
0000
,  // measure 38
0130
0000
0010
0100
1000
0002
0203
0000
,  // measure 39
0310
0000
0000
0000
0010
0100
0001
1000
0100
0010
0100
1000
0001
0000
1000
0000
,  // measure 40
0100
0010
1001
0000
1000
0010
0100
0000
,  // measure 41
0010
0100
0001
0000
1000
0100
0010
0000
,  // measure 42
0100
1000
0001
0000
0010
0001
0100
0000
,  // measure 43
0010
1000
0001
0000
0010
0100
1000
0000
,  // measure 44
0100
1000
0010
0100
0010
0100
0001
0100
,  // measure 45
0010
1000
0001
1000
0001
1000
0100
0010
,  // measure 46
0100
0000
1000
0000
0001
1000
0001
1000
0001
1000
0001
1000
0001
1000
0001
1000
,  // measure 47
0001
1000
0001
1000
0002
0000
0000
0000
0023
0000
0000
0000
0030
0000
0000
0000
,  // measure 48
0110
0000
0000
0100
0000
0000
1100
0000
0000
1000
0000
0000
1001
0000
0000
0000
0000
0000
0001
0000
0000
0000
1000
0000
,  // measure 49
0010
0000
0000
0000
0000
0000
0100
0000
0000
0010
0000
0000
1010
0000
0000
0000
0000
0000
1100
0000
0000
0000
0100
0000
,  // measure 50
1000
0001
0010
0001
0000
1000
0010
0000
0000
0100
0010
1000
,  // measure 51
0001
0000
0011
0000
0011
0010
0110
0000
,  // measure 52
0010
0100
1000
0001
0000
1000
0010
0000
0100
0001
0000
1000
,  // measure 53
0100
0000
0000
0000
0000
0000
0010
0000
0000
0100
0000
0000
1000
0000
0000
0000
0000
0000
0001
0000
1000
0000
0001
0000
,  // measure 54
0100
0110
0101
1100
,  // measure 55
2000
0000
3200
0000
0310
0010
0100
0000
,  // measure 56
1000
0000
0000
0010
0000
0000
1001
0000
0000
0000
0000
0000
0110
0000
0000
0000
0000
0000
1000
0000
0010
0000
1000
0000
,  // measure 57
0100
0000
0000
0000
0110
0000
0000
0000
1100
0000
0000
0000
0001
1000
0001
1000
,  // measure 58
0001
0000
1000
0010
1000
0010
1000
0010
,  // measure 59
1000
0010
1000
0010
1000
0010
0201
0000
,  // measure 60
0320
0000
0000
0030
0000
0000
0110
0000
0000
0000
0000
0000
0101
0000
0000
0000
0000
0000
1001
0000
0000
0000
1000
0000
,  // measure 61
0100
0110
1100
1002
,  // measure 62
0103
0010
0001
0010
1000
0100
0001
0100
,  // measure 63
1000
0000
0100
0000
1000
0000
0010
0000
0100
0000
0001
0000
,  // measure 64
2002
0000
0000
0000
0000
0000
0000
0000
3003
0000
0000
0000
0100
0000
0000
0000
0000
0000
0000
0000
0000
0100
0000
0000
0000
0000
0000
0010
0000
0000
0000
0000
0000
0000
0000
0000
0010
0000
0000
0000
0000
0000
0100
0000
0000
0010
0000
0000
,  // measure 65
0100
0000
0100
0000
0010
0000
0100
0000
0000
0010
0000
0000
0100
0000
0010
0000
,  // measure 66
0220
0000
0330
0000
0001
0000
0000
1000
0000
0001
0000
0000
1000
0000
0001
1000
,  // measure 67
0001
0000
1000
0000
0001
0000
1000
0000
0000
0001
0000
0000
1000
0000
0001
0000
,  // measure 68
1001
0000
0000
0000
0000
0000
0001
0000
0000
0000
0000
0000
0010
0000
0000
0000
0000
0100
0000
0000
0000
0000
1000
0000
0000
0000
0000
0010
0000
0000
0000
0000
,  // measure 69
0000
0100
0000
0000
0000
0000
0001
0000
0000
0000
0000
1000
0000
0000
0000
0000
0001
0000
0000
0000
0001
0000
0000
0000
1000
0000
0000
0000
0001
0000
0000
0000
,  // measure 70
0100
0000
0010
0000
1000
0100
0000
0010
0100
0000
1000
0100
1000
0000
0001
0000
,  // measure 71
0100
0000
0010
1000
0010
0000
1000
0100
1000
0100
1000
0100
1000
0100
1000
0000
,  // measure 72
1001
0000
0001
0000
0100
0000
0010
1000
,  // measure 73
1001
0000
1000
0000
0100
0000
0010
0100
,  // measure 74
1001
0000
1000
0000
0010
0000
0100
0001
,  // measure 75
0101
0000
1000
0000
0200
0000
2300
3000
,  // measure 76
1001
0000
0001
0000
0100
0000
0010
1000
,  // measure 77
1001
0000
0001
0000
0010
0000
0100
0010
,  // measure 78
1001
0000
0001
0000
0100
0000
0010
1000
,  // measure 79
0102
0000
0000
0000
,  // measure 80
0013
0000
0000
0000
;

//---------------dance-single - ----------------
#NOTEDATA:;
#CHARTNAME:;
#STEPSTYPE:dance-single;
#DESCRIPTION:;
#CHARTSTYLE:;
#DIFFICULTY:Challenge;
#METER:120;
#RADARVALUES:0.822826,1.336269,0.947164,0.349853,0.584511,675.000000,563.000000,111.000000,41.000000,96.000000,1.000000,0.000000,0.000000,52.000000,0.822826,1.336269,0.947164,0.349853,0.584511,675.000000,563.000000,111.000000,41.000000,96.000000,1.000000,0.000000,0.000000,52.000000;
#CREDIT:;
#OFFSET:-1.299999;
#BPMS:0.000000=190.000000
,64.000000=1116.000000
,111.000000=190.000000
,247.000000=380.000000
,335.000000=190.000000
,343.000000=380.000000
,391.000000=190.000000
;
#STOPS:64.000000=2.526316
;
#DELAYS:;
#WARPS:237.000000=8.000000
,313.000000=8.000000
,345.000000=8.000000
,365.000000=8.000000
,455.000000=8.000000
;
#TIMESIGNATURES:0.000000=4=4
;
#TICKCOUNTS:0.000000=4
;
#COMBOS:0.000000=1
;
#SPEEDS:0.000000=1.000000=0.000000=0
;
#SCROLLS:0.000000=1.000000
;
#FAKES:;
#LABELS:0.000000=Song Start
;
#NOTES:
// measure 0
0000
0000
0000
0000
,  // measure 1
0000
0000
0000
0000
,  // measure 2
0000
0000
0000
0000
,  // measure 3
0000
0000
0000
0000
,  // measure 4
1001
0010
0000
0010
,  // measure 5
1001
0010
0000
0010
,  // measure 6
1001
0010
0000
1001
,  // measure 7
0110
0010
0000
0010
,  // measure 8
1001
0000
0000
1000
0000
0000
0100
0000
0000
1000
0000
0000
0010
0000
0100
0000
,  // measure 9
1001
0000
0000
0001
0000
0000
0010
0000
0000
0100
0000
0000
0010
0000
0001
0000
,  // measure 10
1001
0000
0000
0001
0000
0000
0100
0000
0000
0010
0000
0000
1000
0000
0010
0000
,  // measure 11
0110
0000
0000
0100
0000
0000
0001
0000
0000
0010
0000
0000
0100
0000
0010
0000
,  // measure 12
1001
1000
0100
0010
0100
1000
0010
0100
,  // measure 13
1001
0001
0010
0100
0010
0001
0100
0010
,  // measure 14
1001
0001
0100
0010
1000
0001
0010
0100
0010
0001
0100
0010
1000
0100
0010
0001
,  // measure 15
0200
0000
0000
0000
,  // measure 16
0010
0300
0000
0000
0000
0000
0000
0000
0000
0000
0000
0000
0000
0000
0000
0000
0000
0000
0000
0000
0000
0000
0000
0000
0000
0000
0000
0000
0000
0000
0000
0000
0000
0000
0000
0000
0000
0000
0000
0000
0000
0000
0000
0000
0000
0000
0000
0000
M000
0000
0000
0000
0000
0000
0000
0000
0000
0000
0000
0000
0000
0000
0000
0000
0000
0000
0000
0000
0000
0000
0000
0000
0000
0000
0000
0000
0000
0000
0000
0000
0000
0000
0000
0000
0000
0000
0000
0000
0000
0000
0000
0000
0000
0000
0000
0000
0000
0000
0000
0000
0000
0000
0000
0000
0000
0000
0000
0000
0000
0000
0000
0000
0000
0000
0000
0000
0000
0000
0000
0000
0000
0000
0000
0000
0000
0000
0000
0000
0000
0000
0000
0000
0000
0000
0000
0000
0000
0000
0000
0000
0000
0000
0000
0000
0000
0000
0000
0000
0000
0000
0000
0000
0000
0000
0000
0000
0000
0000
0000
0000
0000
0000
0000
0000
0000
0000
0000
0000
0000
0000
0000
0000
0000
0000
0000
0000
0000
0000
0000
0000
0000
0000
0000
0000
0000
0000
0000
0000
0000
0000
0000
0000
,  // measure 17
0M00
0000
0000
0000
,  // measure 18
0000
0000
00M0
0000
,  // measure 19
0000
0000
0M00
0000
,  // measure 20
0000
0000
0000
0000
,  // measure 21
M000
0000
0000
0000
,  // measure 22
0000
00M0
0000
0000
,  // measure 23
0000
0000
0000
M000
,  // measure 24
0000
0M00
0000
0000
,  // measure 25
0000
0000
0M00
0000
,  // measure 26
0000
00M0
0000
0000
,  // measure 27
M000
0000
0000
0000
0000
0000
0000
0000
0000
0000
0000
0000
0001
0000
1000
0100
,  // measure 28
0000
0010
0001
0000
1000
0100
0000
0100
1000
0000
0001
0000
0100
0010
0000
1000
,  // measure 29
0001
0000
1000
0001
0000
0010
0100
0000
0010
0000
0001
0000
1000
0000
1000
0010
,  // measure 30
0000
0100
0001
0000
0010
0100
0000
0010
0001
0000
1000
0000
0001
0010
0000
0100
,  // measure 31
1000
0000
0001
0000
0200
0000
0000
0000
0320
0000
0000
0000
1030
0000
0001
0100
,  // measure 32
0000
0001
1000
0000
0001
0010
0000
0100
0010
0000
0001
0000
1000
0000
0010
1000
,  // measure 33
0000
0001
0010
0000
0100
1000
0000
0100
0010
0000
0100
0000
1000
0000
0010
0100
,  // measure 34
0000
0001
1000
0000
0010
1000
0000
0001
0100
0000
0001
0000
0010
0000
0001
0010
,  // measure 35
0000
0010
0100
0000
0010
0000
0001
0000
0100
0000
1000
0000
0100
0000
0010
0000
,  // measure 36
1000
0001
0010
1000
0010
0001
1000
0010
,  // measure 37
0100
0001
1000
0100
0001
0100
0010
0001
,  // measure 38
0100
0000
0010
0000
1000
0000
0010
0000
0001
0000
0010
0000
1000
0010
0100
0001
,  // measure 39
0010
0100
0010
0001
1000
0000
0100
0000
0010
0000
0001
0000
1000
0000
0001
0000
,  // measure 40
0010
0001
0100
1000
0100
0001
1000
0100
,  // measure 41
0010
0100
1000
0010
0001
0010
1000
0010
,  // measure 42
0100
0000
0001
0000
1000
0000
0100
0000
0001
0000
0100
0000
1000
0100
0010
0100
,  // measure 43
1000
0010
0100
0001
1000
0000
0100
0000
0010
0000
0001
0000
1000
0000
0100
0000
,  // measure 44
0010
0100
2000
3020
0230
0302
0013
0100
,  // measure 45
0010
0001
2000
3002
0203
0302
0013
0100
,  // measure 46
0010
0000
0001
0000
2000
0000
3020
0000
0230
0000
0320
0000
1030
0010
0100
0001
,  // measure 47
0010
0100
0010
0001
2000
0000
3200
0000
0320
0000
0230
0000
1300
0000
0010
0000
,  // measure 48
0100
0001
1000
2000
0001
3002
0103
0001
,  // measure 49
0010
0100
0010
0020
0100
0230
0310
0001
,  // measure 50
1000
0000
0010
0000
0100
0000
0200
0000
0001
0000
0302
0000
0013
0100
0010
0001
,  // measure 51
1000
0010
0100
0001
1000
0000
0100
0000
0001
0000
0100
0000
1100
0000
0000
0000
,  // measure 52
1100
0100
0110
0000
0110
0010
0011
0000
,  // measure 53
0011
0001
0101
0000
0101
0100
0110
0000
,  // measure 54
0110
0010
1010
0000
1010
1000
1001
0000
,  // measure 55
1001
0001
0011
0000
0011
0010
0110
0100
,  // measure 56
0100
1000
1000
0001
0001
0100
0100
0010
,  // measure 57
0010
0000
1000
0000
1000
0000
0001
0000
0001
0000
1000
0000
0001
0100
0010
1000
,  // measure 58
0100
0010
0100
1000
0001
0100
0010
0100
0001
1000
0100
0010
0110
0000
0000
0000
,  // measure 59
1001
1111
1111
1001
,  // measure 60
1000
1010
1000
1001
,  // measure 61
0000
MMMM
MMMM
1001
,  // measure 62
1000
1010
1000
1001
,  // measure 63
0000
0000
0011
0000
0010
0100
1000
0000
,  // measure 64
0000
1100
1000
1010
,  // measure 65
0000
0000
0000
0110
0000
0000
0000
0010
0000
1000
0000
0001
,  // measure 66
0000
0010
0000
0110
0000
0000
0000
0000
0000
1100
0000
0000
,  // measure 67
0000
0000
0000
0100
0000
0010
0000
0001
0000
1000
0000
0010
,  // measure 68
0000
0001
0000
0010
0000
0000
0000
0000
0000
0110
0000
0000
,  // measure 69
0100
0000
0000
0000
0000
0000
0110
0000
0000
0000
0000
0000
0000
0000
0000
1000
0000
0000
0001
0000
0000
0000
1000
0000
,  // measure 70
0000
0100
0000
1100
0000
0000
0100
0000
0000
0110
0000
0000
,  // measure 71
0000
0000
0011
0000
0001
0100
0001
0000
,  // measure 72
0000
1010
1000
1001
,  // measure 73
0000
0000
0000
0001
0000
1000
0000
0010
0000
1010
0000
0000
,  // measure 74
0000
1100
0000
0101
,  // measure 75
0000
0011
0000
1020
,  // measure 76
0000
0230
0000
0301
,  // measure 77
1000
0220
0330
0000
,  // measure 78
0000
M00M
0000
0M0M
,  // measure 79
0000
0000
0000
M0M0
0000
0000
0000
0000
0000
M000
0000
0M00
,  // measure 80
0000
1001
0000
0101
,  // measure 81
0000
0000
0000
1010
0000
0000
0000
1000
0000
0100
0000
0000
,  // measure 82
0000
0110
0000
0011
,  // measure 83
0000
0000
1000
0010
1000
0010
1000
0001
,  // measure 84
0100
0010
1000
0010
0001
0010
1000
0010
,  // measure 85
0001
0010
1000
0010
1001
0000
0120
0000
,  // measure 86
0030
0M0M
0000
00MM
,  // measure 87
0000
0M0M
0000
0000
,  // measure 88
0000
0101
0000
0011
,  // measure 89
0000
0000
0000
0101
0000
0000
0000
0010
0000
1000
0000
0000
,  // measure 90
0000
1000
0000
0001
0000
0000
0000
0000
0000
0011
0000
0000
,  // measure 91
0000
1111
0000
M00M
,  // measure 92
M000
00M0
0M00
0M00
,  // measure 93
0000
MMMM
0000
1001
,  // measure 94
1000
0010
0100
0100
,  // measure 95
0010
0100
0001
0000
1000
0001
0101
0000
,  // measure 96
0000
1010
0000
0000
0000
1100
0000
0000
0000
0110
0000
0000
,  // measure 97
0000
0011
0000
0000
0000
0110
0000
0000
0000
2002
0000
3003
,  // measure 98
M11M
0000
0000
M11M
0000
M11M
0000
0000
M11M
0000
M10M
M01M
M10M
0000
M11M
0000
,  // measure 99
M11M
0000
M11M
0000
0000
M11M
0000
0000
M11M
0000
M11M
0000
2M2M
0M0M
3M3M
0000
,  // measure 100
1MM1
0000
0000
1MM1
0000
1MM1
0000
0000
1MM1
0000
0MM1
1MM0
0MM1
0000
1MM1
0000
,  // measure 101
1MM1
0000
1MM1
0000
0000
1MM1
0000
0000
1MM1
0000
M11M
0000
1MM1
00M0
0000
0M11
,  // measure 102
0000
0000
M000
0000
0110
0000
000M
0000
0000
1100
00M0
0000
0000
0000
1M01
0000
0000
0000
M000
0110
0000
0000
00M0
0000
0101
0000
M000
0000
0000
0000
10M1
0000
,  // measure 103
0000
0000
0000
1100
0000
0000
000M
0000
0001
0000
M000
0000
0001
0000
00M0
0000
1000
0000
0000
0000
0001
0000
0000
0000
0100
0000
0000
0000
0010
0000
0000
0000
,  // measure 104
1000
0100
0000
0010
0100
0000
1000
0100
1000
0000
0001
0000
0100
0000
0010
1000
,  // measure 105
0010
0000
1000
0001
1000
0010
1000
0001
1000
0010
1000
0001
1001
0000
0000
1000
,  // measure 106
0000
0000
0100
0000
0000
1000
0000
0000
0010
0000
0100
0000
1001
0000
0000
1000
,  // measure 107
0000
0000
0010
0000
0100
0000
0000
0001
0000
0000
0010
0000
1001
0000
0000
0001
,  // measure 108
0000
0000
0010
0000
0000
0001
0000
0000
0100
0000
0010
0000
0110
0000
0000
0100
,  // measure 109
0010
0000
0000
0010
0200
0000
0000
0000
0302
0000
0000
0003
1001
0000
0000
1000
,  // measure 110
0000
0000
0001
0000
0000
0010
0000
0000
0001
0000
0100
0000
1001
0000
0000
0010
,  // measure 111
0000
0000
1000
0000
0000
0010
0000
0000
0100
0000
0001
0000
1001
0000
0000
0001
,  // measure 112
0000
0000
0010
0000
0000
0100
0000
0000
0010
0000
0001
0000
2002
0000
0000
0000
,  // measure 113
0000
0000
0000
0000
0000
0000
3003
0000
0000
M0MM
M0MM
M0MM
,  // measure 114
M0MM
0000
0000
0000
,  // measure 115
0000
0000
0000
2022
,  // measure 116
3033
0000
0000
0000
;

//---------------dance-single - ----------------
#NOTEDATA:;
#CHARTNAME:;
#STEPSTYPE:dance-single;
#DESCRIPTION:;
#CHARTSTYLE:;
#DIFFICULTY:Medium;
#METER:80;
#RADARVALUES:0.525389,0.614376,0.375452,0.238924,0.089597,431.000000,387.000000,44.000000,28.000000,0.000000,0.000000,0.000000,0.000000,0.000000,0.525389,0.614376,0.375452,0.238924,0.089597,431.000000,387.000000,44.000000,28.000000,0.000000,0.000000,0.000000,0.000000,0.000000;
#CREDIT:;
#NOTES:
// measure 0
0000
0000
0000
0000
,  // measure 1
0000
0000
0000
0000
,  // measure 2
0000
0000
0000
0000
,  // measure 3
0000
0000
0000
0000
,  // measure 4
1001
0000
0000
0000
,  // measure 5
1001
0000
0000
0000
,  // measure 6
1001
0000
0000
0000
,  // measure 7
0110
0000
0000
0000
,  // measure 8
1001
0001
1000
0010
,  // measure 9
1001
0001
1000
0010
,  // measure 10
1001
0001
1000
0010
,  // measure 11
0110
0001
1000
0010
,  // measure 12
1001
0001
1000
0000
0010
0100
0010
0000
,  // measure 13
1001
0001
1000
0000
0010
0100
0010
0000
,  // measure 14
1001
0001
1000
0001
1000
0001
1000
0001
,  // measure 15
0110
0000
0000
0000
,  // measure 16
1001
0000
0000
0000
1000
0000
0000
0010
0000
0000
0100
0000
0000
0010
0000
0000
,  // measure 17
1000
0100
1000
0000
0010
0000
0100
0000
,  // measure 18
0001
0000
0000
0000
0010
0000
0000
0001
0000
0000
0100
0000
0000
0010
0000
0000
,  // measure 19
1000
0001
0010
0000
0001
0000
2000
0000
,  // measure 20
3020
0000
0000
0000
0130
0000
0000
0010
0000
0000
1000
0000
0000
0100
0000
0000
,  // measure 21
0010
0001
1000
0000
0001
0000
0010
0000
,  // measure 22
0001
0000
0000
0000
0100
0000
0000
0010
0000
0000
1000
0000
0000
0100
0000
0000
,  // measure 23
0010
0100
1000
0000
0010
0000
0100
0010
,  // measure 24
1000
0001
0020
0000
0130
0000
0010
0001
,  // measure 25
0100
0000
0020
0000
1030
0000
0001
1000
,  // measure 26
0100
0000
0020
0000
0130
0000
0010
0001
,  // measure 27
0100
0000
0001
0100
1000
0100
0002
0000
,  // measure 28
0023
0000
0230
0000
0310
0000
0001
1000
,  // measure 29
0010
0000
0200
0000
0301
0000
0100
0010
,  // measure 30
1000
0000
0002
0000
0013
0000
0100
0010
,  // measure 31
0001
0000
1000
0010
0001
0010
2000
0000
,  // measure 32
3002
0000
0013
0000
0001
0000
0100
0010
,  // measure 33
1000
0001
0010
0000
0100
0000
0010
0001
,  // measure 34
1000
0010
0100
0000
0010
0000
1000
0010
,  // measure 35
0100
0001
0010
1000
0010
0001
0020
0000
,  // measure 36
0032
0000
0103
0000
0001
0000
0010
0001
,  // measure 37
0100
0010
1000
0000
0010
0000
0100
0010
,  // measure 38
1000
0100
0010
0000
0100
0000
0010
0001
,  // measure 39
1000
0010
0100
1000
0100
0001
0200
0000
,  // measure 40
0320
0000
1030
0000
0001
1000
0001
0000
,  // measure 41
1000
0001
1000
0000
0010
1000
0010
0000
,  // measure 42
0100
0001
0100
0000
0001
0010
0001
0000
,  // measure 43
0010
0100
0010
0000
0100
1000
0100
0000
,  // measure 44
1000
0001
0100
0010
0100
0010
0100
0010
,  // measure 45
0100
0000
0001
1000
0001
1000
0001
1000
,  // measure 46
0001
0000
1000
0010
0100
0001
1000
0100
,  // measure 47
0010
0001
1001
0000
0110
0000
0000
0000
,  // measure 48
1000
1000
0001
0010
0200
0000
0310
0001
,  // measure 49
2000
0000
3010
0100
0001
0000
1000
0000
,  // measure 50
0001
0010
0001
1000
0010
0000
0100
0010
,  // measure 51
1000
0001
0010
0000
0100
0100
0010
0000
,  // measure 52
0001
0010
0100
1000
0001
0000
1000
0001
,  // measure 53
0100
0000
0001
0000
0010
0100
0010
0001
,  // measure 54
1000
0010
0100
0001
,  // measure 55
0021
0000
0230
0000
0310
0001
2000
0000
,  // measure 56
3010
0110
1010
1100
,  // measure 57
1001
0101
0011
0200
,  // measure 58
0310
0000
0000
0011
0000
1010
0000
0011
,  // measure 59
0000
1010
0000
0011
0000
0010
2002
0000
,  // measure 60
3003
0110
1010
0101
,  // measure 61
0011
0110
1100
1002
,  // measure 62
0103
0000
0001
0010
0000
0100
0010
0001
,  // measure 63
1000
0000
1000
0000
0001
0000
0001
0000
0100
0000
0010
0000
,  // measure 64
0100
0000
0000
0000
0010
0000
0000
1000
0000
1000
0000
0000
0010
0000
1000
0000
,  // measure 65
0001
0000
1000
0000
0001
0000
1000
0000
0000
1000
0000
0000
0001
0000
1000
0000
,  // measure 66
0001
0000
0000
0000
0100
0000
0000
0001
0000
0001
0000
0000
0100
0000
0010
0000
,  // measure 67
1000
0000
0001
0000
0010
0000
0100
0000
0000
1000
0000
0000
0001
0000
1000
0000
,  // measure 68
0001
0000
0100
0000
0000
0000
0010
0000
0000
0000
1000
0000
,  // measure 69
0000
0000
0000
0000
0001
0000
0000
0000
0000
0000
0000
0000
0100
0000
0000
0010
0000
0000
1000
0000
0000
0001
0000
0000
,  // measure 70
0010
0100
1000
0000
0100
0001
0010
0000
,  // measure 71
0100
0010
0001
0100
1000
0100
0010
1000
,  // measure 72
1001
0000
0010
0000
1000
0000
0001
1000
,  // measure 73
1001
1000
0010
0100
,  // measure 74
1001
0000
0001
0000
0010
0000
0100
0010
,  // measure 75
0110
0010
0002
0103
,  // measure 76
1001
0000
0001
0000
1000
0000
0010
1000
,  // measure 77
1001
0001
0010
0100
,  // measure 78
1001
0000
0001
0000
0100
0000
0001
1000
,  // measure 79
0220
0000
0000
0330
,  // measure 80
1001
0000
0000
0000
;

//---------------dance-single - ----------------
#NOTEDATA:;
#CHARTNAME:;
#STEPSTYPE:dance-single;
#DESCRIPTION:;
#CHARTSTYLE:;
#DIFFICULTY:Easy;
#METER:55;
#RADARVALUES:0.369357,0.477848,0.273056,0.230391,0.017066,303.000000,271.000000,32.000000,27.000000,0.000000,0.000000,0.000000,0.000000,0.000000,0.369357,0.477848,0.273056,0.230391,0.017066,303.000000,271.000000,32.000000,27.000000,0.000000,0.000000,0.000000,0.000000,0.000000;
#CREDIT:;
#NOTES:
// measure 0
0000
0000
0000
0000
,  // measure 1
0000
0000
0000
0000
,  // measure 2
0000
0000
0000
0000
,  // measure 3
0000
0000
0000
0000
,  // measure 4
1001
0000
0000
0000
,  // measure 5
1001
0000
0000
0000
,  // measure 6
1001
0000
0000
0000
,  // measure 7
0110
0000
0000
0000
,  // measure 8
1001
0001
1000
0001
,  // measure 9
1001
1000
0001
1000
,  // measure 10
1001
0001
1000
0001
,  // measure 11
0110
0001
1000
0001
,  // measure 12
1001
0001
1000
0010
,  // measure 13
1001
1000
0001
0010
,  // measure 14
1001
0001
1000
0100
,  // measure 15
0110
0000
0000
0000
,  // measure 16
1001
1000
0010
0100
,  // measure 17
0001
0100
0010
1000
,  // measure 18
0010
0100
0001
1000
,  // measure 19
0100
1000
0010
0200
,  // measure 20
0302
0013
0100
0010
,  // measure 21
0001
1000
0010
1000
,  // measure 22
0100
1000
0001
0100
,  // measure 23
0010
0000
1000
0000
0010
0000
1000
0100
,  // measure 24
0010
0001
1000
0000
0001
0000
0100
0000
,  // measure 25
0001
0010
0100
0010
,  // measure 26
0001
0100
0010
1000
,  // measure 27
0001
0000
1000
0100
0010
0001
2000
0000
,  // measure 28
3002
0103
0010
1000
,  // measure 29
0010
0100
0001
0010
,  // measure 30
0100
0010
0001
1000
,  // measure 31
0010
0000
0100
0010
1000
0001
1000
0000
,  // measure 32
0100
2000
0000
3200
,  // measure 33
0000
0320
0000
0032
,  // measure 34
0000
0023
0000
0230
,  // measure 35
0000
0000
0310
0001
0100
0010
2000
0000
,  // measure 36
3002
2003
0000
3020
,  // measure 37
0000
0230
0000
0302
,  // measure 38
0000
0203
0000
0320
,  // measure 39
0000
0000
0130
0010
1000
0001
1000
0000
,  // measure 40
0100
1000
0010
0100
,  // measure 41
0010
1000
0001
0010
,  // measure 42
0100
0010
0001
1000
,  // measure 43
0010
0100
0001
1000
,  // measure 44
0010
1000
0100
0010
,  // measure 45
0001
1000
0100
0010
,  // measure 46
0001
1000
0001
0100
,  // measure 47
0010
1001
1001
0000
,  // measure 48
0001
0100
0010
1000
0001
0000
1000
0000
,  // measure 49
0010
0000
1000
0001
0010
0000
0100
0000
,  // measure 50
0010
0001
0100
0010
,  // measure 51
1000
0000
0001
0000
0100
0010
1000
0000
,  // measure 52
0100
0010
0100
0010
0001
0000
0010
0100
,  // measure 53
0010
0000
0100
0010
0001
0000
1000
0000
,  // measure 54
0100
0010
0010
0100
,  // measure 55
0110
0000
1001
0000
0001
0100
0010
0000
,  // measure 56
0000
1001
0001
1000
,  // measure 57
0010
1000
0100
0020
,  // measure 58
0031
0000
0000
0100
0000
0100
0000
0100
,  // measure 59
0000
0100
0000
0100
0000
0100
0010
0000
,  // measure 60
0000
1001
0001
1000
,  // measure 61
0010
1000
0001
0200
,  // measure 62
0310
0100
0001
1000
,  // measure 63
1001
0000
0001
0000
0001
0000
0001
0000
0001
0000
0001
0000
,  // measure 64
0220
0000
0000
0000
,  // measure 65
0000
0000
0000
0330
,  // measure 66
2002
0000
0000
0000
,  // measure 67
0000
0000
0000
3003
,  // measure 68
0220
0000
0000
0000
,  // measure 69
0000
0000
0000
0330
,  // measure 70
0001
1000
0010
0100
,  // measure 71
0001
1000
0010
0100
,  // measure 72
1001
0001
1000
0001
,  // measure 73
1001
1000
0001
1000
,  // measure 74
1001
0001
1000
0001
,  // measure 75
0110
0000
0020
1030
,  // measure 76
1001
0001
0010
0100
,  // measure 77
1001
1000
0100
0010
,  // measure 78
1001
0001
0010
0100
,  // measure 79
0110
0000
0000
0000
,  // measure 80
1001
0000
0000
0000
;

//---------------dance-single - ----------------
#NOTEDATA:;
#CHARTNAME:;
#STEPSTYPE:dance-single;
#DESCRIPTION:;
#CHARTSTYLE:;
#DIFFICULTY:Beginner;
#METER:25;
#RADARVALUES:0.138966,0.307188,0.076797,0.000000,0.000000,114.000000,105.000000,9.000000,0.000000,0.000000,0.000000,0.000000,0.000000,0.000000,0.138966,0.307188,0.076797,0.000000,0.000000,114.000000,105.000000,9.000000,0.000000,0.000000,0.000000,0.000000,0.000000,0.000000;
#CREDIT:;
#NOTES:
0000
0000
0000
0000
,
0000
0000
0000
0000
,
0000
0000
0000
0000
,
0000
0000
0000
0000
,
0010
0000
0000
0000
,
0010
0000
0000
0000
,
0010
0000
0000
0000
,
0100
0000
0000
0000
,
0010
0000
0000
0000
,
0010
0000
0000
0000
,
0010
0000
0000
0000
,
0100
0000
0000
0000
,
0010
0000
0000
0000
,
0010
0000
0000
0000
,
0010
0000
0000
0000
,
0100
0000
0000
0000
,
1001
0100
0000
0000
,
0000
0010
0000
0010
,
0000
1000
0000
0000
,
0000
0001
0000
0001
,
0000
0010
0000
0000
,
0000
0001
0000
0001
,
0000
1000
0000
0000
,
0000
0010
0000
0100
,
0100
0010
0000
0000
,
0000
1000
0000
1000
,
0000
0001
0000
0000
,
0000
0010
0010
0010
,
0000
0001
0000
0000
,
0000
1000
0000
0001
,
0000
0100
0000
0000
,
0000
0010
0010
0010
,
0000
1000
0000
0000
,
0000
0100
0000
0000
,
0000
1000
0000
0000
,
0000
0010
0000
0100
,
0000
0001
0000
0000
,
0000
0010
0000
0000
,
0000
0001
0000
0000
,
0000
1000
0000
1000
,
0000
1001
0000
0000
,
0000
0001
0000
0000
,
0000
0100
0000
0000
,
0000
0010
0000
0000
,
0000
1000
0000
0000
,
0000
0100
0000
0000
,
0000
0010
0000
0000
,
0000
0001
0000
0000
,
0001
0001
0001
0000
,
1000
0000
1000
0000
,
0001
0000
0001
0000
,
1000
0000
0000
0000
,
0010
0010
0010
0000
,
0100
0000
0000
0000
,
0010
0000
0000
0000
,
1000
0000
0001
0001
,
0000
1000
1000
0000
,
0001
0000
1000
0000
,
0010
0000
0000
0000
,
0000
0000
0000
0000
,
0100
1001
0000
0001
,
0001
0000
1000
1000
,
0001
0000
0000
0000
,
0100
0000
0000
0000
,
0110
0000
0000
0000
,
0000
0000
0000
0000
,
1001
0000
0000
0000
,
0000
0000
0000
0000
,
0110
0000
0000
0000
,
0000
0000
0000
0000
,
1001
0000
1000
0000
,
0001
0001
0001
0001
,
1001
0000
0000
0000
,
0010
0000
0000
0000
,
0010
0000
0000
0000
,
0100
0000
0000
0000
,
0010
0000
0000
0000
,
0010
0000
0000
0000
,
0010
0000
0000
0000
,
0100
0000
0000
0000
,
1001
0000
0000
0000
;
