#VERSION:0.83;
#TITLE:月影小町;
#SUBTITLE:;
#ARTIST:駄々子;
#TITLETRANSLIT:Tsukikage komachi;
#SUBTITLETRANSLIT:;
#ARTISTTRANSLIT:;
#GENRE:;
#ORIGIN:;
#CREDIT:;
#BANNER:Tsukikage komachi.png;
#BACKGROUND:Tsukikage komachi-bg.png;
#PREVIEWVID:;
#JACKET:Tsukikage komachi-jacket.png;
#CDIMAGE:;
#DISCIMAGE:;
#LYRICSPATH:;
#CDTITLE:;
#MUSIC:Tsukikage komachi.mp3;
#OFFSET:-2.840997;
#SAMPLESTART:68.610229;
#SAMPLELENGTH:10.714287;
#SELECTABLE:YES;
#BPMS:0.000=182.000;
#STOPS:;
#DELAYS:;
#WARPS:;
#TIMESIGNATURES:0.000=4=4;
#TICKCOUNTS:0.000=4;
#COMBOS:0.000=1;
#SPEEDS:0.000=1.000=0.000=0;
#SCROLLS:0.000=1.000;
#FAKES:;
#LABELS:0.000=Song Start;
#BGCHANGES:;
#KEYSOUNDS:;
#ATTACKS:
;

//---------------dance-single - ----------------
#NOTEDATA:;
#CHARTNAME:;
#STEPSTYPE:dance-single;
#DESCRIPTION:;
#CHARTSTYLE:;
#DIFFICULTY:Hard;
#METER:80;
#RADARVALUES:0.359547,0.535296,0.030052,0.097668,0.037565,335.000000,331.000000,4.000000,13.000000,0.000000,0.000000,0.000000,0.000000,0.000000,0.359547,0.535296,0.030052,0.097668,0.037565,335.000000,331.000000,4.000000,13.000000,0.000000,0.000000,0.000000,0.000000,0.000000;
#CREDIT:;
#NOTES:
// measure 0
0000
0000
0000
0000
,  // measure 1
0000
0000
0000
0000
,  // measure 2
0000
0000
0000
0000
,  // measure 3
0000
0000
0000
0000
,  // measure 4
0000
0000
0000
0000
,  // measure 5
0000
0000
0000
0000
,  // measure 6
0000
0000
0000
1000
,  // measure 7
0001
0000
0000
1000
0010
1000
0010
0000
0000
1000
0000
0000
,  // measure 8
1001
0000
0000
0001
,  // measure 9
0010
0000
0000
0001
,  // measure 10
1000
0000
0010
1000
0010
0000
0100
0000
,  // measure 11
0001
0000
0000
0010
,  // measure 12
0100
0000
0000
0010
,  // measure 13
0001
0000
0000
1000
,  // measure 14
0020
0000
0000
0000
,  // measure 15
0000
0000
0000
0000
0000
0000
0030
0100
,  // measure 16
0001
0000
0001
1000
0000
1000
0001
0000
,  // measure 17
0001
0010
0000
0010
0001
0000
0001
0200
,  // measure 18
0000
0000
0000
0000
0300
0000
0010
1000
,  // measure 19
0010
0100
0001
0010
1000
0010
0001
1000
,  // measure 20
0001
0000
1000
0010
0000
0100
0001
0000
,  // measure 21
0010
0100
0000
0010
0001
0100
0001
1000
,  // measure 22
0100
0000
0000
0010
0100
0000
0000
0010
,  // measure 23
0002
0000
0000
0000
1003
0100
0010
0001
,  // measure 24
1000
0000
0001
0000
,  // measure 25
0010
0000
0000
0010
0001
0000
1000
0000
,  // measure 26
0001
1000
0000
0001
0100
0000
0010
0000
,  // measure 27
0100
0000
0000
0010
,  // measure 28
1000
0001
1000
0001
0000
0000
0000
0000
0000
0000
0000
0000
,  // measure 29
0001
1000
0001
1000
0000
0000
0000
0000
0000
0000
0000
0000
,  // measure 30
0101
0000
0101
0000
,  // measure 31
1000
0010
1000
0000
0000
0000
0000
0000
0000
0000
0000
0000
,  // measure 32
0001
1000
0010
1000
,  // measure 33
0001
0010
0001
1000
,  // measure 34
0100
0100
1000
1000
,  // measure 35
0001
0000
0000
0100
,  // measure 36
0001
0010
0000
0010
,  // measure 37
0001
0000
0100
0010
0100
0000
0001
0000
,  // measure 38
0020
0000
0000
0100
,  // measure 39
0130
0000
0000
1000
0000
0000
0010
0000
,  // measure 40
0100
0000
0001
0100
0001
0000
0100
0001
,  // measure 41
0100
0010
1000
0001
1000
0000
0100
0010
,  // measure 42
0100
0000
0010
0100
1000
0010
0100
0001
,  // measure 43
0020
0000
0000
0000
0030
0000
0000
0100
,  // measure 44
0010
0001
1000
0010
0100
0000
0000
0010
,  // measure 45
0100
0001
1000
0100
0010
0000
0000
0100
,  // measure 46
1000
0000
0100
0010
0001
0000
0010
0100
,  // measure 47
1000
0000
0001
0000
,  // measure 48
0200
0000
0000
0000
,  // measure 49
0010
0000
0000
0000
0000
0000
0300
0001
,  // measure 50
0100
0000
0010
1000
0001
0000
0010
0100
,  // measure 51
1000
0000
0100
1000
0010
0000
0100
0001
,  // measure 52
1000
0000
0010
0100
0001
0000
0100
0010
,  // measure 53
1000
0000
0001
0000
0010
0000
0000
0100
,  // measure 54
0010
0000
0100
1000
0010
0000
0100
0001
,  // measure 55
0010
0000
0100
0010
0001
0000
0000
0010
,  // measure 56
0100
0010
0001
1000
,  // measure 57
0002
0000
0000
0000
0000
0000
0003
0100
,  // measure 58
0001
0000
0010
0100
1000
0000
0100
1000
,  // measure 59
0010
0000
0100
0001
0010
0000
0100
0010
,  // measure 60
0001
0000
0001
0010
0100
0000
0100
0010
,  // measure 61
0001
0000
1000
0000
0010
0000
0000
0100
,  // measure 62
0001
1000
0010
0100
0001
0000
0000
0000
,  // measure 63
1000
0010
0100
0001
0010
0000
0000
0100
,  // measure 64
0010
0001
1000
0010
,  // measure 65
0200
0000
0000
0310
,  // measure 66
1001
0000
0001
0000
,  // measure 67
1000
0000
0010
0000
,  // measure 68
0200
0000
0000
0000
,  // measure 69
0010
0000
0000
0000
0000
0000
0000
0310
,  // measure 70
1000
0000
0010
0100
0000
0010
1000
0000
,  // measure 71
0010
0100
0000
0001
0010
0000
0100
2000
,  // measure 72
0000
0000
3000
0000
0000
0000
0100
0010
,  // measure 73
0001
0010
0100
0010
1000
0010
0100
0001
,  // measure 74
1000
0000
0001
0100
0000
0010
1000
0000
,  // measure 75
1000
0100
0000
0100
1000
0010
0100
0001
,  // measure 76
1000
0000
0000
0001
0100
0000
0000
0001
,  // measure 77
1000
0000
0000
0000
0001
0010
0100
1000
,  // measure 78
0001
0000
0000
1000
,  // measure 79
0010
0000
0000
1000
,  // measure 80
0100
1000
0010
0100
,  // measure 81
0001
0000
0000
0010
,  // measure 82
0001
0000
0000
0010
,  // measure 83
0100
0000
0010
0001
,  // measure 84
0200
0000
0000
0310
,  // measure 85
1000
0000
0000
0001
1000
0010
0100
0000
0000
0001
0000
0000
,  // measure 86
1000
0000
0000
0100
,  // measure 87
1000
0000
0000
0100
,  // measure 88
0010
0000
0001
0010
0100
0000
0010
0000
,  // measure 89
0001
0000
0000
1000
,  // measure 90
0001
0000
0000
0100
,  // measure 91
0010
0000
0000
0100
,  // measure 92
0002
0000
0000
0000
,  // measure 93
2000
0000
0000
0000
,  // measure 94
0000
0000
0000
0000
,  // measure 95
3003
0000
0000
0000
;

//---------------dance-single - ----------------
#NOTEDATA:;
#CHARTNAME:;
#STEPSTYPE:dance-single;
#DESCRIPTION:;
#CHARTSTYLE:;
#DIFFICULTY:Challenge;
#METER:90;
#RADARVALUES:0.428237,0.640101,0.210362,0.202849,0.187823,399.000000,371.000000,28.000000,27.000000,0.000000,0.000000,0.000000,0.000000,0.000000,0.428237,0.640101,0.210362,0.202849,0.187823,399.000000,371.000000,28.000000,27.000000,0.000000,0.000000,0.000000,0.000000,0.000000;
#CREDIT:;
#OFFSET:-2.840997;
#BPMS:0.000000=91.000000
,32.000000=182.000000
,64.000000=91.000000
,80.000000=182.000000
,144.000000=45.500000
,146.000000=182.000000
,210.000000=91.000000
,218.000000=182.000000
,250.000000=91.000000
,284.000000=182.000000
;
#STOPS:;
#DELAYS:;
#WARPS:;
#TIMESIGNATURES:0.000000=4=4
;
#TICKCOUNTS:0.000000=4
;
#COMBOS:0.000000=1
;
#SPEEDS:0.000000=1.000000=0.000000=0
;
#SCROLLS:0.000000=1.000000
;
#FAKES:;
#LABELS:0.000000=Song Start
;
#NOTES:
// measure 0
0000
0000
0000
0000
,  // measure 1
0000
0000
0000
0000
,  // measure 2
0000
0000
0000
0000
,  // measure 3
0000
0000
0000
0000
0000
0000
0000
0000
0000
1000
0000
0000
0100
0000
0000
0010
0001
0100
0010
0000
0000
1000
0000
0000
,  // measure 4
1001
0000
0000
1000
1010
0000
0000
0100
,  // measure 5
0010
0000
1000
0100
0001
0000
0100
0000
0110
0000
0000
0000
0000
0000
0100
0000
,  // measure 6
0110
0000
0000
0010
0011
0000
0000
0001
,  // measure 7
2001
0000
0000
0000
0000
0000
0000
0000
0010
0000
0000
0000
0000
0000
0000
3001
,  // measure 8
0101
0000
0010
1000
0000
0001
0010
0000
,  // measure 9
0100
1000
0000
0010
0100
0000
0010
2000
,  // measure 10
0000
0000
0000
0000
3000
0000
0000
0000
0000
0000
0000
0000
0001
0100
0001
0100
,  // measure 11
0010
1000
0010
1000
0001
1000
0001
1000
0010
1000
0010
1000
0001
0010
0100
0000
,  // measure 12
1000
0000
0001
0100
0000
0010
0100
0000
,  // measure 13
0001
1000
0000
0100
0010
0001
1000
0100
,  // measure 14
2000
0000
0000
0001
3002
0000
0000
1000
,  // measure 15
2003
0000
0000
0000
0000
0000
0000
0000
3001
0100
0010
1000
0001
0100
0010
1000
,  // measure 16
0001
0000
0000
0000
0010
0000
0000
0000
0100
0000
0000
0010
0001
0000
0100
0000
,  // measure 17
1000
0100
0000
0100
0010
0000
1000
0000
0001
0000
0000
0000
0000
0000
1000
0000
,  // measure 18
0001
1000
0001
0100
0000
0000
0000
0000
0000
0000
0000
0000
1000
0100
0010
0001
0000
0000
0000
0000
0000
0000
0000
0000
,  // measure 19
0010
0000
0000
0000
0000
0000
0100
0000
0000
0000
0000
0000
0001
1000
0010
0000
0000
0000
0000
0000
0000
0000
0000
0000
,  // measure 20
1000
0001
0010
0001
,  // measure 21
0100
0000
0000
0001
0100
0000
0010
0000
,  // measure 22
1000
0000
0010
0100
0010
0000
1000
0000
,  // measure 23
0100
0000
0000
1000
,  // measure 24
0010
0001
0000
0001
,  // measure 25
0010
0000
1000
0010
0001
0000
0100
0000
,  // measure 26
2000
0000
0000
3001
,  // measure 27
0100
0000
0000
0010
0000
0000
1000
0000
,  // measure 28
0001
0000
1000
0010
0100
0000
0010
1000
,  // measure 29
0100
0001
0100
0010
0001
0000
1000
0001
,  // measure 30
1000
0000
0001
0010
1000
0010
0001
0100
,  // measure 31
0010
0000
0100
0000
0010
0000
0100
0000
0000
0000
0000
0000
0000
0000
0000
0000
0000
0000
0000
0000
0000
0010
0000
0000
,  // measure 32
1000
1000
0001
0010
0110
0000
0000
0010
,  // measure 33
0001
0001
0010
0100
1100
0000
0000
1000
,  // measure 34
0100
0000
0010
0001
0100
0000
0010
1000
,  // measure 35
0001
1000
0101
0001
,  // measure 36
1200
0000
0000
0000
0000
0000
0000
0000
0000
0000
0000
0000
0000
0000
0000
0000
0000
0000
0000
0000
0000
0000
0000
0000
0000
0000
0000
0000
0000
0000
0000
0000
0000
0000
0000
0000
0300
0000
0000
0000
0000
0000
0000
0000
0000
0000
1000
0000
0001
0000
0000
0000
0000
0000
0000
0000
0000
0000
0000
0000
0000
0000
0000
0000
0000
0000
0000
0000
0000
0000
0000
0000
0000
0000
0000
0000
0000
0000
0000
0000
0000
0000
0000
0000
0000
0000
0000
0000
0000
0000
0000
0000
0000
0000
0000
0000
0100
0000
0000
0000
0000
0000
0000
0000
0000
0000
0000
0000
0000
0000
0000
0000
0000
0000
0000
0000
0000
0000
0000
0000
0000
0000
0000
0000
0000
0000
0000
0000
0000
0000
0000
0000
0000
0000
0000
0000
0000
0000
0000
0000
0000
0000
0000
0000
0010
0000
0000
0000
0000
0000
0000
0000
0000
0000
0000
0000
0000
0000
0000
0000
0000
0000
0000
0000
0000
0000
0000
0000
1000
0000
0000
0000
0000
0000
0000
0000
0000
0000
0000
0000
0000
0000
0000
0000
0000
0000
0000
0000
0000
0000
0000
0000
,  // measure 37
1100
0000
0010
0001
0011
0000
0001
1000
,  // measure 38
0101
0000
0001
0100
1000
0000
1000
0100
,  // measure 39
0001
0000
0001
0100
1000
0000
0100
0000
,  // measure 40
0010
0000
0000
1000
0010
0000
0100
0001
,  // measure 41
0011
0000
0010
0100
0110
0000
0100
1000
,  // measure 42
1010
0000
0000
1000
0010
0000
0001
0000
,  // measure 43
0010
0000
0000
0000
1000
0000
0000
0000
0020
0000
0000
0000
0130
0000
0000
0010
,  // measure 44
0000
0000
1000
0001
1000
0000
0001
0000
2001
0000
0000
0000
0010
0000
0010
0000
,  // measure 45
3010
0000
1000
0001
1002
0000
0100
0100
,  // measure 46
0103
0000
0001
0100
1000
0000
1000
0100
,  // measure 47
0010
0000
0010
0100
0002
0000
2003
0000
,  // measure 48
3100
0000
0000
1000
1002
0000
0010
0010
,  // measure 49
0013
0000
0001
1000
2001
0000
0100
0100
,  // measure 50
3100
0000
0000
1000
0200
0000
2300
0000
,  // measure 51
3020
0230
0002
0000
,  // measure 52
0303
0001
1000
0010
,  // measure 53
0001
0010
2000
0000
,  // measure 54
0001
0000
0000
0000
3000
0000
0000
0001
0100
0000
0000
0000
0010
0000
1000
0000
,  // measure 55
0000
0100
0010
0000
0100
1000
0000
0010
,  // measure 56
0100
0000
0010
2000
0000
0000
3000
0000
,  // measure 57
0000
0000
0000
0000
0001
0100
0001
0100
0010
1000
0010
1000
0010
0100
0001
0010
,  // measure 58
0100
0010
0001
0100
0010
1000
0001
0000
0010
0000
0000
0000
0100
0000
1000
0000
,  // measure 59
0000
0100
0010
0000
0100
1000
0000
0100
,  // measure 60
0001
0100
0010
0001
2000
0000
0000
3001
,  // measure 61
0200
0000
0000
0301
2000
0000
0000
0000
,  // measure 62
3001
0100
0010
1000
0001
0100
0010
1000
0001
0000
0000
0000
0000
0000
1000
0000
,  // measure 63
1000
0000
0000
0001
0001
0100
0010
1000
,  // measure 64
0100
0000
0000
0010
0010
0000
0000
0100
,  // measure 65
0100
0000
0010
0100
2000
0000
0000
3001
,  // measure 66
0010
0000
0000
0001
0100
0010
1000
0000
0000
0010
0000
0000
1010
0000
0000
0000
0000
0000
0000
0000
0000
1000
0000
0000
,  // measure 67
1001
0000
0000
0000
0000
0000
0001
0000
0011
0000
0010
0100
0010
0000
0001
0000
,  // measure 68
0101
0000
0000
0010
1010
0000
0000
1000
,  // measure 69
1100
0000
0000
1000
1002
0000
0000
0000
,  // measure 70
1003
0001
2000
0000
0000
0000
0000
0000
0000
0000
0000
0000
0000
0000
0000
0000
0000
0000
0000
0000
0000
0000
0000
0000
0000
0000
0000
0000
0000
0000
0000
0000
,  // measure 71
3000
0000
0000
0000
;

//---------------dance-single - ----------------
#NOTEDATA:;
#CHARTNAME:;
#STEPSTYPE:dance-single;
#DESCRIPTION:;
#CHARTSTYLE:;
#DIFFICULTY:Medium;
#METER:50;
#RADARVALUES:0.281198,0.454156,0.105181,0.120207,0.000000,262.000000,248.000000,14.000000,16.000000,0.000000,0.000000,0.000000,0.000000,0.000000,0.281198,0.454156,0.105181,0.120207,0.000000,262.000000,248.000000,14.000000,16.000000,0.000000,0.000000,0.000000,0.000000,0.000000;
#CREDIT:;
#NOTES:
// measure 0
0000
0000
0000
0000
,  // measure 1
0000
0000
0000
0000
,  // measure 2
0000
0000
0000
0000
,  // measure 3
0000
0000
0000
0000
,  // measure 4
0000
0000
0000
0000
,  // measure 5
0000
0000
0000
0000
,  // measure 6
0000
0000
0000
0000
,  // measure 7
0000
0000
0000
0001
,  // measure 8
0010
0000
0000
0001
,  // measure 9
1000
0000
0000
0001
,  // measure 10
0100
0000
0010
1000
0010
0000
1000
0000
,  // measure 11
0010
0000
0000
0010
,  // measure 12
1000
0000
0000
0100
,  // measure 13
0010
0000
0000
0002
,  // measure 14
2000
0000
0000
0000
,  // measure 15
0000
0000
0000
0000
0000
0000
3003
0001
,  // measure 16
0100
0000
0100
0001
0000
0001
0100
0000
,  // measure 17
0100
0001
0000
0001
0100
0000
0100
0002
,  // measure 18
0000
0000
0003
1000
,  // measure 19
0100
0010
0001
0100
,  // measure 20
0010
0000
1000
0010
0000
0010
1000
0000
,  // measure 21
1000
0010
0000
0010
1000
0000
0010
0000
,  // measure 22
0100
0000
0000
0010
1000
0000
0000
0001
,  // measure 23
0010
0000
0200
0000
,  // measure 24
1300
0000
0100
0000
,  // measure 25
0010
0000
0000
0001
0010
0000
0001
0000
,  // measure 26
0100
0010
0000
0100
0010
0000
0100
0000
,  // measure 27
0001
0000
0000
1000
,  // measure 28
1001
0000
0000
0000
,  // measure 29
0110
0000
0000
0000
,  // measure 30
1010
0000
0101
0000
,  // measure 31
0011
0000
0000
0000
,  // measure 32
0001
1000
0010
1000
,  // measure 33
0100
1000
0010
0100
,  // measure 34
0001
0010
1000
0010
,  // measure 35
0001
0100
0001
1000
,  // measure 36
0100
0010
0000
0100
,  // measure 37
1000
0000
0010
0100
0010
0000
0001
0000
,  // measure 38
2000
0000
0000
0000
,  // measure 39
0000
3000
0000
0000
0000
0000
0000
0000
,  // measure 40
0001
0100
0010
1000
,  // measure 41
0010
0100
0010
0100
0010
0000
1000
0000
,  // measure 42
0001
0000
0010
0000
0100
0010
0001
0100
,  // measure 43
0020
0000
0000
0000
0030
0000
0000
0100
,  // measure 44
0001
0000
0001
0000
0001
0000
0000
1000
,  // measure 45
0100
0100
0100
0000
,  // measure 46
1000
0000
0010
0100
0010
0000
1000
0000
,  // measure 47
0001
0000
1000
0000
,  // measure 48
0220
0000
0000
0000
,  // measure 49
0330
0000
0000
0000
0000
0000
0000
0100
,  // measure 50
0010
1000
1010
0000
,  // measure 51
0001
0100
0101
0000
,  // measure 52
0001
1000
0010
1000
,  // measure 53
0100
0100
0100
0000
,  // measure 54
1000
0010
1010
0000
,  // measure 55
0001
0100
0101
0000
,  // measure 56
0001
0010
1000
0010
,  // measure 57
0002
0000
0000
0000
0003
0000
0000
1000
,  // measure 58
0001
0100
1010
0000
,  // measure 59
1000
0100
0011
0000
,  // measure 60
0010
0100
0010
0001
,  // measure 61
1000
1000
1000
0000
,  // measure 62
0010
1000
1100
0000
,  // measure 63
0010
0001
0101
0000
,  // measure 64
0001
1000
0010
0100
,  // measure 65
0020
0000
0030
1000
,  // measure 66
0001
0000
0010
0000
,  // measure 67
1000
0000
0010
0000
,  // measure 68
0002
0000
0000
0000
,  // measure 69
0000
0000
0000
0000
0000
0000
0003
1000
,  // measure 70
0001
0000
0001
1000
0000
1000
0001
0000
,  // measure 71
0001
1000
0000
1000
0001
0000
0001
0200
,  // measure 72
0000
0300
0000
0010
,  // measure 73
0100
0001
1000
0100
,  // measure 74
0010
0000
0010
0100
0000
0100
1000
0000
,  // measure 75
1000
0001
0000
0001
0100
0000
0010
0000
,  // measure 76
1000
0000
0000
0001
1000
0000
0000
1000
,  // measure 77
0010
0000
2000
0000
,  // measure 78
3100
0000
0000
0010
,  // measure 79
0100
0000
0000
0100
,  // measure 80
1000
0001
0100
0010
,  // measure 81
1000
0000
0000
0001
,  // measure 82
0100
0000
0000
0010
,  // measure 83
1000
0000
0001
0100
,  // measure 84
0020
0000
0000
0000
,  // measure 85
0030
0000
0000
0100
,  // measure 86
0001
0000
0000
1000
,  // measure 87
0100
0000
0000
0010
,  // measure 88
0100
0000
1000
0001
1000
0000
0001
0000
,  // measure 89
0100
0000
0000
0010
,  // measure 90
1000
0000
0000
0100
,  // measure 91
0010
0000
0000
0002
,  // measure 92
2000
0000
0000
0000
,  // measure 93
3003
0000
0000
0000
;

//---------------dance-single - ----------------
#NOTEDATA:;
#CHARTNAME:;
#STEPSTYPE:dance-single;
#DESCRIPTION:;
#CHARTSTYLE:;
#DIFFICULTY:Easy;
#METER:30;
#RADARVALUES:0.213582,0.314416,0.030052,0.060103,0.000000,199.000000,195.000000,4.000000,8.000000,0.000000,0.000000,0.000000,0.000000,0.000000,0.213582,0.314416,0.030052,0.060103,0.000000,199.000000,195.000000,4.000000,8.000000,0.000000,0.000000,0.000000,0.000000,0.000000;
#CREDIT:;
#NOTES:
// measure 0
0000
0000
0000
0000
,  // measure 1
0000
0000
0000
0000
,  // measure 2
0000
0000
0000
0000
,  // measure 3
0000
0000
0000
0000
,  // measure 4
0000
0000
0000
0000
,  // measure 5
0000
0000
0000
0000
,  // measure 6
0000
0000
0000
0000
,  // measure 7
0000
0000
0000
1000
,  // measure 8
0001
0000
0000
1000
,  // measure 9
0010
0000
0000
1000
,  // measure 10
0100
1000
0010
0100
,  // measure 11
0001
0000
0000
0100
,  // measure 12
0001
0000
0000
0100
,  // measure 13
0010
0000
0000
0100
,  // measure 14
0002
0000
0000
0000
,  // measure 15
0000
0000
0000
0000
,  // measure 16
1003
0000
0000
0001
0000
0000
0100
0000
,  // measure 17
0000
0001
0000
0000
0010
0000
0000
0001
,  // measure 18
0000
0000
0000
1000
,  // measure 19
0100
1000
0010
0100
,  // measure 20
0001
0000
0000
0100
0000
0000
0010
0000
,  // measure 21
0000
1000
0000
0000
0010
0000
0100
0000
,  // measure 22
0001
0000
1000
0000
,  // measure 23
0001
0000
0200
0000
,  // measure 24
0310
0000
1000
0000
,  // measure 25
0010
0000
1000
0000
,  // measure 26
0001
0000
0010
0000
,  // measure 27
0001
0000
0000
0000
,  // measure 28
1001
0000
0000
0000
,  // measure 29
0110
0000
0000
0000
,  // measure 30
0100
0000
0100
0000
,  // measure 31
1001
0000
0000
0000
,  // measure 32
1000
0000
0010
0000
,  // measure 33
0100
0000
0010
1000
,  // measure 34
0001
0010
0001
1000
,  // measure 35
0001
0000
0000
0100
,  // measure 36
0010
0010
0000
1000
,  // measure 37
0001
0010
0001
1000
,  // measure 38
0200
0000
0000
0000
,  // measure 39
0300
0000
0000
0000
,  // measure 40
1000
0010
0100
0001
,  // measure 41
1000
1000
1000
0001
,  // measure 42
0010
0001
0100
0100
,  // measure 43
0100
0000
0000
0000
,  // measure 44
0010
1000
0001
0000
,  // measure 45
0010
0100
1000
0000
,  // measure 46
0100
1000
0010
0100
,  // measure 47
0001
0000
1000
0000
,  // measure 48
0220
0000
0000
0000
,  // measure 49
0330
0000
0000
0000
,  // measure 50
0100
0100
0100
0000
,  // measure 51
0010
0010
0010
0000
,  // measure 52
1000
0000
0001
0000
,  // measure 53
1000
0010
1000
0000
,  // measure 54
0001
0001
0001
0000
,  // measure 55
0010
0010
0010
0000
,  // measure 56
0001
0010
0001
1000
,  // measure 57
0100
0000
0000
0000
,  // measure 58
1000
1000
1000
0000
,  // measure 59
0010
0010
0010
0000
,  // measure 60
0100
0000
0010
0000
,  // measure 61
1000
0001
1000
0000
,  // measure 62
0001
0001
0001
0000
,  // measure 63
0010
0010
0010
0000
,  // measure 64
0001
0010
0100
1000
,  // measure 65
0001
0000
0000
0100
,  // measure 66
0010
0000
1000
0000
,  // measure 67
0001
0000
0010
0000
,  // measure 68
0200
0000
0000
0000
,  // measure 69
0300
0000
0000
0000
,  // measure 70
0010
0000
0000
0001
0000
0000
1000
0000
,  // measure 71
0000
0010
0000
0000
1000
0000
0000
0001
,  // measure 72
0000
0000
0000
1000
,  // measure 73
0100
1000
0010
0100
,  // measure 74
0001
0000
0000
0010
0000
0000
0001
0000
,  // measure 75
0000
1000
0000
0000
0100
0000
1000
0000
,  // measure 76
0010
0000
0100
0000
,  // measure 77
0010
0000
2000
0000
,  // measure 78
3100
0000
0000
1000
,  // measure 79
0001
0000
0000
1000
,  // measure 80
0010
0000
0100
0000
,  // measure 81
0001
0000
0000
0010
,  // measure 82
0001
0000
0000
0010
,  // measure 83
0100
0000
0010
0001
,  // measure 84
1000
0000
0000
0000
,  // measure 85
0000
0000
0000
0001
,  // measure 86
1000
0000
0000
0010
,  // measure 87
1000
0000
0000
0100
,  // measure 88
1000
0010
0100
0010
,  // measure 89
1000
0000
0000
0001
,  // measure 90
0010
0000
0000
0001
,  // measure 91
1000
0000
0000
1000
,  // measure 92
0200
0000
0000
0000
,  // measure 93
0300
0000
0000
0000
;

//---------------dance-single - ----------------
#NOTEDATA:;
#CHARTNAME:;
#STEPSTYPE:dance-single;
#DESCRIPTION:;
#CHARTSTYLE:;
#DIFFICULTY:Beginner;
#METER:20;
#RADARVALUES:0.106254,0.244546,0.022539,0.000000,0.000000,99.000000,96.000000,3.000000,0.000000,0.000000,0.000000,0.000000,0.000000,0.000000,0.106254,0.244546,0.022539,0.000000,0.000000,99.000000,96.000000,3.000000,0.000000,0.000000,0.000000,0.000000,0.000000,0.000000;
#CREDIT:;
#NOTES:
0000
0000
0000
0000
,
0000
0000
0000
0000
,
0000
0000
0000
0000
,
0000
0000
0000
0000
,
0000
0000
0000
0000
,
0000
0000
0000
0000
,
0000
0000
0000
0000
,
0000
0000
0000
0000
,
0010
0000
0000
0000
,
0010
0000
0000
0000
,
0100
0000
0100
0000
,
0100
0000
0000
0000
,
0001
0000
0000
0000
,
1000
0000
0000
0000
,
0001
0000
0000
0000
,
0000
0000
0000
0000
,
0100
0000
0000
0000
,
0010
0000
0000
0000
,
1000
0000
0000
0001
,
0000
0000
0000
0000
,
1000
0000
0000
0000
,
0010
0000
0000
0000
,
0100
0000
0100
0000
,
0100
0000
0000
0000
,
1001
0000
0000
0000
,
0000
0000
0000
0000
,
0000
0000
0000
0000
,
0000
0000
0000
0000
,
0001
0000
0000
0000
,
1000
0000
0000
0000
,
0010
0000
0010
0000
,
0010
0000
0000
0000
,
0100
0000
0000
0000
,
0010
0000
0000
0000
,
1000
0000
0000
0000
,
0001
0000
0000
0000
,
1000
0000
0000
0000
,
0010
0000
0100
0000
,
0010
0000
0000
0000
,
0000
0000
0000
0000
,
1000
0000
1000
0000
,
1000
0000
0000
0000
,
0001
0000
0001
0000
,
0001
0000
0000
0000
,
0100
0100
0100
0000
,
0100
0100
0100
0000
,
0010
0000
1000
0000
,
0001
0000
1000
0000
,
0010
0000
0000
0000
,
0000
0000
0000
0000
,
0100
0000
0000
0000
,
0010
0000
0000
0000
,
1000
0000
1000
0000
,
1000
0000
0000
0000
,
0001
0000
0000
0000
,
0010
0000
0000
0000
,
0001
0000
0001
0000
,
0001
0000
0000
0000
,
0100
0000
0000
0000
,
0010
0000
0000
0000
,
1000
0000
1000
0000
,
1000
0000
0000
0000
,
0001
0000
0000
0000
,
1000
0000
0000
0000
,
0010
0000
0010
0000
,
0010
0000
0000
0000
,
0100
0000
0000
0000
,
0010
0000
0000
0000
,
1001
0000
0000
0000
,
0000
0000
0000
0000
,
1000
0000
0000
0000
,
0001
0000
0000
0000
,
0100
0000
0000
0010
,
0000
0000
0000
0000
,
0100
0000
0000
0000
,
0010
0000
0000
0000
,
1000
0000
1000
0000
,
0001
0000
0000
0000
,
0110
0000
0000
0000
,
0100
0000
0000
0000
,
0010
0000
0000
0000
,
1000
0000
0000
0000
,
0001
0000
0000
0000
,
1000
0000
0001
0000
,
1000
0000
0000
0000
,
0000
0000
0000
0000
,
0010
0000
0000
0000
,
0100
0000
0000
0000
,
0001
0000
0000
0000
,
1000
0000
0000
0000
,
0100
0000
0000
0000
,
1000
0000
0000
0000
,
0001
0000
0000
0000
,
0100
0000
0000
0000
;
