#TITLE:waxing and wanding;
#SUBTITLE:;
#ARTIST:青龍;
#TITLETRANSLIT:;
#SUBTITLETRANSLIT:;
#ARTISTTRANSLIT:;
#GENRE:;
#CREDIT:;
#MUSIC:waxing and wanding.ogg;
#BANNER:waxing and wanding-bn.png;
#BACKGROUND:waxing and wanding-bg.png;
#CDTITLE:;
#SAMPLESTART:72.985;
#SAMPLELENGTH:12.000;
#SELECTABLE:YES;
#OFFSET:0.837;
#BPMS:0.000=191.000;
#STOPS:40.000=0.942;
#BGCHANGES:;
#FGCHANGES:;

//--------------- dance-single - Pandemonium X ----------------
#NOTES:
     dance-single:
     Pandemonium X:
     Beginner:
     6:
     0,0,0,0,0:
0000
0000
0000
0000
,
0000
0000
0000
0000
,
0000
0000
0000
0000
,
0000
0000
0000
0000
,
0000
0000
0000
0000
,
0001
0000
0000
0000
,
1000
0000
1000
0000
,
1001
0000
1001
0000
,
0001
1000
0010
0010
,
0100
0100
0100
0100
,
0000
1001
0000
0000
,
0000
0001
0000
0001
,
0000
1001
0000
0000
,
0000
1000
0010
0010
,
0010
1000
0000
0000
,
0000
0100
0000
0100
,
0000
1001
0000
0000
,
0000
0001
1000
0010
,
0010
0100
0000
0001
,
0000
0010
0000
0100
,
0000
0000
0000
0010
0000
0000
0000
0000
,
0000
0100
0000
0100
,
0000
1000
0000
0001
,
0000
0100
0000
0001
,
0000
0000
0000
1000
0000
0000
0000
0000
,
0000
0001
0000
1000
,
0000
0010
0000
0010
,
0000
0100
0000
0100
,
0000
0001
0000
0001
,
0000
1000
1000
1000
,
0000
0001
0000
0001
,
0000
1000
0000
1000
,
0000
0010
0000
0010
,
0000
0100
0100
0100
,
0000
0010
0000
0100
,
0000
0001
0001
0001
,
0000
1000
0000
0100
,
0000
0010
0010
0010
,
0000
0100
0000
1000
,
0000
0001
0001
0001
,
0000
1000
0000
0001
,
0000
0100
0100
0100
,
0000
1001
0000
0000
,
0000
0000
0000
0000
,
0000
0000
0000
0000
,
0000
0000
0000
0000
,
0000
0000
0000
0000
,
0000
0000
0000
0000
,
0000
0000
0000
0000
,
0000
0000
0000
0000
,
0000
0001
0000
1000
,
0000
0001
0000
0100
,
0000
0001
0000
1000
,
0000
0001
0000
0000
,
0000
1000
0000
0001
,
0000
0010
0000
0001
,
0000
1000
0000
0001
,
0000
0100
0000
0000
,
0000
0010
0000
0100
,
0000
0001
0000
1000
,
0000
0100
0000
0010
,
0000
0001
0001
0001
,
0000
0010
0000
0001
,
0000
0100
0000
0010
,
0000
1000
0000
0001
,
0000
1000
0001
0100
,
0000
0010
0000
1000
,
0000
0100
0000
0010
,
0000
0001
0000
0100
,
0000
0010
0100
0010
,
0000
0100
0000
0001
,
0000
1000
0000
0100
,
0000
1000
0000
0001
,
0000
0100
0010
1000
,
0000
0001
0000
0000
,
0000
1000
0000
1000
,
0000
0100
0000
0000
,
0000
0010
0100
0100
,
0100
0010
0000
0000
,
0000
0001
0000
0001
,
0000
1000
0000
0000
,
0000
0000
0001
0001
,
0001
0100
0000
0001
,
0000
0010
0000
0001
,
0000
1000
0000
0100
,
0000
0010
0010
0100
,
1000
0001
0000
1000
,
0000
0010
0000
1000
,
0000
0001
0000
1000
,
0000
1001
0110
1001
;

//--------------- dance-single - Pandemonium X ----------------
#NOTES:
     dance-single:
     Pandemonium X:
     Easy:
     9:
     0,0,0,0,0:
0000
0000
0000
0000
,
0000
0000
0000
0000
,
0000
0000
0000
0000
,
0000
0000
0000
0000
,
0000
0000
0000
0000
,
0000
1000
0000
0000
2000
0000
0000
0000
,
3010
0100
0010
0100
,
1001
0000
1001
0000
,
1001
0110
1001
0110
,
1001
0000
1000
0000
1000
0001
1000
0001
,
1001
0001
1000
0010
,
0100
0001
0001
1000
,
1000
0100
1000
0010
,
0100
0000
0001
0010
0001
0000
0010
0000
,
0010
0100
0010
0001
,
1000
0001
0001
1000
,
1000
0001
0100
0010
,
1000
0000
0010
0100
0010
0000
0100
0000
,
0100
0001
1000
0100
,
0010
0000
0100
0000
1000
0000
0001
0100
,
0000
0000
0000
0010
0000
0000
0020
0000
,
0000
0000
0130
0001
1000
0000
0100
0000
,
0010
0100
1000
0001
,
0100
0000
0001
0000
1000
0000
0100
1000
,
0000
0000
0000
0001
0000
0000
0002
0000
,
0000
0000
1003
0001
0100
0000
0001
0000
,
0010
0001
0001
0100
,
0100
1000
1000
0100
,
0100
0010
0010
1000
,
1000
0001
0010
1000
,
0010
0100
0100
0010
,
0010
0001
0001
1000
,
1000
0100
0100
0010
,
0010
0001
0010
0100
,
1000
0001
0100
1000
,
0100
0010
1000
0001
,
1000
0001
0010
1000
,
0010
0000
0001
0010
0100
1000
0001
0000
,
0000
1000
0001
0100
,
1000
0100
0010
1000
,
0001
0010
1000
0010
,
0001
0000
0100
0010
1000
0001
0100
0000
,
0000
1001
0000
0000
,
0000
0000
0000
0000
,
0000
0000
0000
0000
,
0000
0000
0000
0000
,
0000
0000
0000
0000
,
0000
0000
0000
0000
,
0000
0000
0000
0000
,
0000
0000
0000
0000
,
0001
1000
0100
1000
,
0010
1000
0001
0010
,
0001
0100
0010
1000
,
0001
0000
1000
0100
0010
0001
1000
0000
,
0000
0001
0100
0001
,
0010
0001
1000
0100
,
1000
0010
0100
0001
,
1000
0000
0001
0010
0100
1000
0001
0000
,
1000
0001
0100
0000
0010
0000
1000
0000
,
0001
0010
0100
0010
,
0001
1000
0010
0100
,
0001
0000
0100
0010
0100
0001
1000
0000
,
0001
0010
0001
1000
,
0100
0010
0100
1000
,
0010
0100
0010
1000
,
0010
0000
1000
0100
0010
0100
1000
0000
,
0000
0100
1000
0001
,
0100
0010
1000
0001
,
0010
0100
0010
0001
,
1000
0000
0001
1000
0010
1000
0001
0000
,
0000
1000
0001
0010
,
0001
1000
0100
0010
,
0100
1000
0100
0010
,
0001
0000
1000
0100
1000
0001
1000
0000
,
0000
0000
0000
0001
0000
0000
0002
0000
,
0000
0103
0010
0100
,
0010
0000
0000
1000
0000
0000
2000
0000
,
0000
0000
3010
0100
0010
0000
0110
0000
,
1001
0000
0000
0001
0000
0000
0002
0000
,
0000
1003
0100
1000
,
0010
0000
0000
1000
0000
0000
2000
0000
,
0000
0000
3001
0100
0010
0000
1000
0000
,
0001
0010
0100
0000
0010
0000
0001
0000
,
1000
0010
1000
0001
,
0010
0100
0010
0001
,
1000
0000
0001
0100
0010
0100
0001
0000
,
1000
0001
0010
0100
,
0010
0001
1000
0010
,
0100
0010
1000
0001
,
0010
0000
0001
0010
0100
1000
1001
0000
;

//--------------- dance-single - Pandemonium X ----------------
#NOTES:
     dance-single:
     Pandemonium X:
     Medium:
     13:
     0,0,0,0,0:
0000
0000
0000
0000
,
0000
0000
0000
0000
,
0000
0000
0000
0000
,
0000
0000
0000
0000
,
0000
1001
0110
1001
,
1000
0001
0000
0001
0002
0000
0003
0000
,
2000
3010
2000
3100
,
0011
0010
1100
1000
,
0001
0100
0010
0000
1001
0000
0011
0000
,
1100
0000
0000
0000
0110
0000
0000
0000
0010
0000
0001
0000
1000
0001
1000
0001
,
1000
0001
1000
0100
,
1000
0000
0010
1000
0100
1000
0010
0100
,
0010
1000
0001
0000
1000
0000
0001
0000
,
0010
0000
0100
0010
0001
0000
0011
0000
,
1100
1000
0001
0010
,
0100
0000
0010
0001
0100
0001
0010
0001
,
0100
0001
1000
0000
0100
0000
1000
0000
,
0010
0000
0100
0001
0010
0000
0110
0000
,
1000
0100
0010
0001
0100
0001
1000
0010
,
0100
0010
1000
0001
0010
0100
1000
0100
,
0000
0000
0000
0010
0000
0100
2000
0000
,
0000
3000
0001
0100
0010
0000
1000
0000
,
1000
0100
0010
0001
0100
0001
1000
0010
,
0100
0010
1000
0001
0010
0100
1000
0100
,
0000
0000
0000
0010
0000
0100
0020
0000
,
0000
0030
0001
0100
1001
0000
0110
0000
,
1001
0000
0001
0100
0010
0000
0010
1000
,
0100
0000
0100
0010
0001
0000
0001
0100
,
0010
0000
0010
0100
0001
0000
0001
1000
,
0100
0000
0010
0100
0010
0001
0010
0100
,
0010
0001
1000
0001
0100
0000
0100
0010
,
1000
0000
1000
0100
0010
0000
0010
0100
,
1000
0000
1000
0010
0100
0000
0100
0001
,
0010
0000
0010
0100
0010
0001
0010
0100
,
0010
0001
1000
0100
0010
0100
1000
0010
,
0100
0001
0010
0100
0010
0001
0100
0010
,
1000
0001
0010
0100
1000
0100
0010
0100
,
1000
0001
0100
1000
0100
0001
1000
0000
,
0100
1000
0001
0010
0100
0010
0001
0100
,
0010
1000
0100
0010
0100
1000
0010
0100
,
0001
1000
0100
0010
0001
0010
0100
0010
,
0001
1000
0010
0001
0010
1000
0001
0000
,
0000
0110
0000
0000
,
0000
0000
0000
0000
,
0000
0000
0000
0000
,
0000
0000
0000
0000
,
0000
0000
0000
0000
,
0000
0000
0000
0000
,
0000
0000
0000
0000
,
0000
0000
0000
0000
,
0001
0100
0001
1000
,
0100
0010
0100
1000
,
0001
0010
0100
0010
,
0001
0000
1000
0100
0010
0001
0010
0000
,
0100
0010
0002
0000
0203
0000
0320
0000
,
2030
3002
0023
0032
,
0203
0320
2030
3002
,
2003
0000
3001
0100
0010
1000
0100
0000
,
0010
0001
0100
0010
1000
0001
0010
0100
,
1000
0100
0010
0100
1000
0010
0100
0001
,
0010
0100
0010
0001
0100
0010
1000
0001
,
0010
0100
0010
0001
1000
0010
1001
0000
,
1000
0010
1000
0001
0010
0001
0100
0010
,
1000
0001
0010
0100
0010
0001
0100
0010
,
1000
0001
0010
0100
0010
0001
0100
0010
,
1000
0100
0010
0001
0010
0100
1100
0000
,
1000
0001
1000
1000
0010
0100
0010
0010
,
0100
0001
0100
0100
0010
1000
0001
0001
,
0010
0100
0010
0010
0100
0010
0001
0001
,
0100
0010
1000
0100
0001
0100
1100
0000
,
0100
1000
0010
0010
0100
0001
1000
1000
,
0100
0010
0001
0001
0010
0001
1000
1000
,
0100
1000
0010
0010
0100
0001
1000
1000
,
0001
0100
0010
0001
0010
1000
1001
0000
,
0000
0000
0000
1000
0000
0100
0020
0000
,
0000
0000
0130
0001
0100
1000
0100
0001
,
0100
1000
0000
0100
0000
1000
0020
0000
,
0000
0030
0100
0001
1001
0000
0101
0000
,
1001
0000
0000
0001
0000
0010
0200
0000
,
0000
0000
0310
1000
0010
0001
0010
1000
,
0010
0001
0000
0010
0000
0001
0200
0000
,
0000
0300
0010
1000
1001
0000
1010
0000
,
1001
1000
0001
0001
0010
0100
0010
0010
,
0100
1000
0001
0001
0100
1000
0100
0100
,
0010
1000
0001
0001
0010
0100
0010
0010
,
0001
0010
0100
0001
0100
1000
1001
0000
,
1000
0010
0100
0100
1000
0100
0001
0001
,
0010
1000
0010
0010
0001
0010
0100
0100
,
1000
0100
0001
0001
0100
0010
0001
0001
,
0010
0100
1001
0001
1001
1000
0110
0000
;

//--------------- dance-single - Pandemonium X ----------------
#NOTES:
     dance-single:
     Pandemonium X:
     Hard:
     16:
     0,0,0,0,0:
0000
0000
0000
0000
,
0000
0000
0000
0000
,
0000
0000
0000
0000
,
0000
0000
0000
0000
,
0000
0101
1100
1001
,
0001
0200
0000
1300
0200
0000
0000
0000
,
0301
0100
1000
0100
0010
1000
0001
0010
,
0210
1300
0120
0031
,
1000
0100
1000
0000
1001
0000
0000
0000
1010
0000
0000
0000
0101
0000
0000
0000
,
0110
0000
0000
0000
0110
0000
0000
0000
0110
0000
0110
0000
0100
0010
0100
0010
,
0100
0000
0001
0100
0010
0100
0001
1000
,
0100
0000
0000
0000
1000
0000
0000
0000
0020
0030
0000
0000
0020
0030
0000
0000
0001
0000
0000
0000
1000
0000
0000
0000
0200
0300
0000
0000
0200
0300
0000
0000
,
0001
1000
0001
0010
0001
1000
0010
1000
,
0001
0000
1000
0000
0100
0010
0100
0000
1100
0000
0000
0000
0101
0000
0000
0000
,
1001
0000
1000
0010
0100
0010
1000
0001
,
0010
0000
0000
0000
0001
0000
0000
0000
0200
0300
0000
0000
0200
0300
0000
0000
1000
0000
0000
0000
0001
0000
0000
0000
0020
0030
0000
0000
0020
0030
0000
0000
,
1000
0001
1000
0010
0100
0001
1000
0001
,
0010
0000
0100
0000
0010
0100
0010
0000
0011
0000
0000
0000
1100
0000
0000
0000
,
1001
0001
0101
0100
0010
1000
0001
0001
,
0010
0100
0010
0010
0100
0010
0001
0001
,
0000
0000
0000
1000
0000
0001
2000
0000
,
0000
0000
0000
0000
0000
0000
0000
3000
0001
0000
0010
0000
0100
0000
0000
0000
1100
0000
0000
0000
0000
0000
0000
0000
0011
0000
0000
0000
0000
0000
0000
0000
,
1001
0001
0100
0100
0010
1000
0001
0001
,
0010
0100
1000
1000
0100
1000
0010
0010
,
0000
0000
0000
2000
0000
3001
0200
0000
,
0300
0000
0000
0000
0010
1000
0001
0000
0101
0000
0000
0000
1010
0000
0000
0000
,
1001
0000
0001
0001
0100
0010
1000
1000
,
0100
0010
0001
0001
0100
0010
1000
1000
,
0001
0010
0100
0100
0010
0001
0010
0010
,
0001
1000
0100
0100
0010
0010
0001
0001
,
1000
1000
0001
0100
1000
0100
0001
0010
,
1000
0010
0001
0100
0010
1000
0001
0100
,
0010
1000
0001
0010
1000
0010
0001
0100
,
1000
0100
0001
0100
1000
0100
0010
1000
,
0001
0010
0100
0100
0010
0001
1000
1000
,
0001
0100
0010
0010
1000
0001
0010
0001
,
1000
0100
0010
0010
0100
1000
0001
0001
,
0100
0001
1000
0100
0001
0100
1100
0000
,
1000
0010
0100
0100
0001
1000
0010
0010
,
1000
0001
0010
0010
0100
0010
0100
0100
,
0010
0001
0100
0100
0010
1000
0001
0001
,
0010
0001
0100
0010
0001
0010
1000
0000
,
0000
1001
0000
0000
,
0000
0000
0000
0000
,
0000
0000
0000
0000
,
0000
0000
0000
0000
,
0000
0000
0000
0000
,
0000
0000
0000
0000
,
0000
0000
0000
0000
,
0000
0000
0000
0000
,
0001
0100
0010
1000
0010
0100
0001
0010
,
0001
1000
0010
0100
0010
1000
0001
0100
,
0001
0010
0001
1000
0100
1000
0001
0100
,
0001
1000
0001
0010
1000
0010
0001
0000
,
1000
0100
0010
0100
1000
0010
0100
0010
,
1000
0001
0010
0100
0010
0001
0100
0010
,
0100
0001
0010
0100
1000
0100
0010
0100
,
1000
0001
0010
1000
0010
0001
1000
0000
,
0001
1000
1001
0001
0100
0010
1010
0010
,
0100
0001
1001
1000
0100
0010
0011
0010
,
0100
0010
0011
0001
0100
0010
1010
0010
,
0100
0001
0101
0100
0010
0100
1001
0000
,
0001
0010
0110
0100
1000
0010
1010
0010
,
0100
0001
0011
0010
0001
1000
1100
1000
,
0010
0100
0101
0001
0010
0100
1100
0100
,
0010
0001
0011
0001
1100
0100
1001
0000
,
1000
0010
0110
0100
0001
1000
1100
1000
,
0001
0010
0011
0001
1000
0100
0110
0100
,
1000
0010
0110
0100
0001
1000
1100
1000
,
0010
0100
0101
0001
0010
0100
1001
0000
,
0010
0001
1001
1000
0001
0100
0110
0010
,
1000
0001
0011
0010
0100
1000
1100
0100
,
1000
0010
0110
1000
0001
1000
0110
0001
,
1000
0001
1001
0010
1001
0100
1001
0000
,
0000
0000
0000
0002
0000
1000
2000
0000
,
0000
0000
0000
0003
0000
0000
3020
0030
0000
0020
0030
0000
0001
0000
0000
1000
0000
0000
0200
0300
0000
0200
0300
0000
,
0001
1000
0000
0001
0000
2000
0002
0000
,
0000
0000
3000
0000
0103
0010
0100
0000
0110
0000
0000
0000
1001
0000
0000
0000
,
0202
0000
0303
2000
0000
0001
0002
0000
,
0000
0000
0000
3000
0000
0000
0023
0030
0000
0020
0030
0000
1000
0000
0000
0001
0000
0000
0200
0300
0000
0200
0300
0000
,
1000
0001
0000
1000
0000
0002
2000
0000
,
0000
0000
0003
0000
3100
0010
0100
0000
0110
0000
0000
0000
1001
0000
0000
0000
,
1100
0100
0110
0010
0001
0010
0011
0010
,
0100
1000
1010
0010
0100
0001
0011
0001
,
1000
0100
0110
0100
1000
0001
0101
0001
,
1000
0100
0110
0100
1100
1000
1001
0000
,
0001
0100
0110
0010
0100
0001
1001
0100
,
0010
0001
0101
0001
0010
0001
1001
1000
,
0100
1000
1100
0100
0010
0001
0011
0010
,
0100
1000
1100
0011
1100
0110
1001
0000
;
