#TITLE:mosaic;
#SUBTITLE:;
#ARTIST:Auridy;
#TITLETRANSLIT:;
#SUBTITLETRANSLIT:;
#ARTISTTRANSLIT:;
#GENRE:;
#CREDIT:;
#MUSIC:mosaic.ogg;
#BANNER:bn.png;
#BACKGROUND:mosaic-bg.png;
#CDTITLE:;
#SAMPLESTART:2.995;
#SAMPLELENGTH:10.233;
#SELECTABLE:YES;
#OFFSET:0.835;
#BPMS:0.000=188.000;
#STOPS:;
#BGCHANGES:;
#FGCHANGES:;

//--------------- dance-single - Pandemonium X ----------------
#NOTES:
     dance-single:
     Pandemonium X:
     Beginner:
     6:
     0,0,0,0,0:
0000
0000
0000
0000
,
0000
0000
0000
0000
,
0000
0000
0000
0000
,
1000
0000
0001
0000
,
1000
1000
1000
0000
,
0001
0000
1000
0000
,
0001
0001
0001
0000
,
0100
0000
0010
0000
,
0100
0100
0100
0000
,
0010
0000
0100
0000
,
0000
0010
0010
0000
,
1000
0000
0001
0000
,
1000
0000
0000
0000
,
0001
0000
0010
0000
,
0001
0001
0001
0000
,
1000
0000
0010
0000
,
1000
0000
0010
0000
,
0100
0000
0000
0000
,
0000
0010
0010
0000
,
1000
0000
0000
0000
,
0001
0000
0000
0000
,
0010
0000
0000
0000
,
0100
0000
0000
0000
,
0010
0000
0000
0000
,
0001
0000
0000
0000
,
1000
0000
0000
0000
,
0010
0000
0000
0000
,
1001
0000
0000
0000
,
0110
0000
0000
0000
,
1001
0000
0000
0000
,
0110
0000
0000
0000
,
1000
0000
1000
0000
,
0001
0000
0001
0000
,
0100
0000
0100
0000
,
0010
0000
0010
0000
,
1000
0000
1000
0000
,
0001
0000
0001
0000
,
0010
0000
0100
0000
,
1000
1000
1000
0000
,
0001
0000
0000
0000
,
1000
0000
0000
0000
,
0010
0000
0000
0000
,
0100
0000
0010
0000
,
1000
0000
0000
0000
,
0001
0000
0000
0000
,
0010
0000
0000
0000
,
0100
0000
0000
0000
,
1000
0000
0000
0000
,
1001
0000
0000
0000
,
0110
0000
0000
0000
0000
0000
0000
1000
,
0000
0000
0000
0000
,
0002
0000
0000
0000
,
1003
0000
0001
0000
,
1000
1000
1000
0000
,
0001
0000
1000
0000
,
0001
0001
0001
0000
,
0100
0000
0010
0000
,
0100
0100
0100
0000
,
0010
0000
0100
0000
,
0000
0010
0010
0000
,
1000
0000
0001
0000
,
0100
0100
0100
0000
,
0001
0000
1000
0000
,
0100
0010
0100
0000
,
0010
0000
0001
0000
,
1000
1000
1000
0000
,
0001
0000
1000
0000
,
0000
0010
0010
0000
,
0100
0000
0010
0000
,
1000
1000
1000
0000
,
0001
0000
1000
0000
,
0100
0100
0100
0000
,
0010
0010
0001
0001
,
1000
1000
0100
0100
,
1000
0000
0000
0001
0000
0000
1000
0000
,
0000
0001
0001
0000
,
0000
1000
1000
0000
,
0010
0000
0100
0000
,
0000
0110
1001
0100
;

//--------------- dance-single - Pandemonium X ----------------
#NOTES:
     dance-single:
     Pandemonium X:
     Easy:
     9:
     0,0,0,0,0:
0000
0000
0000
0000
,
0000
0000
0000
0000
,
0000
0000
0000
0000
,
0001
0100
0001
0100
,
0010
1000
0100
0100
,
1000
0001
0100
0001
,
1000
0100
0010
0000
,
0100
1000
0100
0010
,
0001
0010
0100
0100
,
0010
0001
0100
0010
,
0000
1000
0010
0100
0001
0000
0000
0000
,
1000
0001
0010
0001
,
1000
0100
0010
0100
,
1000
0001
0100
0001
,
0010
0100
0010
0000
,
0100
0010
0001
0100
,
0010
1000
0010
0100
,
0001
0000
0000
1000
0000
0000
0001
0000
,
0000
1000
0100
0010
0001
0000
1001
0000
,
1000
0001
0200
0302
,
0013
0100
2000
3020
,
0130
0001
2000
3002
,
2003
3100
0002
0103
,
0010
1000
0002
0203
,
0310
1000
0200
2300
,
3001
1000
0200
0320
,
0032
0013
0200
1300
,
0001
0100
0010
1000
0000
0000
0000
0000
,
0001
0100
0010
1000
0000
0000
0000
0000
,
1000
0010
0100
0001
0000
0000
0000
0000
,
0001
0100
0010
1000
0000
0000
0000
0000
,
0001
1000
0001
0001
,
1000
0100
0010
0010
,
0001
0001
0010
0100
,
1000
0000
1000
0000
0001
1000
0000
1000
,
0100
0100
1000
0010
,
0100
0100
0001
1000
,
0001
0000
0000
0010
0000
0100
0000
0010
,
0000
0100
1000
0010
0100
0000
0101
0000
,
0001
0100
0020
2030
,
3100
0010
0002
0023
,
0130
0010
0002
2003
,
3001
0010
0100
1000
,
0001
1000
0200
2300
,
3010
0100
0002
0023
,
0130
0010
0002
2003
,
3001
0001
0001
0001
,
1001
1000
1000
1000
,
0001
0100
0010
1000
0001
0100
0010
1000
,
0001
0010
0100
1000
0000
0000
0000
0000
,
0000
0000
0000
0000
,
0002
0000
0000
0000
,
1003
0001
0100
0001
,
1000
0100
0010
0010
,
0100
1000
0001
0100
,
0001
0010
0100
0000
,
0010
0001
0100
0001
,
0010
0100
1000
1000
,
0100
1000
0001
0100
,
0000
0010
0100
0001
1000
0000
0000
0000
,
0001
0010
0001
1000
,
0100
0010
0000
0100
,
1000
0001
0100
0001
,
0010
0100
1000
0000
,
0100
1000
0001
0100
,
0001
1000
0001
0010
,
0001
0100
0010
1000
,
0000
0010
0100
1000
0001
0000
0000
0000
,
1000
0100
0010
0100
,
1000
0001
0100
0001
,
0010
0100
0010
0001
,
0100
0001
1000
0000
,
0001
0100
0010
1000
,
0100
0010
0001
1000
,
0001
0000
0100
0010
0000
0100
0001
1000
,
0000
0001
0010
0100
1000
0000
1001
0000
,
0000
1000
0100
0010
0001
0000
1001
0000
,
0001
0000
0100
0000
0010
1000
0010
1000
,
0000
0001
0100
0010
1000
0000
1001
0000
;

//--------------- dance-single - Pandemonium X ----------------
#NOTES:
     dance-single:
     Pandemonium X:
     Medium:
     13:
     0,0,0,0,0:
0000
0000
0000
0000
,
0000
0000
0000
0000
,
0000
0000
0000
0000
,
0001
0000
0100
0000
0001
0000
0010
0001
,
0000
0100
0000
0001
0010
0000
0011
0000
,
0100
0000
1000
0010
0000
0100
0010
1000
,
0000
0010
0000
0010
0100
0000
0000
0000
,
0010
0000
1000
0000
0100
0000
1000
0010
,
0000
0100
0000
0010
1000
0000
0100
0000
,
0010
0000
0001
0010
0000
0100
0010
0001
,
0000
1000
0100
0010
0001
0000
0000
0000
,
1000
0010
0100
0010
1000
0010
0100
0001
,
1000
0100
0010
0100
0000
0010
0100
1000
,
0001
0000
1000
0001
0000
0001
0010
0001
,
0000
0010
0000
0010
0100
0000
0000
0000
,
1000
0100
1000
0100
0010
0001
0100
0001
,
0000
0001
0010
0001
0000
0010
0100
1000
,
0001
0000
0100
0001
0000
0001
0010
0100
,
0000
0100
0010
0001
1000
0000
1001
0000
,
0001
0100
0001
1000
0100
0001
0100
1000
,
0001
1000
0001
1000
0010
0001
0010
1000
,
0001
1000
0001
1000
0100
0001
0100
1000
,
0001
0010
0100
1000
0001
0010
0100
1000
,
0001
0100
0001
1000
0100
0001
0100
1000
,
0001
1000
0001
1000
0010
0001
0010
1000
,
0001
1000
0001
1000
0100
0001
0100
1000
,
0001
0010
0100
1000
0001
0010
0100
1000
,
1001
1001
1001
1001
0000
0000
0000
0000
,
0110
0110
0110
0110
0000
0000
0000
0000
,
1001
1001
1001
1001
0000
0000
0000
0000
,
0110
0110
0110
0110
0000
0000
0000
0000
,
0001
0000
0100
0000
0010
1000
0010
0000
,
1000
0000
0100
0000
0010
0001
0010
0000
,
0001
0100
0001
1000
,
0100
0000
0010
0000
0100
1000
0000
1000
,
0010
0000
0100
0000
0001
0010
0100
0000
,
0010
0000
0001
0000
1000
0100
0010
0000
,
1100
0000
1000
0010
0000
0001
0010
1000
,
0000
0100
0001
0100
1000
0000
0011
0000
,
1000
0100
0010
0001
0100
1000
0100
0001
,
1000
0100
0010
0001
0100
1000
0100
0001
,
1000
0100
0010
0001
0100
1000
0100
0001
,
1000
0100
1000
0100
0010
0001
0010
0001
,
0001
0010
0100
1000
0010
0001
0010
1000
,
0001
0010
0100
1000
0010
0001
0010
1000
,
0001
0010
0100
1000
0010
0001
0010
1000
,
0001
0010
0001
0010
0100
1000
0100
1000
,
0001
0100
0001
0100
0010
1000
0010
1000
,
0001
0001
0100
0100
0010
0010
1000
1000
,
1001
1010
1100
1001
0000
0000
0000
0001
,
0100
0010
1000
0001
0000
0000
0000
0000
,
1200
0000
0000
0000
,
0310
0000
0001
0000
0100
0000
0010
0100
,
0000
0001
0000
0010
0100
0000
1100
0000
,
0100
0000
1000
0010
0000
0100
0001
1000
,
0000
0100
0000
0010
0011
0000
0000
0000
,
0001
0000
0100
0000
0001
0000
1000
0100
,
0000
0010
0000
0100
1000
0000
0011
0000
,
0001
0000
0100
0001
0000
0010
0100
1000
,
0000
0100
0010
0001
1001
0000
0000
0000
,
0001
0100
0001
0100
0001
0010
0001
0010
,
0100
1000
0100
0010
0000
0100
1000
0010
,
0100
0000
0010
0100
0000
0100
0001
0010
,
0000
0100
0000
1000
0001
0000
0000
0000
,
1000
0010
0100
0001
0010
0100
0010
0001
,
0000
1000
0100
0010
0000
0100
1000
0010
,
0100
0000
0001
0010
0000
0100
0010
0001
,
0000
0010
1000
0010
0001
0000
1001
0000
,
0001
0100
0001
1000
0100
0010
0100
1000
,
0001
0100
0001
0010
0000
0001
0100
0010
,
1000
0000
0100
0001
0000
0001
0100
1000
,
0000
1100
0000
0001
1001
0000
0000
0000
,
0001
0001
0100
0100
0010
0010
1000
1000
,
0001
0010
0100
1000
0000
1000
0100
0010
,
0011
0000
0001
0101
0000
0100
0010
1010
,
0000
1000
0010
0100
0001
0000
1001
0000
,
0000
0001
0010
0100
1000
0000
1001
0000
,
1000
0000
0100
0000
0010
0001
0010
0000
0100
0000
1000
0000
0001
0000
1000
0000
,
0000
1010
0101
0011
1100
0000
1001
0000
;

//--------------- dance-single - Pandemonium X ----------------
#NOTES:
     dance-single:
     Pandemonium X:
     Hard:
     16:
     0,0,0,0,0:
0000
0000
0000
0000
,
0000
0000
0000
0000
,
0000
0000
0000
0000
,
0001
0000
1000
0000
0010
0000
1000
0001
,
0000
0010
0000
0001
1000
0000
0010
0000
,
1000
0000
0100
0010
0000
0010
0001
1000
,
0000
0010
0000
0010
1000
0001
0010
0100
,
0010
0000
0001
0000
1000
0000
0001
1000
,
0000
0100
0000
1000
0001
0000
0100
0000
,
0001
0000
0010
0100
0000
0100
0010
0001
,
0000
1001
0101
1001
1100
0000
0000
0000
,
0001
0001
0010
0100
0010
0010
0100
1000
,
0001
0100
0001
1000
0000
0100
0010
0100
,
1000
0000
1000
0100
0000
0100
0010
0001
,
0000
1000
0000
0001
0100
0000
0000
0000
,
0001
1000
0010
0100
0010
1000
0100
0010
,
0000
0010
0001
1000
0000
1000
0001
0010
,
0110
0000
0100
1100
0000
0110
0011
1001
,
0000
0101
1010
1100
1001
0000
0000
0000
,
0001
0000
1000
0000
0100
0000
0010
0000
0001
0010
0100
0000
0010
0000
0001
0000
,
1000
0000
0001
0000
0010
0000
0100
0000
1000
0100
0010
0000
0100
0000
1000
0000
,
0001
0000
0010
0000
0100
0000
1000
0000
0100
0010
0001
0000
0010
0000
0100
0000
,
1000
0100
0001
0100
1000
0010
0001
0010
,
1000
0000
0001
0000
0010
0000
0100
0000
1000
0100
0010
0000
0100
0000
0010
0000
,
0001
0000
0100
0000
0010
0000
0100
0000
0010
1000
0100
0000
0010
0000
0001
0000
,
0100
0000
0010
0000
1000
0000
0001
0000
0010
0100
1000
0000
0001
0000
1000
0000
,
1000
0100
1000
0100
0010
0001
0010
0001
,
1001
0101
1001
1100
0000
0000
0000
0000
,
1001
1100
1001
0101
0000
0000
0000
0000
,
1001
0011
1001
1010
0000
0000
0000
0000
,
1001
1010
1001
0011
0000
0000
0000
0000
,
0201
0000
1300
0000
0100
0001
0010
0100
,
1200
0000
0301
0000
0100
0010
0001
1000
,
1002
0000
0010
0010
0000
0100
0103
0010
,
1000
0100
0010
0100
1100
0021
0000
0130
,
1100
0000
0021
0000
1030
0010
0011
0000
,
0201
0000
1300
0000
0010
0100
0101
0001
,
1001
0000
0110
0110
0000
1001
1001
1001
,
0000
0101
1010
0101
1001
0000
0000
0000
,
1000
0000
0100
0000
1000
0000
0010
0000
0100
0001
0010
0000
0100
0000
0010
0000
,
0001
0000
1000
0000
0100
0000
1000
0000
0001
0010
0100
0000
0010
0000
0001
0000
,
0100
0000
0010
0000
1000
0000
0010
0000
0100
0001
0010
0000
0100
0000
0010
0000
,
0001
0001
0100
0100
0010
0010
1000
1000
,
0100
0000
0010
0000
0100
0000
1000
0000
0001
0010
0100
0000
0010
0000
0001
0000
,
1000
0000
0010
0000
0100
0000
0001
0000
0010
0001
0100
0000
0010
0000
1000
0000
,
0100
0000
1000
0000
0001
0000
0010
0000
0100
1000
0001
0000
0100
0000
0010
0000
,
0100
0100
0010
1000
0001
0001
1000
1000
,
0010
0010
0100
0001
1000
1000
0001
0001
,
0101
1010
1100
0011
0110
1100
0110
0011
,
1001
1100
0011
1001
0000
0000
0000
0001
,
0100
1000
0010
0001
0000
0000
0000
0000
,
4000
0400
0000
0000
0000
0000
0000
0000
0000
0000
0000
0000
0000
0000
3300
0000
,
0011
0000
0110
0000
1100
0000
0100
1100
,
0000
1001
0000
0001
0101
0000
1010
0000
,
1001
0000
0001
0101
0000
0001
0010
0110
,
0000
1100
0000
1001
0101
0000
0000
0000
,
1010
0000
0110
0000
0101
0000
0100
0101
,
0000
1010
0000
1000
1100
0000
0011
0000
,
1001
0000
1000
1100
0000
1000
0010
0110
,
0000
0101
1010
1100
1001
0000
0000
0000
,
0001
0001
0010
0100
0010
0010
0001
1000
,
0100
0001
0100
1000
0000
0010
0100
0010
,
1000
0000
0100
0010
0000
0100
0010
0001
,
0000
0110
0000
0100
1001
0000
0000
0000
,
1000
1000
0001
0001
0100
0010
0001
0010
,
0000
0100
0001
1000
0000
0100
0010
0001
,
0011
0000
1001
1100
0000
1001
0011
0011
,
0000
1001
1010
0101
1001
0000
0000
0000
,
1000
1000
0001
0100
0010
0010
0100
0001
,
0010
1000
0010
0001
0000
0100
0100
0010
,
1000
0000
0001
0010
0000
0100
0010
0001
,
0000
1001
0000
0100
1001
0000
0000
0000
,
1001
1001
0101
0101
0110
0110
1010
1010
,
0101
0000
0110
0000
1010
0000
1001
0000
0001
1000
0001
1000
0001
1000
0001
1000
,
0001
0000
0011
1100
0000
1010
0101
1010
,
0000
0101
0101
1010
1001
0000
0001
0000
,
0000
1100
1100
0011
1100
0000
1000
0000
,
0001
0000
0100
0000
0001
0010
0100
0000
0010
0001
0010
0001
1000
0100
1000
0100
,
0000
1100
0011
0101
1010
0000
1001
0000
;
