#TITLE:XODUS;
#SUBTITLE:;
#ARTIST:DJ Myosuke & Gram;
#TITLETRANSLIT:;
#SUBTITLETRANSLIT:;
#ARTISTTRANSLIT:;
#GENRE:;
#CREDIT:;
#MUSIC:XODUS.ogg;
#BANNER:XODUS-bn.png;
#BACKGROUND:XODUS-bg.png;
#CDTITLE:;
#SAMPLESTART:39.492;
#SAMPLELENGTH:19.616;
#SELECTABLE:YES;
#OFFSET:0.310;
#BPMS:0.000=101.000
,20.000=202.000
,228.000=101.000
,236.000=202.000
,316.000=101.000
,320.000=50.500
,321.000=101.000
,322.000=202.000
,323.000=404.000
,325.000=101.000
,339.000=50.500
,340.000=101.000
;
#STOPS:;
#DISPLAYBPM:*;
#BGCHANGES:;
#FGCHANGES:;

//--------------- dance-single - Pandemonium X ----------------
#NOTES:
     dance-single:
     Pandemonium X:
     Beginner:
     8:
     0,0,0,0,0:
0000
0000
0000
0000
,
0000
0000
0000
0000
,
0000
0000
0000
0000
,
0000
0000
0000
0000
,
0000
0000
0000
0000
,
0001
1000
0001
0001
,
0000
0000
1001
0000
,
1000
0001
1000
1000
,
0000
0000
1001
0100
,
0001
0001
1000
0001
,
0000
0000
1001
0000
,
1000
1000
0001
1000
,
0010
0000
0000
0000
,
0100
0020
0000
0000
,
0000
0000
0000
0030
,
1000
0000
1000
0000
,
0001
0000
0001
1000
,
0110
0100
0002
0000
,
1003
0000
1000
0000
,
0001
0000
0100
0000
,
0010
0010
0100
0100
,
1001
0001
2000
0000
,
0000
0000
0000
3000
,
0200
0000
0000
0000
,
0300
0000
0000
0000
,
0000
1000
0000
0001
,
0100
0000
0000
0001
,
0010
0010
0010
0010
,
1001
0000
0000
0000
,
1000
0000
0000
0000
,
0001
0000
0000
0000
,
0100
0000
0001
0000
,
0010
0000
0001
1000
,
0100
0000
0000
0000
,
0010
0000
0000
0000
,
0100
0000
1000
0000
,
0010
0010
0010
0000
,
0100
0001
1000
0000
,
0001
1000
0100
0000
,
0010
0000
0001
0000
,
0100
0000
0010
0100
,
0001
0000
0000
1000
,
0100
0000
0000
0010
,
0001
0000
0100
0000
,
0010
0100
0010
0000
,
1000
0000
0000
0001
0000
0000
0000
1000
,
0000
0000
0000
0100
0000
0000
0000
0000
,
1000
0000
0000
0001
0000
0000
0000
0100
,
0000
0000
0000
0001
0000
0000
0000
0000
,
0010
0000
0000
0001
0000
0000
0000
0100
,
0000
0000
0000
0001
0000
0000
0000
0000
,
1000
0000
0000
0001
0000
0000
0000
1000
,
0000
0100
1000
0001
,
0100
0000
0000
0100
0000
0000
0000
0010
,
0000
0000
0000
0100
0000
0000
0000
0000
,
0001
0000
0000
1000
0000
0000
0000
0001
,
0000
0000
0000
1000
0000
0000
0000
0000
,
0001
0001
1000
1000
,
0010
0010
0100
0100
,
0001
1000
0010
0010
,
0000
1000
1001
0000
,
1000
0001
0100
0100
,
0000
0010
0100
1001
,
0001
1000
0001
1000
,
0001
1000
0001
1000
,
0010
1000
0010
1000
,
0000
0010
0000
0000
0000
0000
0000
0000
,
1001
0001
0100
0001
,
0100
0001
0010
0001
,
0010
0000
0000
0100
0000
0000
0000
1000
,
0000
0100
1000
0010
,
0200
0000
0000
0000
,
0000
0000
0000
0310
,
0100
0001
1000
0100
,
0000
0010
0000
0000
0000
0000
0001
0000
,
0100
0001
1000
0100
,
0010
0100
1000
0001
,
0100
0000
0001
0000
0010
0000
0000
2002
,
0000
0000
0000
0000
,
3003
0000
0000
0000
,
0000
0000
0000
0000
,
0000
0000
0000
0000
0001
0000
0000
0000
0000
1000
0000
0000
0001
0000
0000
0100
,
0000
0000
0000
0000
0010
0000
0000
0000
0000
0100
0000
0000
0001
0000
0000
1000
,
0000
0000
0000
0000
0100
0000
0000
0000
0000
0010
0000
0000
0100
0000
0000
1000
,
0000
0000
0010
0000
0100
0000
0100
0000
0000
0010
0000
0000
1000
0000
0000
0000
,
0001
0000
0001
0000
0000
0000
0010
0000
0001
0000
0000
0100
0000
0000
0001
0000
,
1000
0000
1000
0000
0000
0000
0100
0000
1000
0000
0000
0010
0000
0000
0000
0000
,
0100
0000
0100
0000
0100
0000
0000
0000
0010
0000
0000
0100
0000
0000
0001
0000
,
1000
0100
0010
0001
2002
0000
0000
0000
,
3003
0000
0000
0000
;

//--------------- dance-single - Pandemonium X ----------------
#NOTES:
     dance-single:
     Pandemonium X:
     Easy:
     12:
     0,0,0,0,0:
0000
0000
0000
0000
,
0000
0000
0000
0000
,
0000
0000
0000
0000
,
0000
0000
0000
0000
,
0000
0000
0000
0000
,
0001
1000
0010
0010
,
0000
0000
1000
0000
1001
0000
0001
1000
,
0001
1000
0100
0100
,
0000
1000
0001
0110
,
0001
1000
0100
0001
,
0100
0010
0001
0001
,
0011
1001
1010
0101
,
0000
1000
0000
0001
1000
0000
0110
0000
,
0001
2000
0000
0000
,
0200
0000
0000
3000
,
1300
1000
0010
1000
,
0100
0010
0100
1100
,
0011
0000
0001
0100
0010
0000
0100
0000
,
0001
0000
0001
0000
1000
0000
1000
0001
,
1000
0100
1000
0000
0100
0000
1000
0010
,
0110
1001
0110
1001
,
1000
0000
0001
0100
0020
0000
0000
0000
,
1030
0100
0010
0001
1000
0100
1000
0000
,
0002
0000
0000
0000
,
0003
0000
0000
0100
,
1001
0000
0001
0100
0001
0000
1000
0010
,
1000
0000
0001
0010
0001
0000
1000
0100
,
1000
0100
0010
0001
1000
0100
0010
0001
,
1000
0000
0000
0000
,
0001
0100
0001
1000
,
0100
0010
0100
1000
,
0001
0001
1000
1000
,
0001
0100
0110
1001
,
0001
1000
0010
1000
,
0100
0010
0100
1000
,
0001
0100
0001
1000
,
0000
0000
0100
0000
0000
0100
0000
0000
0010
0000
0000
0010
0000
0000
0001
0000
,
0100
0001
1000
0000
0100
0000
1000
0000
,
0010
0100
0001
0010
,
0100
0010
0100
1000
,
0010
0100
0101
1001
,
1000
0100
1000
0001
,
0100
0001
0020
0000
,
0030
0000
0100
0000
0000
0010
0000
0000
0001
0000
0000
1000
0000
0000
0010
0000
,
0000
0000
0100
0000
0000
0001
0000
0000
1000
0000
0000
0100
0000
0000
0010
0000
,
0100
0000
0000
2000
0000
0000
0000
3020
,
0000
0000
0000
0200
0000
0000
0030
0310
,
0100
0000
0000
0002
0000
0000
0000
0023
,
0000
0000
0000
0200
0000
0000
0000
0030
,
0310
0000
0001
2000
0000
0000
0000
3020
,
0000
0000
0000
2000
0000
0000
0000
0030
,
3100
0000
0000
2000
0000
0000
0000
0020
,
0000
3000
0130
0000
0010
0000
1000
0000
,
0001
0000
0000
0001
0000
0000
0000
1000
,
0000
0000
0000
0101
0000
0000
0000
0000
,
0001
0000
0000
0010
0000
0000
0000
0100
,
0000
0000
0000
1001
0000
0000
0000
0000
,
1000
0001
1000
0001
,
1000
0001
1000
0001
,
1000
0001
1000
1000
,
0000
0001
0100
0010
1000
0000
1000
0000
,
0001
0100
0010
1000
,
0001
1000
0001
1000
0001
1000
0010
0000
,
0100
0001
0010
0100
,
0010
0000
0001
0000
1000
0000
0100
1000
,
0010
0100
0001
0000
1000
0000
0001
0100
,
0000
0001
1000
1001
0000
2000
0000
0000
,
3001
0000
1010
0000
1000
0000
0001
0010
,
0000
0010
0001
0100
0000
0010
0100
0010
,
1000
0001
1000
0100
0000
0010
0100
0010
,
0000
0100
1100
0000
0011
0000
0101
0000
,
0002
0000
0000
0000
,
0000
0000
0000
0000
0003
0000
0100
0010
,
1000
0001
0010
0000
0100
0000
0010
0001
,
0000
0100
0001
1001
0000
0002
0000
0000
,
0003
0000
0010
0001
0010
0000
0001
1000
,
0000
0100
1000
1001
0000
0001
1000
0010
,
0100
0001
0010
0100
0000
0010
0001
2000
,
0000
0000
0000
3010
,
1000
0000
0001
0000
1000
0000
0100
2000
0000
0000
0000
0000
0000
0000
0000
0000
,
0002
3003
0000
0000
,
0000
0000
0000
0000
0000
0000
0000
0000
1000
0000
0010
0000
1000
0000
0000
0000
0000
0000
0001
0000
0000
0001
0000
0000
0001
0000
0000
0000
0000
0000
0010
0000
,
0000
0000
0100
0000
0010
0000
0001
0000
1000
0000
0001
0000
0100
0000
0000
0000
0000
0000
0010
0000
0000
0100
0000
0000
0001
0000
0000
0000
0000
0000
1000
0000
,
0000
0000
0100
0000
0020
0000
0000
0000
0130
0000
1000
0000
0100
0000
0000
0000
0000
0000
1000
0000
0000
1000
0000
0000
1000
0000
0000
0000
0000
0000
0001
0000
,
0000
0000
0100
0000
0001
0000
0000
0000
0010
0000
0100
0000
0010
0000
0000
0000
0000
0000
0001
0000
0000
1000
0000
0000
0010
0000
0000
0000
0000
0000
0000
0000
,
1000
0000
0000
0001
0000
0000
0010
0000
0100
0000
1000
0000
0000
0000
0000
0100
0000
0000
1000
0000
0000
0001
0000
0000
0100
0000
0000
0000
0000
0000
0000
0000
0000
0010
0000
0000
0000
0000
0000
0100
0000
0000
0001
0000
0000
0010
0000
0000
,
0001
1000
0001
1000
0000
0001
0010
0001
0100
0000
0000
0010
0000
0100
0002
0000
,
0013
0100
0010
0100
0000
1000
0100
1000
0001
0000
0000
1000
0001
0010
0100
1000
,
0100
1000
0010
0100
0000
0010
0100
0001
2002
0000
0000
0000
0000
0000
0000
0000
,
3003
0000
0000
0000
;

//--------------- dance-single - Pandemonium X ----------------
#NOTES:
     dance-single:
     Pandemonium X:
     Medium:
     15:
     0,0,0,0,0:
0000
0000
0000
0000
,
0000
0000
0000
0000
,
0000
0000
0000
0000
,
0000
0000
0000
0000
,
0000
0000
0000
0000
,
0011
0101
1001
2200
,
3300
1000
0100
1000
0010
0000
1000
1000
,
1100
1010
1001
0202
,
0303
0001
0000
0100
0010
0000
1000
0000
,
0001
0010
0001
1000
0100
1000
0010
1000
,
0010
0100
0001
0100
0001
1000
0100
0010
,
0001
1000
0001
1000
0001
1000
0001
1000
0001
1000
0001
1000
0001
1000
0001
1000
,
0000
0001
0000
1000
0010
0000
0101
0000
,
0021
0200
0000
0030
,
1300
0010
1000
0010
1000
0010
1000
0010
1000
0000
1000
0000
0100
0000
0000
0000
,
0010
0001
0100
0001
0010
0100
1000
0100
,
0010
0100
1000
0010
0100
0001
0101
0000
,
1001
0000
0001
0100
0020
0000
0000
0000
,
0130
0001
0010
0001
0100
0010
1000
1000
,
1000
0001
0011
0000
1100
0000
1001
0000
,
0002
0203
2300
3200
,
0301
0000
0010
0100
2100
0000
0000
0000
,
3001
0010
0001
0100
0010
1000
0100
0000
,
0022
0000
0000
0000
,
0033
0000
0000
1100
,
1010
0000
0000
0000
0010
0000
0100
0000
0001
0000
0010
0000
0100
0010
0100
0010
,
0100
0000
1000
0000
0010
0000
0100
0010
0100
0000
0001
0000
0010
0001
0010
0000
,
0001
1000
0001
1000
0001
1000
0001
1000
0001
1000
0001
1000
0001
1000
0001
1000
,
0001
0000
0000
0000
,
0100
0000
0000
0001
0000
0000
0010
0000
0001
0000
0000
0000
1001
0000
0000
0000
,
1000
0000
0000
0010
0000
0000
0100
0000
0000
0001
0000
0000
1000
0000
0000
0000
,
0100
1000
0100
0000
0010
0001
0010
0000
,
0001
0100
0001
0000
1001
0000
1100
0000
,
0100
0000
0000
1000
0000
0000
0010
0000
0000
0100
0000
0000
0001
0000
0000
0000
,
0100
0000
0000
0001
0000
0000
0010
0000
0000
0100
0000
0000
1000
0000
0000
0000
,
0100
0000
0000
1000
0100
0000
0000
1000
0001
0000
0000
0001
0100
0000
0010
0000
,
0000
0000
0100
0000
0000
0001
0000
0000
0010
0000
0000
0100
0000
0000
1000
0000
,
0001
0000
0000
1000
0000
0000
0001
0000
1000
0000
0001
0000
0100
0000
0001
0000
,
0010
0000
0000
0100
0000
0000
1000
0000
0000
0001
0000
0000
0010
0000
0001
0000
,
0010
0100
1000
0000
0100
0010
0001
0000
,
0010
0001
0100
0000
0101
0000
0011
0000
,
0001
0000
0000
0100
0000
0000
0010
0000
0000
0000
1000
0000
0100
0000
0010
0000
,
0001
0000
0000
0010
0000
0000
0001
0000
0100
0000
0010
0000
1000
0000
0100
0000
,
0000
0000
0010
0000
0000
0010
0000
0000
0100
0000
0000
0100
0000
0000
1000
0000
,
0000
0000
0001
0000
0000
0001
0000
0000
1000
0000
0000
1000
0000
0000
0010
0000
,
0100
0001
0010
0200
0000
0310
0001
0200
,
0000
0310
1000
0200
0000
0000
0300
0000
,
0010
0100
1000
0020
0000
0130
0001
0020
,
0000
0130
1000
0020
0000
0000
0030
0000
,
0100
0001
0010
0200
0000
0310
0001
0200
,
0000
0310
1000
0200
0000
0000
0300
0000
,
0010
0100
1000
0020
0000
0130
0001
0020
,
0000
0130
0100
1000
0010
0100
0001
1000
,
0100
0010
0100
1000
0000
0100
0010
0001
,
0000
0001
0010
0100
0000
0000
0000
0000
,
0010
0001
0100
0010
0000
0010
0100
0001
,
0000
0001
1000
0100
0000
0000
0000
0000
,
1000
0001
0100
0001
,
0010
0100
1000
0100
,
0011
1100
1001
1001
,
0000
0001
0100
0100
0001
0000
1000
1000
,
1100
0011
1001
1001
,
0000
1001
0000
0010
0100
0000
1001
0000
,
0001
0100
0010
1000
,
0100
0000
0010
0000
0100
0000
1000
0001
,
0100
0001
0010
0000
0100
0000
1000
0001
,
0000
0100
0100
0100
0000
0001
0020
0000
,
0130
0000
0011
0000
0001
0000
1000
0001
,
0000
1000
0100
0010
0000
0100
1000
0010
,
0100
0001
0010
0001
0000
0010
0001
0100
,
0000
0010
0100
0001
0010
0100
1000
0001
,
1000
1000
1000
1000
,
1000
1000
1000
0101
,
0001
0010
0100
0000
0010
0000
0001
0100
,
0000
0010
0010
0010
0000
0100
0002
0000
,
0013
0000
1100
0100
0010
0000
0001
0100
,
0000
0001
1000
0100
0000
0100
1000
0001
,
0100
1000
0100
0001
0000
0001
0010
0200
,
0000
0000
0000
0000
,
1300
0100
0010
0100
0000
1000
0010
1000
0001
1000
0001
1000
0001
1000
0001
1000
,
0200
0300
0000
0000
,
0000
0000
0000
0000
0000
0000
0000
0000
0010
0000
0001
0000
0100
0000
0000
0000
0000
0000
0010
0000
0000
0010
0000
0000
0010
0000
0000
0000
0000
0000
0100
0000
,
0000
0000
0001
0000
2000
0000
0000
0000
3100
0000
1000
0000
0010
0000
0000
0000
0000
0000
0100
0000
0000
0001
0000
0000
1000
0000
0000
0000
0000
0000
0100
0000
,
0000
0000
0010
0000
0200
0000
0000
0000
1300
0000
0001
0000
0100
0000
0000
0000
0000
0000
0010
0000
0000
0010
0000
0000
0010
0000
0000
0000
0000
0000
0100
0000
,
0000
0000
0001
0000
0020
0000
0000
0000
0130
0000
0010
0000
0001
0000
0000
0000
0000
0000
0010
0000
0000
0100
0000
0000
1000
0000
0000
0000
0000
0000
0000
0000
,
0001
0000
0000
0100
0000
0000
0010
0000
1000
0000
0100
0000
0000
0000
0000
0010
0000
0000
0100
0000
0000
0010
0000
0000
0001
0000
0000
0000
0000
0000
0000
0000
0000
0100
0000
0000
0000
0000
0000
0001
0000
0000
1000
0000
0000
0100
0000
0000
,
0010
0000
0000
0000
0000
0000
0100
0000
0000
0000
0000
0000
1000
0000
0000
0000
0010
0000
0000
0000
1000
0000
0000
0000
0000
0000
0000
0000
0000
0000
0010
0000
0000
0000
0000
0000
0100
0000
0000
0000
0000
0000
0001
0000
0000
0000
0000
0000
0010
0000
0000
0000
0000
0000
0000
0000
0000
0000
0000
0000
0000
0000
0000
0000
0000
0000
0100
0000
0000
0000
0000
0000
0000
0000
0000
0000
0000
0000
1000
0000
0000
0001
0000
0000
1000
0000
0000
0000
0000
0000
0000
0000
0000
0000
0000
0000
,
0001
0000
0000
0100
0000
0000
0010
0000
1000
0000
0001
0000
0000
0000
0000
0010
0000
0000
0100
0000
1000
0000
0010
0000
0100
0000
0000
0000
0000
0000
0000
0000
0000
0001
0000
0000
1000
0000
0100
0000
0010
0000
0001
0000
0000
1000
0000
0000
,
0010
0000
0000
0100
0000
0000
0001
0000
0010
0000
0100
0000
0000
0000
0000
0010
0000
0000
0001
0000
1000
0000
0100
0000
0020
0000
0000
0000
0000
0000
0000
0000
0000
0000
0000
0000
0000
0000
0000
0000
0000
0000
0000
0000
0000
0000
0000
0000
,
0130
0000
0000
0000
;

//--------------- dance-single - Pandemonium X ----------------
#NOTES:
     dance-single:
     Pandemonium X:
     Hard:
     17:
     0,0,0,0,0:
0000
0000
0000
0000
,
0000
0000
0000
0000
,
0000
0000
0000
0000
,
0000
0000
0000
0000
,
0000
0000
0000
0000
,
1010
0110
1001
0101
,
0000
0001
0100
0010
1010
0000
1000
1000
,
1100
0011
0101
1001
,
0000
0001
0000
0010
0100
0100
1001
0000
,
0001
0100
0010
0100
0001
1000
0001
1000
,
0001
0100
0001
0100
0010
1000
0010
1000
,
0100
0010
0100
0010
0001
0010
0001
0100
0001
0100
0010
0100
0010
1000
0010
1000
,
0001
1000
0000
0100
1000
0000
1001
0000
,
1200
0000
0020
0000
0000
0000
0000
0300
,
0130
1000
0010
0100
0010
1000
0001
0010
0001
0100
0010
0000
1001
0000
0000
0000
,
0001
0100
0010
1000
0100
0010
0100
1000
,
0001
0000
0100
0000
0001
0000
0010
0000
0100
1000
0100
0010
0100
0000
0000
0000
,
0011
0000
0101
1010
1001
0000
1001
0000
,
0001
0000
0010
0000
0001
0000
1000
0000
0010
0000
0100
0000
0001
0010
0001
0010
,
0001
0000
0011
0000
1100
0000
0100
0000
1000
0000
0010
0000
0100
0010
0100
0001
,
1000
0000
0000
1000
0100
0000
0000
0100
0010
0000
0000
0010
0001
0000
0000
0001
,
0100
0000
0000
0000
0110
0000
1010
0000
2002
0000
0000
0000
0000
3003
0000
0000
,
1000
0010
0100
0010
1000
0001
0100
0010
0100
0000
0001
0000
0011
0000
0000
0000
,
1200
0000
0000
0000
,
0300
0000
0000
0010
,
1001
0000
0000
0000
0001
0000
0001
0000
1000
0000
1000
0000
0010
1000
0100
0010
,
0100
0000
0010
0000
0001
0000
0100
0010
1000
0000
1000
0000
0001
0010
0100
0010
,
0001
1000
0010
1000
0001
0010
0001
0100
0010
1000
0100
0010
0001
0010
0100
1000
,
0001
0000
2000
0000
,
3010
0000
0000
1000
0000
0000
0100
0000
0001
0000
0100
0000
0010
0000
0001
0000
,
0100
0000
0000
0001
0000
0000
0010
0000
0000
0001
0000
0000
0100
0000
1000
0000
,
0100
0001
1000
0100
0010
0001
0010
1000
,
0010
0001
0010
0100
1100
0000
0011
0000
,
1001
0000
0000
1000
0000
0000
0001
0000
0000
0010
0000
0000
0100
0010
0100
0000
,
1000
0001
0100
0000
0001
0000
1000
0000
0010
0000
1000
0000
0100
0000
0010
0000
,
0001
0010
0001
0000
1000
0100
1000
0000
0010
0100
0010
0000
0100
0001
0010
0100
,
0000
0010
0001
0000
0010
0100
0000
0100
1000
0000
0100
0010
0000
0100
1000
0000
,
0001
0000
0000
1000
0000
0000
0100
0000
0010
0100
0010
0100
0010
0001
0010
0001
,
1000
0000
0000
0010
0000
0000
1000
0000
0000
0100
0000
0000
0010
0100
0010
0100
,
1000
0001
1000
0000
0001
0000
0100
0000
0010
1000
0010
0000
0100
0000
0001
0000
,
1000
0100
1000
0000
0001
0100
0001
0000
1000
0000
0000
0000
0001
0100
0010
1000
,
0100
0010
0001
0010
1000
0010
0001
0100
,
0010
0000
0001
0000
0010
0000
1000
0000
0010
0100
1000
0100
0001
1000
0100
0010
,
0001
0010
0001
0000
0010
0100
0000
0100
1000
0000
1000
0010
0000
0010
0100
0000
,
0010
1000
0010
0000
0010
1000
0000
1000
0001
0000
0001
0010
0100
0010
0100
1000
,
0001
0000
0100
0000
0010
0000
2020
0000
0000
3030
1000
0000
0100
0000
0022
0000
,
0000
0033
0001
0000
1000
0000
0220
0000
0000
0000
0000
0000
0330
0000
1000
0001
,
1000
0000
0100
0000
0010
0000
0022
0000
0000
0033
0001
0000
0010
0000
2200
0000
,
0000
3300
1000
0000
0001
0000
0202
0000
0000
0000
0000
0000
0000
0303
0100
0010
,
1000
0000
0100
0000
0010
0000
2002
0000
0000
3003
0001
0000
0100
0000
2020
0000
,
0000
3030
1000
0000
0001
0000
2002
0000
0000
3000
0103
0000
0010
0000
1000
0000
,
0100
0010
0001
2002
3003
1000
0010
0202
,
0000
0300
0103
0000
0010
0000
1000
0000
1001
0000
1001
0000
0101
0000
1010
0000
,
1000
1000
0100
0001
0000
0100
1000
0010
,
0000
0000
0001
0000
0010
0000
1000
0000
0000
0000
0000
0000
0000
0000
1000
0010
,
0100
0001
0010
1000
0000
0010
0100
1000
,
0000
0000
0010
0000
0001
0000
0010
0000
0000
0000
0000
0000
0000
0000
0100
0001
,
0010
0000
0100
0000
0010
0000
0001
0000
0000
0000
0010
0000
0100
0000
1000
0000
0000
0000
0100
0000
1000
0000
0010
0000
0000
0000
0100
0000
0001
0000
0010
0100
,
0010
0100
1000
0001
0000
0100
0001
0010
0000
0100
0010
0001
0100
1000
0100
0001
,
0011
1100
1001
1001
,
0000
0001
0100
0100
0101
0000
0101
0000
,
0001
0100
0010
1000
0100
0010
0001
0010
,
0100
0010
0100
1000
0100
1000
0010
1000
0010
0100
0010
0100
0002
0000
0000
0000
,
0013
0001
0100
1000
,
0100
0000
0010
0000
1000
0000
0001
0010
,
0100
0000
0010
0000
0001
0000
0000
0000
0100
0000
0000
0000
0010
1000
0100
0000
,
0000
0110
1100
0110
0000
0011
0002
0000
,
0103
0000
1010
0000
0010
0000
0100
0101
,
0000
0000
0011
0000
0110
0000
1100
0000
0000
0000
0100
0010
0001
1000
0100
0010
,
0001
0101
0110
2001
0000
3010
0110
2002
,
0000
0000
3003
0001
0100
0000
0000
0100
0010
0000
0000
0010
1000
0000
0000
1000
,
0200
0010
0010
0010
,
0010
0000
0000
0000
0010
0000
0000
0000
0310
0000
0000
0000
0001
1000
0001
1000
,
0010
0110
0101
0000
0001
1000
0100
0010
,
0000
0000
0011
0000
0101
0000
0011
0000
0000
0000
0100
0010
0001
1000
0100
0010
,
0001
0000
0101
0101
0101
0000
0010
1001
,
0000
0000
1000
0000
0100
0000
0110
0000
0000
0000
0001
0010
0100
1000
0001
0010
,
0100
1100
0011
2001
0000
3010
0101
0021
,
0000
0000
0000
0130
,
0010
0001
0100
0010
0000
0100
0010
1000
1000
1000
1000
1000
1000
1000
1000
1000
,
2000
3000
0000
0000
,
0000
0000
0000
0000
0000
0000
0000
0000
0001
0000
0100
0000
0010
0000
0000
0000
0000
0000
0110
0000
0000
1010
0000
0000
1100
0000
0000
0000
0000
0000
0110
0000
,
0000
0000
0011
0000
0001
0100
0001
1000
0100
0000
1100
0000
1100
0000
0000
0000
0000
0000
1001
0000
0000
0101
0000
0000
1001
0000
0000
0000
0000
0000
0011
0000
,
0000
0000
0010
0000
0200
0000
0000
0000
1300
0000
0011
0000
0101
0000
0000
0000
0000
0000
0110
0000
0000
0101
0000
0000
1001
0000
0000
0000
0000
0000
1100
0000
,
0000
0000
0011
0000
0010
0100
1000
0001
0100
0000
0101
0000
0101
0000
0000
0000
0000
0000
1010
0000
0000
1001
0000
0000
1100
0000
0000
0000
0000
0000
0000
0000
,
0010
0000
0000
0001
0000
0000
0100
0000
0000
0010
0000
0000
1000
0000
0000
0000
0100
0000
0000
0000
0010
0000
0000
0000
0000
0000
0000
0000
0000
0000
0001
0000
0000
0000
0000
0000
0010
0000
0000
0000
0000
0000
0001
0000
0000
0000
0000
0000
1000
0000
0000
0000
0000
0000
0000
0000
0000
0000
0000
0000
0000
0000
0000
0000
0000
0000
0010
0000
0000
0000
0000
0000
0000
0000
0000
0000
0000
0000
0100
0000
0000
0001
0000
0000
0010
0000
0000
0000
0000
0000
0001
0000
0000
0000
0000
0000
,
1000
0000
0000
0100
0000
0000
1000
0000
0000
0001
0000
0000
0100
0000
0000
0000
0010
0000
0000
0000
1000
0000
0000
0000
0000
0000
0000
0000
0000
0000
0100
0000
0000
0000
0000
0000
0010
0000
0000
0000
0000
0000
0010
0000
0000
0000
0000
0000
0011
0000
0000
0000
0000
0000
0000
0000
0000
0000
0000
0000
0000
0000
0000
0000
0000
0000
1100
0000
0000
0000
0000
0000
0000
0000
0000
0000
0000
0000
1000
0000
0000
0010
0000
0000
0200
0000
0000
0000
0000
0000
0000
0000
0000
0000
0000
0000
,
0301
0000
0000
0010
0000
0000
0100
0000
0000
1000
0000
0000
0001
0000
0000
0000
1000
0000
0000
0000
0010
0000
0000
0000
0000
0000
0000
0000
0000
0000
0100
0000
0000
0010
0000
0000
1000
0000
0000
0001
0000
0000
0000
0010
0000
0000
0000
0000
0100
0000
0000
0000
0000
0000
0000
0000
0000
0000
0000
0000
0000
0000
0000
0000
0000
0000
1000
0000
0000
0100
0000
0000
1000
0000
0000
0000
0100
0000
0000
0000
0010
0000
0000
0000
0001
0000
0000
0000
0000
0000
1000
0000
0000
0000
0000
0000
,
0010
0000
0000
0100
0000
0000
0001
0000
0000
0010
0000
0000
0001
0000
0000
0000
1000
0000
0000
0000
0100
0000
0000
0000
0000
0000
0000
0000
0000
0000
0010
0000
0000
0100
0000
0000
1000
0000
0000
0010
0000
0000
1000
0000
0000
0001
0000
0000
0200
0000
0000
0000
0000
0000
0000
0000
0000
0000
0000
0000
0000
0000
0000
0000
0000
0000
0000
0000
0000
0000
0000
0000
0000
0000
0000
0000
0000
0000
0000
0000
0000
0000
0000
0000
0000
0000
0000
0000
0000
0000
0000
0000
0000
0000
0000
0000
,
0300
0000
0000
0000
;

//--------------- dance-single - Pandemonium X ----------------
#NOTES:
     dance-single:
     Pandemonium X:
     Challenge:
     19:
     0,0,0,0,0:
0000
0000
0000
0000
,
0000
0000
0000
0000
,
0000
0000
0000
0000
,
0000
0000
0000
0000
,
0000
0000
0000
0000
,
1000
0100
1000
0100
0010
0001
0010
0001
0100
0001
0100
0001
1000
0010
1000
0010
,
0100
0010
1000
0100
1001
0000
0011
1100
,
0001
0010
0001
0010
0100
1000
0100
1000
0010
1000
0010
1000
0001
0100
0001
0100
,
0001
0101
0000
1000
1100
1100
0110
0000
,
1001
0001
1001
1000
1100
0100
0110
0010
,
0011
0010
0110
0100
1100
1000
1010
0010
,
0100
0010
1000
0001
0010
0100
1000
0100
1000
0001
0100
0001
0010
0100
1000
0010
,
0100
1000
0000
0100
0001
0000
1001
0000
,
1100
0021
0000
0000
,
0130
0001
0100
0010
0001
0100
1000
0100
0010
0000
1000
0000
1001
0000
0000
0000
,
1000
1100
1000
1010
1000
1001
1000
1100
,
0001
0000
0101
0000
0001
0000
1001
0000
0001
0010
0001
0010
0100
0000
0000
0000
,
1100
0000
0011
0101
1020
0000
1000
0000
,
0130
0000
0101
0000
0100
0000
0110
0000
0100
0000
0101
0000
0001
0010
0001
0010
,
0100
0000
1100
0000
1001
0000
0001
0000
0100
0000
0010
0000
1000
0100
0010
0001
,
2000
0000
3001
0100
0020
0000
0031
0010
2000
0000
3010
0100
0002
0000
0003
0000
,
1100
0000
0011
0110
2100
0000
0010
0000
,
3001
0010
0100
0010
0001
0100
0010
1000
0010
0100
0001
0000
0101
0000
0000
0000
,
0020
0000
0000
0000
,
0030
0000
0000
0110
,
1001
0000
0000
0000
0101
0000
0001
0000
0011
0000
0010
0000
0100
0010
0001
1000
,
0010
0000
1000
0000
1100
0000
0100
0010
0100
0000
0010
0000
0001
0010
0100
1000
,
0001
0100
1000
0100
0010
1000
0001
0010
1000
0010
0001
0010
0100
1000
0001
0100
,
0010
0000
0000
0000
0000
0000
0000
0000
1000
0100
0010
0001
1000
0100
0010
0001
,
2000
0000
0000
3020
0000
0000
0230
0000
0301
0010
0100
0010
0001
0100
0010
1000
,
0200
0000
0000
2300
0000
0000
3020
0000
0000
0230
0000
0000
0301
1000
0100
0010
,
0100
1000
0100
1000
0010
0000
0100
0000
0001
0010
0001
0010
0100
0000
1000
0000
,
0010
0100
0010
0100
0001
1000
0001
1000
0100
0000
0010
0100
1000
0000
1000
0100
,
0020
0000
0032
0000
0000
0000
0203
0000
0000
0320
0000
0000
1030
0001
0010
0100
,
1000
0100
1000
0001
0100
0001
1000
0001
1000
0010
1000
0100
0010
0001
0010
0100
,
1000
0000
0001
0100
0010
0000
0010
1000
0100
0010
0001
0010
0100
0010
0001
1000
,
0000
0001
0100
0000
0100
1000
0000
1000
0100
0000
0100
0001
0000
0001
1000
0000
,
0000
0000
0010
0000
1001
0000
0001
0000
0010
0100
1000
0100
0010
0100
1000
0001
,
0200
0000
0000
0302
0000
0000
0023
0000
0000
0230
0000
0000
0310
0100
1000
0001
,
0100
0001
1000
0100
0010
0000
0100
0000
1000
0001
0100
0001
0010
0000
0100
0000
,
1000
0100
1000
0100
0010
0001
0010
0001
1000
0000
1000
0001
0100
0010
1000
0100
,
0010
0000
0001
0010
0000
0001
0100
0000
0010
0100
0010
0000
0100
0001
0100
0000
,
0001
0000
1000
0100
0000
1000
0010
0000
1000
0001
0010
0100
1000
0001
0010
0100
,
1000
0100
1000
0010
0100
0001
0010
0100
0010
0001
0100
0010
1000
0001
0010
0100
,
1000
0000
0001
0000
0100
1000
0000
0100
0001
0000
0010
1000
0000
0010
0001
0000
,
0100
0000
0000
0000
0000
0000
0010
1000
0100
0000
0000
0000
0000
0000
0010
0001
,
1000
0000
0000
1000
0000
0000
1000
0000
0001
0000
0100
0001
0010
0000
0100
1000
,
0001
0000
0000
0000
1000
0000
0001
1000
0100
0000
0000
0000
0010
0100
0010
0100
,
1000
0000
0001
0100
0000
0001
0010
0000
0100
0010
0000
0001
0010
0000
0100
1000
,
0010
0000
0000
0000
0000
0000
0100
0001
0010
0000
0000
0000
0000
0000
0100
1000
,
0010
0000
0000
0010
0000
0000
0010
0000
0100
0000
0001
1000
0100
0000
0010
0100
,
1000
0000
0000
0000
0001
0000
0010
0001
1000
0000
0000
0000
0010
1000
0001
0010
,
0001
0000
0011
0000
0110
0000
1100
0000
1010
0000
0101
0000
0100
0001
0100
0001
,
1000
0000
0100
0000
0110
0000
0010
0001
0100
0001
1000
0000
0000
0000
0001
1000
,
0001
0000
0010
0000
0011
0000
0010
0100
0010
0001
1000
0000
0000
0000
0001
1000
,
0100
0000
0010
0000
0011
0000
0010
0001
0100
0010
0100
0000
0000
0000
0010
0100
,
0001
0000
1000
0000
1100
0000
0100
1000
0010
0000
0100
0000
0001
0010
0001
0010
,
0001
0000
0010
0000
0100
0000
0010
0000
0000
0000
0100
0000
1000
0000
0010
0000
0000
0000
0100
0000
1000
0000
0100
0000
0000
0000
1000
0000
0100
0000
0100
0001
,
0010
0100
0010
0001
0000
1000
0100
1000
0000
0100
0001
0100
1000
0010
0001
0010
,
1010
1100
1001
0101
,
0011
0110
1100
1001
,
0101
0101
0100
0010
1010
1010
1000
0001
,
1000
0001
0010
0001
0100
0010
1000
0001
0010
0100
1000
0100
0010
0000
0000
0000
,
0011
0011
1100
1100
,
1010
0000
1010
0000
0110
0000
0110
0100
,
0101
0000
0011
0000
1100
0000
0000
0000
1100
0000
0000
0000
1000
0010
0100
0000
,
0000
0000
0110
0000
1010
0000
0110
0000
0000
0000
0110
0000
1000
0100
0010
0001
,
0200
0300
0000
0000
1001
0000
0000
0000
0011
0000
0000
0000
0011
0000
1100
0000
,
0000
0000
1100
0000
1010
0000
1100
0000
0000
0000
0001
1000
0001
0010
0100
0010
,
0001
0101
1010
1100
0000
1100
0011
0110
,
0000
0000
1000
0000
0002
0000
0000
0103
2000
0000
0000
3100
0002
0000
0000
0000
,
0023
0001
0100
1000
,
0100
0000
0000
0000
0001
0000
0000
0000
0130
0000
0000
0000
0010
0100
1000
0001
,
0100
0000
0101
0000
0011
0000
0000
0000
0101
0000
0000
0000
0001
1000
0100
0000
,
0000
0000
0011
0000
0101
0000
0011
0000
0000
0000
1001
0000
1000
0100
0010
0001
,
0100
0000
0101
0110
0101
0000
1001
1001
,
0000
0000
1100
0000
0110
0000
0011
0000
0000
0000
0010
0100
1000
0001
0100
0001
,
0010
0110
1100
1010
0000
0110
0101
2002
,
0000
0000
0000
3003
,
1000
0010
0100
0001
0000
1000
0100
0010
0010
0010
0010
0010
0010
0010
0010
0010
,
0200
0300
2000
3000
0000
0000
0200
0300
0000
0000
0200
0300
0000
0000
0020
0030
0000
0000
0020
0030
0000
0000
0020
0030
0001
0000
0000
0000
0000
0000
0000
0000
0000
0000
0000
0000
0000
0000
0000
0000
0000
0000
0000
0000
0000
0000
0000
0000
0000
0000
0000
0000
0000
0000
0000
0000
0000
0000
0000
0000
0000
0000
0000
0000
0000
0000
0000
0000
0000
0000
0000
0000
1001
0000
0000
0000
0000
0000
0000
0000
0000
0000
0000
0000
0000
0000
0000
0000
0000
0000
0000
0000
0000
0000
0000
0000
,
0000
0000
0000
0000
0000
0000
0000
0000
0001
0100
0001
0000
0100
0010
0100
0000
0010
1000
0010
0100
0010
1000
0001
0010
0100
1000
0100
0000
0010
0100
0010
0000
,
0001
0100
0001
0000
0100
0010
1000
0001
0010
0100
1000
0001
0010
0100
0010
0001
0100
0010
1000
0001
0010
0100
0010
0001
0100
0010
1000
0001
0010
0100
1000
0100
,
1000
0001
0100
0001
0020
0000
0000
0000
0130
0010
0100
0000
0010
0001
0010
0000
0001
0100
0001
0000
0100
0010
0100
0000
0010
1000
0001
0010
0001
0100
0010
1000
,
0001
0010
0100
1000
0100
0010
0100
1000
0001
0100
0010
1000
0001
0010
0100
1000
0001
1000
0100
0010
0100
1000
0001
0100
0001
0000
0000
0000
0000
0000
0000
0000
,
0001
0100
0001
0100
0010
0100
0010
0000
1000
0000
0100
0000
0010
0000
0000
0000
0100
0000
1000
0000
0000
0001
0000
0000
0011
0000
0000
0000
0000
0000
0000
0000
0000
0101
0000
0000
0000
0000
0000
0100
0001
0100
0010
0000
0000
1000
0000
0000
,
0100
0000
0010
0000
0100
0000
0010
0000
0100
0000
0000
0000
0010
0000
0000
0000
0001
0000
0000
0000
1000
0000
0000
0000
0000
0000
0000
0000
0000
0000
0101
0000
0000
0000
0000
0000
0110
0000
0000
0000
0000
0000
0101
0000
0000
0000
0000
0000
1001
0000
0000
0000
0000
0000
0000
0000
0000
0000
0000
0000
0000
0000
0000
0000
0000
0000
1100
0000
0000
0000
0000
0000
0000
0000
0000
0000
0000
0000
0001
0000
0000
0010
0000
0000
0200
0000
0000
0000
0000
0000
0000
0000
0000
0000
0000
0000
,
1300
0100
1000
0001
0100
0001
1000
0000
0100
0000
1000
0000
0000
0000
0000
0001
0100
0001
1000
0001
0000
0000
1000
0000
0100
0000
0000
0000
0000
0000
0000
0000
0000
0010
0100
1000
0100
0000
1000
0000
0010
0000
0100
0000
0000
0110
0000
0000
,
0001
0100
0001
0100
0001
0000
0010
0000
0100
0000
0010
0000
0000
0000
0000
0100
1000
0100
1000
0001
0100
0000
0010
0000
0200
0000
0000
0000
0000
0000
0000
0000
0000
0000
0000
0000
0000
0000
0000
0000
0000
0000
0000
0000
0000
0000
0000
0000
,
0310
0000
0000
0000
;
