#TITLE:Witch doctor;
#SUBTITLE:;
#ARTIST:banya;
#TITLETRANSLIT:;
#SUBTITLETRANSLIT:;
#ARTISTTRANSLIT:;
#GENRE:;
#CREDIT:;
#MUSIC:Witch Doctor.ogg;
#BANNER:Witch Doctor.png;
#BACKGROUND:Witch Doctor-bg.png;
#CDTITLE:;
#SAMPLESTART:9.880;
#SAMPLELENGTH:12.000;
#SELECTABLE:YES;
#OFFSET:-0.048;
#BPMS:0.000=195.000
,82.000=390.000
,84.000=195.000
,86.000=390.000
,88.000=195.000
,128.500=390.000
,129.500=195.000
,133.000=390.000
,134.000=195.000
,137.500=390.000
,138.500=195.000
,142.500=97.500
,153.000=195.000
,264.000=97.500
;
#STOPS:82.000=0.308
,86.000=0.308
,92.000=0.923
;
#BGCHANGES:;
#FGCHANGES:;

//--------------- dance-single - Pandemonium X ----------------
#NOTES:
     dance-single:
     Pandemonium X:
     Beginner:
     5:
     0,0,0,0,0:
0000
0000
0000
0000
,
0000
0000
0000
0000
,
0000
0000
0000
0000
,
0000
0000
0000
0000
,
0001
0000
0000
0000
,
1000
0000
0000
0000
,
0001
0000
0000
0000
,
1000
0000
0000
0000
,
0010
0000
0000
0000
,
0000
0100
0100
0000
,
0001
0000
0000
0000
,
0000
0010
0100
0000
,
0010
0000
0000
0000
,
0000
0100
0100
0000
,
1000
0000
0000
0000
,
0000
0010
0100
0000
,
0001
0000
1000
0000
,
0100
0010
0100
0000
,
0010
0000
0001
0000
,
0100
0010
0100
0000
,
0010
1000
0001
0000
,
0010
0100
1000
0000
,
1001
0000
0110
0000
,
0000
0001
0000
0000
,
0000
1000
0000
0000
,
0000
0100
0000
0000
,
0000
0010
0000
0000
,
0000
0001
0000
0001
,
0000
1000
0000
0000
,
0000
0010
0000
0010
,
0000
0100
0000
0000
,
0000
0000
0001
0000
0000
1000
0000
0000
,
0000
0000
0000
0001
0000
0000
0000
1000
,
0000
0000
0001
0000
,
1000
0000
0000
0000
0000
0001
0000
0001
,
0000
0001
0000
0001
0000
1001
0000
0000
,
0000
0020
0000
0000
0000
0030
0000
0000
,
0000
0000
0000
0000
,
0000
0000
0000
0000
,
1000
0000
0000
0000
,
0001
0000
0100
0000
,
0010
0000
0000
0000
,
1000
1000
1000
0000
,
0001
0000
0000
0000
,
1000
0000
0000
0000
,
0001
0000
1000
0000
,
0110
0000
0000
0000
,
0110
0000
0000
0000
,
0110
0000
0000
0000
,
0110
0000
0000
0000
,
0001
0000
0000
0000
,
1000
0000
0000
0000
,
0100
0000
0000
0000
,
0010
0000
0000
0000
,
0001
0000
0000
0000
,
0100
0000
0000
0000
,
0010
0000
0000
0000
,
1000
0000
0000
0000
,
0001
0000
1000
0000
,
0010
0000
0100
0000
,
0001
0000
1000
0000
,
0010
0000
0100
0000
,
0001
0000
1000
0000
,
0010
0000
0100
0000
,
0001
0000
1000
0000
,
0010
0000
0100
0000
,
1001
0000
0000
0000
;

//--------------- dance-single - Pandemonium X ----------------
#NOTES:
     dance-single:
     Pandemonium X:
     Easy:
     7:
     0.330688,0.470642,0.208443,0.186502,0,211,192,19,17,0,0,0.330688,0.470642,0.208443,0.186502,0,211,192,19,17,0,0:
0000
0000
0000
0000
,
0000
0000
0000
0000
,
0000
0000
0000
0000
,
0000
0000
0000
0000
,
0001
0001
0001
0001
,
0001
0000
0000
2000
0000
0000
3000
0000
,
0001
0001
0001
0001
,
0001
0000
0000
2000
0000
0000
0000
0000
,
3010
0100
0001
0010
,
0001
1000
1000
0001
,
1000
0100
0010
0100
,
2000
3200
0320
0032
,
0103
0001
0010
0001
,
0100
0001
0001
0010
,
0001
0100
0010
1000
,
0002
0023
0230
2300
,
3001
0100
0001
1000
,
0100
0010
0010
0100
,
1000
0001
0100
0001
,
2000
3200
0320
0032
,
1003
0001
1001
0000
,
1000
0001
1001
0000
,
1000
0001
1000
0000
1000
0001
1000
0000
,
0000
0001
0100
0001
,
0010
0001
1000
0010
,
1000
0100
1000
0010
,
0100
0002
0000
0000
,
0000
1003
1000
1000
,
1000
0001
0100
0010
,
1000
0001
0001
0001
,
0001
0010
0001
1000
,
0001
0100
0100
0100
,
0100
0000
0000
0010
0000
0010
0000
0010
,
0000
0010
0000
0000
0100
0000
0100
0000
,
0100
0000
0100
0000
0000
0001
0000
1000
,
0000
0010
0000
0100
0000
2002
0000
0000
,
0000
3000
0000
0003
0000
0000
0000
0000
,
0000
0000
0000
0000
,
0000
0000
0000
0000
,
1000
0010
0100
0001
,
0010
0100
0010
0001
,
1000
0100
0010
0100
,
1000
0001
0100
0001
,
1001
1000
0001
0100
,
1001
1000
0001
0100
,
1001
0100
1001
0100
,
1001
0000
0000
0000
,
0110
0000
0000
0000
,
1001
0000
0000
0000
,
0110
0000
0000
0000
,
0001
0000
0000
0001
0000
0000
0000
0000
,
1000
0000
0000
1000
0000
0000
0000
0000
,
0010
0000
0000
0010
0000
0000
0000
0000
,
0100
0000
0000
0001
0000
0000
0010
0000
,
0100
0000
0000
1000
0000
0000
0000
0000
,
0100
0000
0000
1000
0000
0000
0000
0000
,
0010
0000
0000
0100
0000
0000
0000
0000
,
0001
0000
0000
1000
0000
0000
0001
0000
,
1000
0000
0000
1010
0000
0000
0000
0000
,
0010
0000
0000
0110
0000
0000
0000
0000
,
0100
0000
0000
0101
0000
0000
0000
0000
,
0100
0000
0000
1001
0000
0000
0001
0000
,
1000
0000
0000
1100
0000
0000
0100
0000
,
0010
0000
0000
0011
0000
0000
0001
0000
,
0100
0000
0000
0110
0000
0000
0010
0000
,
0100
0000
0000
0101
0000
0001
0100
0010
,
1000
0000
0000
0000
;

//--------------- dance-single - Pandemonium X ----------------
#NOTES:
     dance-single:
     Pandemonium X:
     Medium:
     13:
     0.526593,0.651659,0.109707,0.076795,0.137134,336,326,10,7,0,0,0.526593,0.651659,0.109707,0.076795,0.137134,336,326,10,7,0,0:
0000
0000
0000
0000
,
0000
0000
0000
0000
,
0000
0000
0000
0000
,
0000
0000
0000
0000
,
0001
0000
0000
0000
,
1000
1000
0000
0000
0000
0000
0000
0000
,
0001
0000
0000
0000
,
0100
0000
0000
0100
0000
0000
0200
0000
0000
0000
0000
0000
0000
0000
0000
0000
,
0301
1000
0100
0000
1000
0010
1000
0100
,
0000
0010
0100
1000
0001
0000
0000
0000
,
1000
0001
0100
0000
0001
0010
0100
0010
,
0000
0001
0100
0010
0100
0000
0100
0001
,
0010
0100
0010
0000
0100
1000
0001
0100
,
0000
0100
0001
1000
0100
0000
0000
0000
,
0010
0100
1000
0000
0100
0010
0001
0010
,
0000
0010
0001
1000
0010
0000
0100
0001
,
1000
0100
0010
0000
1000
0010
0001
0100
,
0000
1000
0100
0001
1000
0000
0001
1000
,
0001
0100
0010
0000
0001
0010
1000
0100
,
0000
0001
0100
1000
0001
0000
1000
0001
,
0010
0100
1000
0000
1001
0000
0000
0000
,
0010
0100
1000
0000
1001
0000
0000
0000
,
0010
0100
1000
0000
0010
0100
1000
0000
,
0000
0001
0100
0010
,
1000
0000
0100
0000
0010
0100
0010
0000
,
0100
1000
0100
0000
1000
0010
1000
0000
,
0001
0100
0001
1000
0001
0100
0010
1000
,
0001
0000
0100
0000
0001
0000
0000
0001
0000
0000
0001
0000
0000
0000
0001
0000
,
0010
0000
0100
0000
1000
0000
0000
1000
0000
0000
1000
0000
0000
0000
1000
0000
,
0100
0000
0010
0000
0100
0000
0000
0100
0000
0000
0100
0000
0000
0000
0010
0000
,
0100
0000
1000
0000
0010
0000
0000
0010
0000
0000
0010
0000
0000
0000
0100
0000
,
0001
0000
1000
0000
0110
0000
0000
0011
0000
0000
0101
0000
0000
0000
0001
0000
,
0100
0000
0020
0000
0000
0000
1030
0000
0000
1100
0000
0000
1001
0000
0000
0000
,
1000
0000
0001
0000
0020
0000
0000
0000
0130
0000
0000
0011
0000
0000
1001
0000
,
0000
0000
0001
0000
0100
0000
0020
0000
0000
0000
1030
0000
0000
1000
0100
0000
,
0000
0100
0010
0000
0000
0010
0001
0000
0000
0000
1000
0010
0000
1000
0000
1000
,
0001
0000
0200
0000
0000
0000
0000
0000
0000
0300
0000
0000
0000
0000
0000
0000
,
0000
0000
0000
0000
,
0000
0000
0000
0000
,
0001
0000
0000
0001
0000
0000
0001
0000
0000
0000
0001
0000
0100
0000
0010
0000
,
1000
0100
0010
0001
0010
0001
0100
0010
,
1000
0000
0000
1000
0000
0000
1000
0000
0000
0000
1000
0000
0100
0000
1000
0000
,
0010
0000
0100
0000
0001
0000
2000
0000
0000
0000
0000
3000
0000
0000
0000
0000
,
0001
0000
0000
0010
0000
0000
0001
0000
0000
0000
0001
0000
0100
0000
0010
0000
,
1000
0000
0000
0100
0000
0000
1000
0000
0000
0000
1000
0000
0100
0000
1000
0000
,
0010
0000
0000
0010
0000
0000
0010
0000
0100
0000
0000
0100
0000
0000
0100
0000
,
0001
1000
0001
0000
0000
0000
0000
0000
0000
0000
0000
0000
0000
0000
0000
0000
,
0001
1000
0001
0000
0000
0000
0000
0000
0000
0000
0000
0000
0000
0000
0000
0000
,
0001
1000
0001
0000
0000
0000
0000
0000
0000
0000
0000
0000
0000
0000
0000
0000
,
1000
0010
0100
0002
0000
0000
0003
0000
,
1000
0000
0100
1000
0000
0010
0000
0000
,
0100
0000
0001
0010
0000
0100
0000
0000
,
0010
0000
0001
1000
0000
0010
0000
0000
,
1000
0000
0001
0010
0000
0100
0010
0001
,
0100
0000
0001
1000
0000
0100
0000
0000
,
0010
0000
0100
1000
0000
0010
0000
0000
,
0100
0000
0001
0010
0000
0100
0000
0000
,
0010
0000
0001
0010
0000
0100
0010
0001
,
1000
0001
0100
0010
1000
0100
0010
0000
,
0100
1000
0001
0100
0001
0010
0100
0000
,
0010
0001
0100
0010
1000
0100
0010
0000
,
0100
1000
0001
0100
0000
1000
0100
0001
,
1000
0001
0100
0010
1000
0001
0010
0100
,
0010
0001
0100
0001
1000
0100
0010
0100
,
1000
0001
0100
0010
1000
0001
0010
0100
,
0010
0001
0100
0010
1000
0001
0010
0100
,
1100
0000
0000
0000
;

//--------------- dance-single - Pandemonium X ----------------
#NOTES:
     dance-single:
     Pandemonium X:
     Hard:
     16:
     0.741305,1.02953,0.142619,0.175531,0.444313,473,460,13,16,0,0,0.741305,1.02953,0.142619,0.175531,0.444313,473,460,13,16,0,0:
0000
0000
0000
0000
,
0000
0000
0000
0000
,
0000
0000
0000
0000
,
0000
0000
0000
0000
,
0002
0003
0000
0000
0000
0000
0000
0000
0000
0000
0000
0000
0000
0000
0000
0000
,
2000
3000
2000
3000
0000
0000
0000
0000
0000
0000
0000
0000
0000
0000
0000
0000
,
0002
0003
0000
0000
0000
0000
0000
0000
0000
0000
0000
0000
0000
0000
0000
0000
,
0100
0000
0000
0100
0000
0000
0100
0000
0010
0100
0010
0100
0001
1000
0001
1000
,
0100
1000
0010
0000
0100
0001
0010
1000
,
0000
0010
0001
0100
0010
0000
0100
0001
,
1000
0100
0001
0000
0100
1000
0010
0100
,
0000
0100
0001
1000
0100
0000
1000
0001
,
0100
0001
0010
0000
0010
1000
0010
0001
,
0000
0010
0001
1000
0010
0000
1000
0001
,
0100
1000
0100
0000
0010
0001
0010
0100
,
0000
0010
0100
0001
1000
0000
0001
1000
,
0001
0010
1000
0010
0100
0100
0010
0001
,
0000
0010
1000
0010
0001
0000
1000
0100
,
1000
0010
0001
0010
0100
0100
0001
1000
,
0000
0100
0010
0001
1001
0000
0001
0100
,
0001
1000
0100
0010
0001
0000
0000
0000
,
0001
1000
0100
0010
0001
0000
0000
0000
,
1001
0010
0100
0000
1001
0100
0010
0000
,
0000
0000
1001
0000
1010
0000
1000
0100
,
0010
0001
0010
0001
0010
0000
0000
0000
1100
0000
0000
0000
1000
0000
0001
0000
,
1000
0010
1000
0010
1000
0000
0000
0000
0011
0000
0000
0000
0010
0000
0100
0000
,
1000
0100
1000
0100
1000
0001
0010
0001
1000
0001
0100
0001
1000
0001
0010
0001
,
1000
0001
0010
0001
0100
0000
0001
1000
0000
0001
0010
0000
0100
0000
1000
0000
,
0010
0000
1000
0000
0100
0000
0000
0100
0000
0000
0100
0000
0010
0000
0100
0000
,
1000
0000
0001
0000
1000
0000
0010
1000
0000
0100
0010
0000
0100
0000
1000
0000
,
0010
1000
0001
0010
0100
0010
1000
0010
,
0001
0000
0100
0000
0001
0000
0000
0001
0000
0000
0001
0000
0000
0000
1000
0000
,
0100
0000
0020
0000
0000
0000
0031
0000
0000
0001
0000
0000
0001
0000
0000
0000
,
1000
0000
0100
0000
0020
0000
0000
0000
0031
0000
0000
0001
0000
0000
0001
0000
,
0000
0000
1000
0000
0100
0000
0020
0000
0000
0000
0031
0100
0001
0000
1000
0100
,
1000
0000
0001
0010
0001
0000
1000
0010
1000
0000
0001
0001
0000
0001
0000
0001
,
0001
2000
0000
0002
0000
3003
0000
0000
,
0000
0000
0000
0000
,
0000
0220
0000
0000
0000
0000
0330
0000
,
0001
0100
0001
0000
1000
0010
1000
0000
0001
0100
0001
0000
1000
0010
1000
0000
,
0001
1000
0010
0100
0001
0010
0001
1000
,
0010
1000
0010
0000
1000
0100
1000
0000
0100
0010
0100
0000
0010
0001
0010
0000
,
0001
1000
0010
0000
1000
0000
0001
1000
0100
0000
0010
0000
0100
0000
1000
0000
,
0001
0100
0001
0000
1000
0010
1000
0000
0100
0010
0100
0000
1000
0000
0001
0000
,
0100
0010
0100
0000
0010
1000
0010
0000
1000
0001
1000
0000
0001
0000
1000
0000
,
0010
1000
0010
0000
0100
0001
0100
0000
0001
1000
0001
0000
1000
0100
1000
0000
,
1002
0013
0000
0000
0000
0000
0000
0000
,
2001
3010
0000
0000
0000
0000
0000
0000
,
1002
0013
0000
0000
0000
0000
0000
0000
,
1001
1000
0001
1000
0001
0100
0010
0000
,
1000
0100
1000
0010
0100
0001
0010
0100
,
0010
0001
0100
0010
1000
0100
0010
0100
,
1000
0001
0100
0001
0010
0001
1000
0010
,
0100
0001
0010
0100
0010
0001
1000
0100
,
0010
0100
1000
0010
0100
0001
0010
0001
,
0100
0010
1000
0100
0010
0100
1000
0001
,
0100
0010
1000
0100
0010
0001
0010
0001
,
0100
0001
0010
0100
1000
0100
0001
0100
,
0010
0001
0010
0000
0001
0000
0100
0000
0010
0000
1000
0000
0001
0000
1000
0000
,
0100
1000
0100
0000
1000
0000
0010
0000
0100
0000
0001
0000
1000
0000
0001
0000
,
0010
0100
0010
0000
0001
0000
0010
0000
0100
0000
1000
0000
0001
0000
0100
0000
,
0010
1000
0010
0000
0100
0000
0001
1000
0001
0000
1000
0000
0001
0000
0010
0000
,
0100
1000
0100
1000
0100
0000
1000
0010
1000
0010
1000
0000
0001
0100
0001
0000
,
0100
0010
0100
0010
0100
0000
0001
0010
0001
0010
0001
0000
1000
0100
1000
0000
,
0001
0100
0001
0100
0001
0000
1000
0100
1000
0100
1000
0000
0001
1000
0001
1000
,
0001
0100
0010
1000
0000
1000
0100
0010
,
2002
0000
0000
0000
0000
0000
0000
0000
0000
0000
0000
0000
0000
0000
0000
0000
0000
0000
0000
0000
0000
3000
0000
0000
0000
0000
0000
0000
0000
0000
0000
0000
,
0000
0003
0000
0000
0000
0000
0000
0000
0000
0000
0000
0000
0000
0000
0000
0000
0000
0000
0000
0000
0000
0000
0000
0000
0000
0000
0000
0000
0000
0000
0000
0000
;

//--------------- dance-single - Pandemonium X ----------------
#NOTES:
     dance-single:
     Pandemonium X:
     Challenge:
     18:
     0,0,0,0,0:
0000
0000
0000
0000
,
0000
0000
0000
0000
,
0000
0000
0000
0000
,
0000
0000
0000
0000
,
0002
0103
0020
1030
0002
0103
0020
1030
,
0002
0103
0020
0200
0000
0000
0030
0000
,
0302
0013
0200
1300
0002
0013
0200
1300
,
0002
0013
0200
0020
0000
0000
0000
0300
,
0031
0000
1000
0000
0010
0000
1000
0100
1000
0000
0001
0000
0100
0000
0001
0000
,
0000
0000
1000
0010
1000
0000
0001
0000
1001
0000
0000
0000
0001
0000
1000
0000
,
0001
0000
0100
0000
0001
0000
0010
0001
0010
0000
0001
0000
1000
0000
0100
0000
,
0000
0000
0010
0001
0010
0000
0001
0000
1001
0000
0000
0000
1000
0000
0001
0000
,
1000
0000
0100
0000
0010
0000
0001
0100
0010
0000
0100
0000
0001
0000
0010
0000
,
0000
0000
0100
1000
0010
0000
0100
0000
1001
0000
0000
0000
0001
0000
1000
0000
,
0001
0000
0100
0000
0010
0000
1000
0010
0100
0000
0001
0000
0010
0000
0100
0000
,
0000
0000
0010
0001
0100
0000
0010
0000
1001
0000
0000
0000
1000
0000
0001
0000
,
0100
0001
0100
0000
0001
0000
0010
0100
0010
0000
0100
0000
1000
0001
0100
0000
,
0000
0000
0010
1000
0100
0000
0010
0000
0011
0000
0000
0000
0100
0000
1000
0000
,
0001
1000
0001
0000
1000
0000
0100
0010
0100
0000
0010
0000
0100
1000
0010
0000
,
0000
0000
0100
0001
1000
0000
0001
0000
1001
0000
0000
0000
0001
0000
0010
0000
,
0001
0000
0100
0001
1000
0000
0100
0000
0010
0000
0000
0000
MMMM
0000
0000
0000
,
0001
0000
0100
0001
1000
0000
0100
0000
0010
0000
0000
0000
MMMM
0000
0000
0000
,
1001
M001
0100
0000
1001
100M
0100
0000
,
0000
0000
0010
0000
0011
0000
0001
0100
,
0010
1000
0010
1000
0010
0000
0000
0000
0100
0000
0000
0000
0010
0000
1000
0000
,
0001
0010
0001
0010
0001
0000
0000
0000
1100
0000
0000
0000
1000
0000
0001
0000
,
0100
0001
0100
0001
0100
0010
1000
0001
0010
0100
0010
0001
0100
0010
1000
0100
,
0010
0001
0010
0100
1000
0000
0001
0000
0100
0000
0001
0000
1000
0001
0100
0000
,
0001
1000
0100
0000
0010
0000
0001
0000
0010
0000
0100
0000
1000
0100
0010
0000
,
0001
0010
0100
0000
1000
0000
0010
0000
0100
0000
0001
0000
0010
0001
0100
0000
,
0010
1000
0001
0000
1000
0000
0001
0000
0010
0000
0100
0000
0010
0001
1000
0000
,
0100
0010
0001
0000
1010
0000
0000
0101
0000
0000
1001
0000
0000
0000
1000
0000
,
0010
0000
MMMM
0000
0000
0000
1001
0000
0000
0011
0000
0000
1100
0000
0000
0000
,
0001
0000
0100
0000
MMMM
0000
0000
0000
1001
0000
0000
1010
0000
0000
1001
0000
,
0000
0000
1000
0000
0100
0000
MMMM
0000
0000
0000
0001
0100
0020
0000
1030
0100
,
0020
0000
0031
0100
0020
0000
1030
0100
0020
0000
0031
0001
0000
0001
0000
0001
,
1001
0000
0000
0000
0001
0000
0100
0000
0000
0010
1000
0100
0000
0010
0000
0001
0000
0000
0000
1000
0000
0000
0000
0000
0000
0000
0000
0000
0000
0000
0000
0000
,
M00M
M0M0
MM00
MMMM
0000
0000
0000
0000
MMMM
MM00
M0M0
M00M
0000
0000
0000
0000
MMMM
M00M
M00M
MMMM
0000
0000
0000
0000
MMMM
00MM
0M0M
M00M
0000
0000
0000
0000
,
M00M
0M0M
00MM
MMMM
0000
0000
0000
0000
0000
0000
0000
0000
0000
0000
0000
0000
0000
0000
0000
0000
0000
0000
0000
0000
0000
0000
0000
0000
0000
0000
0000
0000
,
0001
1000
0001
1000
0001
1000
0001
1000
0001
1000
0001
1000
0001
1000
0001
1000
,
0001
1000
0001
1000
0001
1000
0001
1000
0001
1000
0001
1000
0001
1000
0001
1000
,
0020
1030
0001
1000
0001
1000
0001
1000
0001
1000
0001
1000
0001
1000
0001
1000
,
0001
1000
0001
1000
0001
1000
0001
1000
0001
1000
0001
1000
0001
1000
0001
1000
,
0020
1030
0001
1000
0001
1000
0001
1000
0001
1000
0001
1000
0001
1000
0001
1000
,
0020
1030
0001
1000
0001
1000
0001
1000
0001
1000
0001
1000
0001
1000
0001
1000
,
0020
1030
0001
1000
0001
1000
0001
1000
0020
1030
0001
1000
0001
1000
0001
1000
,
0002
0103
0000
0000
0000
0000
0000
0000
,
0020
1030
0000
0000
0000
0000
0000
0000
,
0002
0103
0000
0000
0000
0000
0000
0000
,
0010
0010
0010
0010
1000
0001
0000
0000
,
1000
0100
1000
0100
1000
0000
0100
0010
0100
0010
0100
0000
0010
0001
0010
0000
,
0001
0100
0001
0100
0001
0000
0100
0010
0100
0010
0100
0000
0010
1000
0010
0000
,
1000
0001
1000
0001
1000
0000
0001
0010
0001
0010
0001
0000
1000
0100
1000
0000
,
0001
0100
0001
0100
0001
0000
0100
0010
0100
0010
0100
0000
0010
1000
0010
0000
,
0100
0001
0100
0001
0010
0000
0100
1000
0100
1000
0010
0000
0100
0001
1000
0000
,
0100
0010
0100
0010
0001
0000
0010
0100
0010
0100
1000
0000
0100
0010
0001
0000
,
0100
0010
0100
0010
1000
0000
0010
0100
0010
0100
0001
0000
0100
0010
1000
0000
,
0001
1000
0001
1000
0010
0000
1000
0001
1000
0001
0100
0000
0001
0000
1000
0000
,
0001
0100
0001
0100
0001
0100
0001
0100
0001
0100
0001
0100
0001
0100
0001
0100
,
0010
1000
0010
1000
0010
1000
0010
1000
0010
1000
0010
1000
0010
1000
0010
1000
,
0100
1000
0100
1000
0100
1000
0100
1000
0100
1000
0100
1000
0100
1000
0100
1000
,
0001
0010
0001
0010
0001
0010
0001
0010
0001
0010
0001
0010
0001
0010
0001
0010
,
0001
1000
0001
1000
0001
1000
0001
1000
0010
1000
0010
1000
0010
1000
0010
1000
,
0001
0100
0001
0100
0001
0100
0001
0100
0001
0010
0001
0010
0001
0010
0001
0010
,
0100
1000
0100
1000
0010
1000
0010
1000
0010
0100
0010
0100
0001
0100
0001
0100
,
0001
1000
0010
0100
0001
1000
0010
0100
0001
1000
0010
0100
0001
1000
0010
2000
,
0002
0000
0000
0000
0000
3000
0000
0000
,
0000
0003
0000
0000
0000
0000
0000
0000
0000
0000
0000
0000
0000
0000
0000
0000
;
