#TITLE:Witch Doctor #1;
#SUBTITLE:;
#ARTIST:Yahpp;
#TITLETRANSLIT:;
#SUBTITLETRANSLIT:;
#ARTISTTRANSLIT:;
#GENRE:;
#CREDIT:;
#MUSIC:Witch Doctor #1.ogg;
#BANNER:Witch Doctor #1-bn.png;
#BACKGROUND:Witch Doctor #1-bg.png;
#CDTITLE:;
#SAMPLESTART:74.849;
#SAMPLELENGTH:11.895;
#SELECTABLE:YES;
#OFFSET:-0.104;
#BPMS:0.000=122.000
,35.500=244.000
,36.500=122.000
,40.000=244.000
,41.000=122.000
,45.000=61.000
,47.000=122.000
,82.500=244.000
,83.500=122.000
,87.000=244.000
,88.000=122.000
,91.500=244.000
,92.500=122.000
,102.000=61.000
,110.000=122.000
;
#STOPS:96.500=0.492
,97.000=0.246
,97.500=0.123
,97.750=0.369
,138.000=0.492
,138.500=0.246
;
#BGCHANGES:;
#FGCHANGES:;

//--------------- dance-single - Pandemonium X ----------------
#NOTES:
     dance-single:
     Pandemonium X:
     Beginner:
     3:
     0,0,0,0,0:
0000
0000
0000
0000
,
0000
0000
0000
0000
,
0000
0000
0000
0000
,
0000
0000
0000
0000
,
0001
0000
1000
0000
,
0010
0000
0100
0000
,
0001
0000
0010
0000
,
0100
0000
0000
0000
,
1000
0000
0001
1000
,
0000
0000
0000
0000
0000
1000
0000
0001
,
0000
0001
0000
1000
,
0001
0100
0000
0010
,
0000
0100
0000
0001
,
0000
1000
0000
0100
,
0000
1000
0000
0010
,
0010
0100
0100
0002
,
0000
0000
0003
1001
,
0000
0000
0000
2000
,
0000
0000
3000
1001
,
0000
0000
0000
0100
,
0000
0000
0000
0000
0000
0000
0000
0010
,
0000
0000
0000
0000
,
0100
0000
0000
0000
,
0000
0010
0000
0010
0000
0010
0000
0010
,
0000
1001
0000
0000
0000
0000
0000
0000
,
0000
0000
0001
0000
,
1000
0000
0010
0000
,
0100
0000
0001
0000
,
0001
0000
0001
1000
,
0001
0000
1000
0000
,
1000
0000
0001
1000
,
0001
0000
0100
0000
,
0000
0000
0010
0000
,
0000
0000
1000
0000
,
0001
0000
0110
0000
,
0000
1000
0000
0000
0000
1000
0000
0000
,
0000
1000
0000
1000
0000
1000
0000
0000
,
0000
0001
0000
0000
0000
0001
0000
0000
,
0000
0001
0000
0001
0000
0001
0000
0000
,
0000
0100
0000
0000
0000
0100
0000
0000
,
0000
0100
0000
0100
0000
0100
0000
0000
,
0000
0010
0000
0000
0000
0010
0000
0000
,
0000
0010
0000
0010
0000
0010
0000
0000
,
0000
1001
0000
0000
0000
0000
0000
0000
;

//--------------- dance-single - Pandemonium X ----------------
#NOTES:
     dance-single:
     Pandemonium X:
     Easy:
     6:
     0,0,0,0,0:
0000
0000
0000
0000
,
0000
0000
0000
0000
,
0000
0000
0000
0000
,
0000
0000
0000
0000
,
0001
1000
0100
1000
,
0001
0100
0001
1000
,
0010
1000
0001
0010
,
0200
0000
0000
0000
,
1300
0100
1000
0010
,
0000
0100
0000
0001
0000
0010
0000
0100
,
0000
0011
0001
1000
,
0001
0200
0000
0310
,
1000
0000
0100
1000
0100
0000
1000
0010
,
1000
0000
0001
0100
0001
0000
0010
0001
,
0010
0000
0001
1000
0001
0000
0200
0000
,
0320
2030
3002
1003
,
1000
1000
1000
0001
,
0010
0100
1000
0001
,
0001
0001
0001
1000
,
0010
0100
0001
1000
,
0100
0000
0010
0000
0001
0000
0000
1000
,
0000
0100
0000
0010
0000
0001
0000
0000
,
1000
0100
0010
0001
,
0000
1100
0000
1100
0000
0011
0000
0011
,
0000
0000
0001
0000
1000
0000
0001
1000
0001
0000
0000
0000
0000
0000
0000
0000
,
1000
0000
1000
0000
1000
0000
0001
0001
,
0001
0000
1000
1000
1000
0000
0001
0001
,
0001
0000
1000
0001
,
0100
0001
0010
1000
,
0010
0001
1000
0001
,
0100
0001
1000
0100
,
0001
0100
1000
1000
,
1000
0010
0100
0100
,
0100
0001
0010
0010
,
0100
0000
0100
0000
1000
0001
1000
0001
,
0000
2000
0000
3010
0000
0200
0000
0301
,
0000
0020
0000
0230
0000
2000
0000
0000
,
3300
0200
0000
0310
0000
0002
0000
0103
,
0000
0020
0000
0230
0000
0002
0000
0000
,
0303
0200
0000
0301
0000
0020
0000
0130
,
0000
2000
0000
3002
0000
0020
0000
0033
,
0000
0002
0000
0013
0000
0200
0000
1300
,
0000
0002
0000
2003
0000
0020
0000
0000
,
0000
3030
0000
0000
0000
0000
0000
0000
;

//--------------- dance-single - Pandemonium X ----------------
#NOTES:
     dance-single:
     Pandemonium X:
     Medium:
     10:
     0,0,0,0,0:
0000
0000
0000
0000
,
0000
0000
0000
0000
,
0001
0100
0001
0100
1000
0100
1000
0100
,
0001
0100
1000
0100
0020
0000
0000
0000
,
0130
0001
0011
0000
0010
0100
1000
0000
,
0100
1000
1010
0000
0010
0100
0001
0000
,
1000
0100
0110
0000
0010
0001
0100
0000
,
0001
1000
0000
0001
1000
0000
0001
1000
0000
1000
0000
0001
1000
0000
0001
0000
,
1000
0000
0000
0000
0001
0000
0000
0000
0100
0010
0000
0010
1000
0000
0000
0000
,
0000
0000
0100
0000
0000
0000
0010
0000
0000
0000
0001
0010
0000
0010
0100
0000
,
0000
0000
0000
0000
0010
0000
0000
0000
0001
0000
0000
0000
1000
0010
0000
0010
,
0100
0000
0002
0000
0000
0000
0013
0100
,
1000
0000
0100
1000
0010
0000
0100
0001
,
0010
0000
0100
1000
0010
0000
0100
0001
,
0010
0000
0100
1000
0010
0000
0100
1000
,
0100
0000
0001
0000
1000
0000
0100
0000
0001
0000
0100
0000
1000
0000
0000
1000
,
0000
0000
1000
0000
0000
0000
0100
0000
1000
0000
0010
0000
0100
0000
0000
0100
,
0000
0000
0100
0000
0000
0000
0010
0000
1001
0000
0000
0000
0001
0000
0000
0001
,
0000
0001
0000
0010
0001
0100
0001
1000
,
0100
0000
0001
0000
0100
0000
1000
0000
0010
0000
0100
0000
0001
0000
0000
0100
,
0000
0010
0000
1000
0100
0010
0000
0001
,
0000
0010
0000
0000
0100
0000
0000
0000
1000
0000
0100
0000
0010
0000
0000
0000
,
0001
0000
0000
0010
0000
0000
0100
0000
0000
0000
1000
0000
0100
0000
0010
0000
,
0000
1001
0000
0101
0000
1001
0000
1010
,
0000
0000
1001
0000
0110
0000
1001
0110
1002
0000
0000
0000
0000
0000
0000
0000
,
0100
0000
0010
0000
1003
0000
0001
1000
,
0010
0000
1000
0001
0010
0000
0001
1000
,
0020
0000
0000
0000
0000
0000
0000
0000
0130
0000
0000
1000
0000
0000
0100
0000
,
0000
0100
0010
1000
0001
0010
0100
0010
,
0001
0000
1000
0000
0010
0000
1000
0000
0001
0000
0000
0010
0000
0000
0100
0000
,
0000
0000
0001
0000
0100
0000
0010
0000
0001
0010
0000
0100
1000
0000
0001
1000
,
0000
0010
0000
0100
0001
0000
1000
0000
0001
0000
0000
0100
0000
0000
1000
0000
,
0000
0000
0100
0000
0010
0000
1000
0000
0100
0000
0000
0001
0000
0000
0100
0000
,
0000
0000
1000
0000
0010
0000
0001
0000
0010
0000
0000
1000
0000
0000
0010
0000
,
0001
0000
0000
0010
0000
0000
1000
0000
1100
0000
0011
0000
1100
0000
0011
0000
,
0000
0001
0100
1000
0100
0010
1000
0001
,
0010
0100
0001
0100
2000
0002
0000
0000
,
3003
1000
0010
0001
0010
0100
0001
1000
,
0100
0010
1000
0010
0002
2000
0000
0000
,
3003
0001
0100
0010
1000
0001
0100
0010
,
1000
0001
0100
1000
0100
0002
0000
0000
,
0000
1003
0100
0010
0001
1000
0100
0010
,
0001
1000
0100
0010
0001
0200
0000
0000
,
0000
0310
0000
0000
0000
0000
0000
0000
;

//--------------- dance-single - Pandemonium X ----------------
#NOTES:
     dance-single:
     Pandemonium X:
     Hard:
     13:
     0,0,0,0,0:
0000
0000
0000
0000
,
0000
0000
0000
0000
,
0001
0100
0001
0100
0010
1000
0010
1000
,
0002
0203
2300
3020
0032
0000
0000
0000
,
1003
0000
0001
0100
0001
0000
1000
0000
0001
0000
1000
0100
1000
0000
0001
0000
,
1000
0000
0010
1000
0010
0000
1000
0000
0001
0000
0010
0001
0010
0000
0001
0000
,
1000
0000
0001
0100
0001
0000
1000
0000
0001
0000
1000
0010
1000
0000
0001
0000
,
1000
0100
0000
0010
0001
0000
1000
0100
0000
0010
0001
0000
0100
0010
1000
0001
,
0010
0000
0001
0100
0010
0000
0001
0000
0010
1000
0001
0010
0100
0000
2002
0000
,
0003
0000
3100
0000
1000
0010
0100
0000
1000
0000
0100
0001
1000
0100
0010
0000
,
0012
0000
0000
0000
1003
0000
0001
0010
1000
0000
0010
0000
0100
0010
0000
0100
,
1000
0000
2002
0000
0000
0003
3001
0100
,
0010
0000
0000
1010
0000
0000
1000
0100
1000
0001
1000
0001
0010
0000
0100
0000
,
1000
0000
0000
1001
0000
0000
0001
0010
0100
0010
0001
1000
0001
0000
0100
0000
,
0101
0000
0000
0011
0000
0000
0010
0100
1000
0100
1000
0001
1000
0001
0000
0010
,
0100
0000
0100
1000
0010
0100
0010
0100
0001
1000
0010
0100
0001
0000
0001
0100
,
0000
0100
0010
0000
1000
0100
1000
0000
0001
0000
1000
0000
1001
0000
0000
1010
,
0000
0000
1000
0100
0000
0100
0000
0000
0011
0000
0000
0000
1001
0000
1000
0100
,
0000
0100
0010
0000
0100
1000
0010
0000
0100
0000
0001
0000
1000
0100
0000
0010
,
0100
0000
1000
0001
0000
0100
0001
0000
1000
0001
0010
0100
1000
0000
0100
1000
,
0000
1000
0010
0000
0100
0001
1000
0000
0001
0000
0020
0000
0000
0000
0130
0000
,
0010
0001
0000
0010
0100
0000
0010
0001
1000
0000
0010
0000
0200
0000
0000
0000
,
0301
0000
1000
0001
0000
0010
0100
0000
0010
0001
0100
0000
0010
0000
2000
0000
,
0000
3002
0000
0203
0000
2300
0000
3020
,
0000
0000
0031
0000
1001
0000
0110
0110
2002
0000
0000
0000
0000
0000
3000
0000
,
1003
0000
0001
0000
0101
0000
0001
1000
,
1100
0000
1000
0001
0101
0000
0001
1000
,
1200
0000
0000
0000
0000
0000
0000
0000
0310
0000
0000
0010
0000
0000
0010
0000
,
0000
0010
0001
0100
0010
1000
0001
0010
,
1000
0000
0010
0000
0001
0000
1000
0000
0010
0000
0000
0010
0000
0000
0010
0000
,
0000
0000
0010
0000
0100
0000
0001
0000
1000
0100
0000
1000
0010
0000
0100
0001
,
0000
0010
0000
0100
0010
0000
0001
0000
0100
0000
0000
0001
0000
0000
0010
0000
,
0000
0000
0100
0000
0010
0000
0001
0000
0100
0000
0000
0010
0000
0000
1000
0000
,
0000
0000
0100
0000
1000
0000
0010
0000
0100
0000
0000
0001
0000
0000
0010
0000
,
0100
0000
0000
1000
0000
0000
0001
0000
1001
0000
1001
0000
0110
0000
1000
0001
,
1000
0001
1000
0000
0001
0100
1000
0000
0100
0000
0001
0000
0010
1000
0010
0000
,
0001
0000
0100
0000
1000
0100
0001
0000
0010
0000
0002
0000
0000
0000
0000
0000
,
0003
0000
1001
0000
1000
0010
0001
0000
0010
0000
1000
0000
0100
0001
0100
0000
,
1000
0000
0010
0000
0001
0010
1000
0000
0100
0000
0020
0000
0100
0000
0130
0010
,
0001
1000
0001
0100
0001
0100
0001
0000
1000
0000
0100
1000
0100
1000
0100
0000
,
1000
0000
0100
0010
0100
0010
0001
0010
0100
1000
0002
0000
0000
0000
0000
0000
,
0003
0000
0010
0100
1000
0010
1000
0000
0001
0000
0010
0100
0010
0001
0100
0000
,
0001
0000
0100
0010
0100
0010
0100
0001
1000
0100
0020
0000
0001
0000
0130
0000
,
0000
2002
0000
0000
0000
0000
0000
3000
,
0000
0000
0000
0003
0000
0000
0000
0000
;

//--------------- dance-single - Pandemonium X ----------------
#NOTES:
     dance-single:
     Pandemonium X:
     Challenge:
     17:
     0,0,0,0,0:
0000
0000
0000
0000
,
0000
0000
0000
0000
,
0002
0103
0020
1030
0002
0103
0020
1030
,
0002
0013
0200
2300
0002
0000
0000
3003
,
1000
0010
1000
0100
0010
0000
11MM
0000
0001
0010
0100
0010
0001
0000
11MM
0000
,
0001
0100
0001
1000
0100
0000
MM11
0000
1000
0010
1000
0001
0010
0000
1MM1
0000
,
1000
0100
0001
0100
0010
0000
11MM
0000
1000
0010
0001
0010
0100
0000
1MM1
0000
,
1000
0010
M000
0010
0001
0000
0001
0010
000M
0010
1000
0000
1000
0100
M100
0001
,
1000
0010
0001
0010
0100
0000
1001
0000
0001
0010
1000
0010
0001
0000
MMMM
0000
,
0000
0000
0001
0100
1000
0100
0010
0000
1001
0000
1000
0100
0001
0100
1000
0000
,
MMMM
0000
0000
0000
1001
0001
0100
0000
1001
0000
0110
0000
1000
0100
0000
M100
,
0001
0000
1000
0000
2002
0000
0000
0000
0000
0000
0000
0003
3001
0000
1000
0000
,
0010
0000
1000
0000
1100
0000
0010
1000
10M0
0100
0010
0001
1000
0000
0001
0100
,
0001
0000
0100
0000
0101
0000
0100
0001
0M01
0010
0100
1000
0001
0000
1000
0001
,
0100
0000
0001
0000
1000
0000
0010
1000
10M0
0100
1000
1M00
0010
0001
0010
0100
,
0001
0000
0010
0000
1000
0000
0010
0000
0100
0000
0010
0000
0001
0000
0100
0000
0001
0000
1000
0000
0001
0100
0001
0000
1000
0000
1000
0000
0010
0000
0100
0000
,
0001
0001
0010
0100
0100
1000
0001
0001
1000
0100
0010
0001
1000
0010
0000
0101
,
0000
0001
0010
0100
0000
1100
0000
0000
1001
0000
0000
0000
0001
0001
0100
0010
,
1000
1000
0100
0010
0010
0001
1000
1000
0001
0010
0100
1000
0001
0100
0000
1010
,
0000
1000
0100
0010
0000
0011
0000
0000
0001
0010
0100
1000
0001
0001
0010
0100
,
1000
1000
0001
0100
0010
0010
0100
0001
1000
1000
MMMM
0000
0000
0000
1000
1000
,
0100
0010
0001
0001
1000
0010
0100
0100
0010
1000
0001
0001
MMMM
0000
0000
0000
,
0001
0001
0100
0010
1000
1000
0010
0100
0001
0001
0010
0100
1000
1000
MMMM
0000
,
0000
0000
0001
0100
0020
0000
0130
0001
0020
0000
0031
0100
0020
0000
0130
0001
,
0020
0000
0000
0000
0000
0000
0000
0000
0000
0000
0000
0000
0000
0000
0000
0000
0030
0000
0000
0000
0000
0000
0000
0000
22M0
0000
0000
0000
0000
0000
3300
0000
0000
0000
0000
0000
MMMM
0000
0000
0000
0000
0000
0000
0000
0000
0000
0000
0000
2002
0000
0000
0000
0000
0000
3003
0000
0000
0000
0000
0000
MMMM
0000
0000
0000
0000
0000
0000
0000
0000
0000
0000
0000
0220
0000
0000
0330
MMMM
0000
0000
0000
0000
0000
0000
0000
2002
0000
0000
3003
0000
0000
0000
MMMM
0000
0000
0000
0000
2002
0000
0000
0000
0000
0000
3003
0000
0000
0000
0000
0000
0000
0000
0000
0000
0000
0000
0000
0000
0000
0000
0000
0000
2000
3000
0000
0000
0000
0000
0000
0000
0000
0000
0000
0000
0000
0000
0000
0000
0000
0000
0000
0000
0000
0000
0000
0000
0002
0003
0000
0000
0000
0000
0000
0000
0000
0000
0000
0000
0002
0003
0000
0000
0000
0000
0000
0000
0000
0000
0000
0000
0200
0300
0000
0000
0000
0000
0000
0000
0000
0000
0000
0000
0001
0000
0000
0000
0000
0000
0000
0000
0000
0000
0000
0000
,
0200
0000
0000
0000
0000
0000
0000
0000
0000
0000
0000
0000
0020
0030
0000
0000
0000
0000
0000
0000
0000
0000
0000
0000
0000
0000
0000
0000
0000
0000
0000
0000
0000
0000
0000
0000
0002
0003
0000
0000
0000
0000
0000
0000
0000
0000
0000
0000
0000
0000
0000
0000
0300
0000
0000
0000
0000
0000
0000
0000
0000
0000
0000
0000
0000
0000
0000
0000
0000
0000
0000
0000
0000
0000
0000
0000
0000
0000
0000
0000
0000
0000
0000
0000
0000
0000
0000
0000
0000
0000
0000
0000
0000
0000
0000
0000
1001
0000
0000
0000
0000
0000
0000
0000
0000
0000
0000
0000
0000
0000
0000
0000
0000
0000
0001
0000
0000
0000
0000
0000
0100
0000
0000
0000
0000
0000
0000
0000
0000
0000
0000
0000
0000
0000
0000
0000
0000
0000
0100
0000
0000
0000
0000
0000
10M0
0000
0000
0000
0000
0000
0100
0000
0000
0000
0000
0000
0001
0000
0000
0000
0000
0000
0010
0000
0000
0000
0000
0000
1M00
0000
0000
0000
0000
0000
0010
0000
0000
0000
0000
0000
0001
0000
0000
0000
0000
0000
0000
0000
0000
0000
0000
0000
,
10M1
0000
0000
1000
0010
0000
0000
0010
M001
0010
1000
0100
00M1
0100
1000
0000
0M01
0000
0000
0010
1000
0000
0000
0010
M001
0100
1000
0100
00M1
1000
0100
2000
,
0M02
0000
0000
0000
0000
0000
0000
0000
0000
0000
0000
0000
0000
3000
0000
0000
1003
0000
0100
0000
1000
0000
0100
0000
0010
0000
0001
0000
0010
0000
0001
0000
,
0100
0001
0100
0001
1000
0010
1000
0010
0100
0000
1000
0100
0000
0001
0000
0010
,
0000
1000
0010
0001
1000
0000
M11M
0000
0001
1000
0001
1000
0100
1000
0100
1000
,
0010
1000
0010
1000
0001
0100
0001
0100
0001
0010
0000
001M
1000
0000
1000
0010
,
0000
M010
0000
M010
0001
0000
1001
0000
1000
0100
1000
0100
0010
0001
0010
0001
,
0100
0001
0100
0001
1000
0010
1000
0010
0100
0010
0100
0010
0100
0001
0100
0001
,
0100
0010
0100
0010
1000
0010
1000
0010
1000
0001
1000
0001
1000
0000
M11M
0000
,
0001
0000
0000
0000
0000
0000
1000
0000
0000
0000
0000
0000
0001
0000
0000
0000
0000
0000
1000
0000
0000
0000
0000
0000
0001
0000
0000
0000
0000
0000
0000
0000
0000
0000
0000
0000
M11M
0000
0000
0000
0000
0000
0000
0000
0000
0000
0000
0000
2002
0000
0000
3003
0000
0000
MMMM
0000
0000
0000
0000
0000
0220
0000
0000
0000
0000
0000
0330
0000
0000
MMMM
0000
0000
2002
0000
0000
0000
0000
0000
0000
0000
3003
0000
0000
0000
0110
0000
0000
0000
0000
0000
0000
0000
0000
0000
0000
0000
,
1001
0000
0000
0000
0000
0000
0000
0000
0202
0303
0000
0000
1000
0000
0000
0000
0202
0303
0000
0000
1000
0000
0000
0000
0202
0303
0000
0000
1000
0000
0000
0000
0202
0303
0000
0000
0000
0000
0000
0000
2200
3300
0000
0000
0001
0000
0000
0000
2200
3300
0000
0000
0001
0000
0000
0000
2200
3300
0000
0000
0001
0000
0000
0000
,
2200
3300
0000
0000
0000
0000
0000
0000
0202
0303
0000
0000
1000
0000
0000
0000
0202
0303
0000
0000
1000
0000
0000
0000
0202
0303
0000
0000
1000
0000
0000
0000
0202
0303
0000
0000
2000
0000
0000
0000
0002
0000
0000
0000
0000
0000
0000
0000
0000
0000
0000
0000
0000
0000
0000
0000
0000
0000
0000
0000
0000
0000
0000
0000
,
3003
0000
0000
0000
0000
0000
0000
0000
2020
3030
0000
0000
0001
0000
0000
0000
2020
3030
0000
0000
0001
0000
0000
0000
2020
3030
0000
0000
0001
0000
0000
0000
2020
3030
0000
0000
0000
0000
0000
0000
0022
0033
0000
0000
1000
0000
0000
0000
0022
0033
0000
0000
1000
0000
0000
0000
0022
0033
0000
0000
1000
0000
0000
0000
,
0022
0033
0000
0000
0000
0000
0000
0000
2020
3030
0000
0000
0001
0000
0000
0000
2020
3030
0000
0000
0001
0000
0000
0000
2020
3030
0000
0000
0001
0000
0000
0000
2020
3030
0000
0000
0002
0000
0000
0000
2000
0000
0000
0000
0000
0000
0000
0000
0000
0000
0000
0000
0000
0000
0000
0000
0000
0000
0000
0000
0000
0000
0000
0000
,
3003
0000
0000
0000
0000
0000
0022
0033
0000
0100
0000
0000
0022
0033
0000
0100
0000
0000
0022
0033
0000
0100
0000
0000
0022
0033
0000
0100
0000
0000
0022
0033
0000
1000
0000
0000
0022
0033
0000
1000
0000
0000
0022
0033
0000
1000
0000
0000
,
0022
0033
0000
1000
0000
0000
0022
0033
0000
0100
0000
0000
0022
0033
0000
0100
0000
0000
0022
0033
0000
0100
0000
0000
0022
0033
0000
0200
0000
0000
0020
0000
0000
0000
0000
0000
0000
0000
0000
0000
0000
0000
0000
0000
0000
0000
0000
0000
,
0330
0000
0000
0000
0000
0000
2200
3300
0000
0010
0000
0000
2200
3300
0000
0010
0000
0000
2200
3300
0000
0010
0000
0000
2200
3300
0000
0010
0000
0000
2200
3300
0000
0001
0000
0000
2200
3300
0000
0001
0000
0000
2200
3300
0000
0001
0000
0000
,
2200
3300
0000
0001
0000
0000
2200
3300
0000
0010
0000
0000
2200
3300
0000
0010
0000
0000
2200
3300
0000
0010
0000
0000
2200
3300
0000
0020
0000
0000
0200
0000
0000
0000
0000
0000
0000
0000
0000
0000
0000
0000
0000
0000
0000
0000
0000
0000
,
0330
2002
0000
0000
0000
0000
0000
3000
,
0000
0000
0000
0003
0000
0000
0000
0000
;
