#TITLE:WE'RE BACK!!;
#SUBTITLE:;
#ARTIST:Zekk;
#TITLETRANSLIT:;
#SUBTITLETRANSLIT:;
#ARTISTTRANSLIT:;
#GENRE:;
#CREDIT:;
#MUSIC:WE'RE BACK!!.ogg;
#BANNER:WE'RE BACK!!.png;
#BACKGROUND:WE'RE BACK!!-bg.png;
#CDTITLE:;
#SAMPLESTART:95.968;
#SAMPLELENGTH:10.412;
#SELECTABLE:YES;
#OFFSET:0.032;
#BPMS:0.000=185.000;
#STOPS:;
#BGCHANGES:;
#FGCHANGES:;

//--------------- dance-single - ----------------
#NOTES:
     dance-single:
     :
     Beginner:
     6:
     0,0,0,0,0:
0000
0000
0000
0000
,
0000
0000
0000
0000
,
0000
0000
0000
0000
,
0000
0000
0000
0000
,
0000
0000
0000
0000
,
0000
0000
0000
0000
,
0001
0001
0001
0000
,
1000
1000
1000
0000
,
0001
0001
0001
0000
,
0200
0000
0300
0000
,
0010
0010
0010
0000
,
0100
0100
0100
0000
,
0001
0001
0001
1000
,
0001
0001
0001
0000
,
1000
1000
1000
0000
,
0010
0010
0010
0000
,
0100
0100
0100
0100
,
0100
0000
0000
0000
,
0010
0000
0000
0000
,
0000
0000
0000
0000
,
1000
0000
0000
0000
,
0000
0000
0000
0000
,
0100
0000
0000
0000
,
0000
0000
0000
0000
,
0010
0000
0000
0000
,
0000
0000
0000
1001
,
0001
0000
0000
0000
,
1000
0000
0000
0000
,
0010
0000
0000
0000
,
0100
0000
0001
0000
,
0010
0000
0100
0000
,
1000
0000
0001
0000
,
0100
0000
0000
0000
,
0010
0010
1001
0000
,
1000
0000
0000
1000
0000
0000
0000
0000
,
0001
0000
0000
0001
0000
0000
0000
0000
,
0010
0000
0010
0000
,
0100
0000
1000
1001
,
0001
0000
0000
0000
,
1000
0000
0000
0000
,
0010
0010
0010
0010
,
0010
0000
0000
0000
,
0100
0000
0000
0100
0000
0000
0000
0000
,
0010
0000
0000
0010
0000
0000
0000
0000
,
1000
0000
0000
1000
0000
0000
0000
0000
,
0001
0000
1000
0000
,
0001
0000
0000
0000
,
0010
0000
0000
0000
,
0100
0100
0100
0100
,
0100
0000
0000
0000
,
1000
0000
0001
0000
,
0100
0100
1001
0000
,
1000
0000
0001
0000
,
0010
0010
0010
0000
,
0001
0000
1000
0000
,
0100
0100
1001
0000
,
0020
0000
0000
0000
,
0130
0000
0000
0000
,
1001
0000
0000
0000
,
0000
0000
0000
0000
,
0001
0000
0000
0000
,
0000
0000
0000
0000
,
1000
0000
0000
0000
,
0000
0000
0000
0000
,
0100
0000
0000
0000
,
0110
0000
1001
0000
,
0001
0000
0000
0000
,
1000
0000
0000
0000
,
0010
0000
0000
0000
,
0100
0000
0000
0000
,
0001
0000
1000
0000
,
0100
0000
0010
0000
,
0001
0000
0000
0000
,
1000
1000
1001
0110
,
0001
0001
0001
0001
,
0001
0001
0001
0000
,
1000
1000
1000
1000
,
1000
1000
1000
0000
,
0010
0000
0100
0000
,
0001
0000
1000
0001
,
1000
0000
0000
0000
,
0110
0000
0000
0000
,
0100
0100
0100
0100
,
0100
0100
0100
0000
,
0010
0010
0010
0010
,
0010
0010
0010
0000
,
1001
0000
0001
0000
,
1000
0000
0100
0000
,
0010
0000
0000
0000
,
0100
0100
0100
0000
,
1001
0000
0000
0000
,
0001
0000
0000
0000
,
1000
0000
0000
0000
,
0100
1000
0010
1000
,
0100
0000
0000
0000
,
0010
0000
0000
0000
,
0001
0000
0100
0000
,
0020
0000
0000
0030
,
1001
0000
0000
0000
,
0110
0000
0000
0000
,
1001
0000
0110
0000
,
0002
0000
0000
0000
,
1003
0000
0000
0000
;

//--------------- dance-single - ----------------
#NOTES:
     dance-single:
     :
     Easy:
     9:
     0,0,0,0,0:
0000
0000
0000
0000
,
0000
0000
0000
0000
,
0000
0000
0000
0000
,
0000
0000
0000
0000
,
0000
0000
0000
0000
,
0000
0000
0000
0000
,
0001
0100
0001
0001
,
1000
0100
1000
1000
,
0100
0010
0001
1000
,
0001
0000
1000
0010
1000
0000
1001
0000
,
0101
0001
0001
0100
,
0010
0010
0100
0010
,
1000
0000
1000
0000
1000
0100
0010
0001
,
1000
0000
1000
0000
0001
0001
0001
0000
,
0100
0100
0010
1000
,
0100
0100
0010
0100
,
1000
1000
1000
1000
,
0002
0000
0000
0000
0000
0003
0000
0000
,
0100
0001
0010
0000
,
0100
0000
0010
0000
,
0100
1000
0010
0000
,
0100
0000
0001
0000
,
1000
0010
0100
0000
,
1000
0000
0100
0000
,
0001
0100
0010
0000
,
0100
0100
0100
0000
,
0001
0001
1000
0100
,
0010
0010
0100
0010
,
0001
0001
0100
0010
,
1000
0000
0000
0001
0000
0000
0010
0000
,
0001
0000
0000
0100
0000
0000
0010
0000
,
1000
0000
0000
0100
0000
0000
0010
0100
,
2000
0000
0000
0000
,
3001
0000
0100
0001
0010
0000
1100
0000
,
0200
0000
0000
0310
0000
0000
0100
0000
,
2000
0000
0000
3010
0000
0000
0100
0000
,
0001
0000
0010
0001
0010
0000
0010
0000
,
0100
0000
0010
0000
0001
0001
0001
0000
,
1000
0001
0100
0001
,
1000
0010
0100
0001
,
1000
1000
1000
1000
,
0102
0100
0103
0000
,
1000
0001
0100
0000
,
0001
1000
0010
0000
,
1000
0100
0010
0100
,
1000
0000
0001
0000
1000
1000
1000
0000
,
0001
0100
0001
0010
,
0001
1000
0010
1000
,
0100
0100
0100
0100
,
2002
0000
0000
3003
,
0001
0000
1000
0000
0010
1000
0000
0100
,
0010
0010
2002
3003
,
0001
1000
0010
1000
,
0100
0100
0100
0000
,
0010
0000
0001
0000
0100
0001
0000
0010
,
0100
0100
2002
3003
,
1000
0100
0010
0001
,
2000
0000
0000
3010
,
0100
0000
0010
0000
,
1000
1000
1000
0000
,
0010
0000
0100
0000
,
0001
0001
0001
0000
,
1000
0000
0100
0000
,
0010
0000
0001
0010
,
0200
0000
0000
0300
,
0010
0001
0100
0010
,
1000
1000
1000
1000
,
1000
1001
0110
0000
,
0001
0001
0001
0001
,
0001
1001
0110
0000
,
0001
0100
0010
0100
,
0001
0010
0100
1000
,
0200
0000
0000
0000
,
0310
0000
0100
0010
0001
0000
1100
0000
,
0001
0100
1000
0100
,
0001
0101
1010
1000
,
0001
0010
1000
0010
,
0001
0011
1100
0100
,
1000
0010
0100
1000
,
0100
0000
0001
0000
1000
0000
0100
0010
,
0002
0000
0000
0000
,
0013
0000
0100
0000
0010
0010
0010
0000
,
0100
0010
0001
0010
,
1000
1010
0011
0001
,
0100
0010
0100
1000
,
0100
1100
0101
0001
,
1001
1000
0001
0010
,
0001
0000
1000
0000
0100
0000
0010
0100
,
0020
0000
0000
0000
,
0031
0000
0000
0000
,
1001
0000
0000
0000
,
0001
0100
0001
1000
,
0100
0010
0100
1000
,
1001
0110
1001
0110
,
0001
0100
0010
0010
,
0100
0001
1000
1000
,
0001
0010
0100
1000
,
0002
0000
0000
0103
,
1010
0000
0000
0000
,
0101
0000
0000
0000
,
0011
0000
1100
0000
,
0020
0000
0000
0000
,
0130
0000
0000
0000
;

//--------------- dance-single - ----------------
#NOTES:
     dance-single:
     :
     Medium:
     13:
     0,0,0,0,0:
0000
0000
0000
0000
,
0000
0000
0000
0000
,
0000
0000
0000
0000
,
0000
0000
0000
0000
,
0000
0000
0000
0000
,
0000
0000
0000
0000
,
1000
0000
0001
0000
0100
0000
0001
0010
,
0100
0000
0010
0000
0100
0000
1000
0100
,
0010
0010
0100
0010
,
0001
1000
0001
0100
1000
0000
0101
0000
,
0001
0000
0001
0000
1000
0000
0100
0010
,
0100
0000
0100
0000
1000
0000
0100
0010
,
0001
0000
0001
0000
0001
1000
0010
1000
,
0100
0000
0100
0000
0100
0010
1001
0000
,
1000
0000
1000
0000
0010
0000
0100
0010
,
0100
0000
0100
0000
1000
0000
0100
0010
,
0100
0100
0100
0100
,
2002
0000
3003
0000
,
0002
0000
0203
0000
0301
0000
0100
0010
,
0000
0100
0001
0000
1000
0000
0001
0000
,
2000
0000
3020
0000
1030
0000
0010
0100
,
0000
0010
1000
0000
0001
0000
1000
0000
,
0200
0000
0320
0000
0031
0000
0010
0001
,
0000
0001
0010
0000
0100
0000
1000
0000
,
0020
0000
2030
0000
3100
0000
0010
0100
,
0000
0100
0010
0001
1000
0000
0110
0000
,
0001
0001
1000
0001
,
0100
0100
0010
1000
,
0100
0100
0010
0001
,
0100
0000
0001
1000
0000
0100
0010
0000
,
0100
0000
1000
0010
0000
0100
0001
0000
,
0010
0000
0100
0010
0000
0100
1000
0010
,
0200
0000
0000
0000
,
1300
0100
0001
1000
0100
0000
0011
0000
,
1100
0000
0100
1000
0000
0100
0010
0001
,
1000
0000
0010
1000
0000
0010
0100
0001
,
0010
0000
0000
0000
0001
0000
1000
0000
0100
0000
0000
0100
0000
0000
0100
0000
,
0010
0000
0100
0000
0010
0010
0011
0000
,
0001
0010
0001
0100
0000
0010
1000
0100
,
0010
0100
1000
0001
0000
1000
0010
0000
,
0100
0010
0100
0010
0100
0001
0010
0100
,
2000
0100
3100
0011
,
0001
0000
0000
0000
0100
0000
0000
0000
0010
0000
0000
0010
0000
0000
0010
0000
,
0100
0000
0000
0000
0001
0000
0000
0000
1000
0000
0000
0100
0000
0000
0010
0000
,
0100
0000
0000
0000
1000
0000
0000
0000
0100
0000
0000
0100
0000
0000
0100
0000
,
0000
0000
0010
0000
0000
0001
0000
0000
0100
0000
0100
0000
0110
0000
0000
0000
,
0100
0001
0010
0100
,
0010
0001
0100
0010
0000
0100
0001
1000
,
0100
0010
0100
0010
0100
0010
0001
1000
,
0020
0000
0000
0030
,
0100
0000
0000
0000
0001
0000
0000
0000
1000
0001
1000
0000
0000
0000
0001
0000
,
0100
0100
2002
3003
,
1000
0001
0000
0000
0010
0000
0000
0000
0001
1000
0000
0000
0010
0000
0000
0000
,
0100
0000
0100
0010
0000
0010
1000
0000
0000
0001
0000
0000
,
1000
0000
0000
0000
0010
0000
0000
0000
0100
0010
0100
0000
0010
0000
0100
0000
,
0010
0010
2002
3003
,
1000
0100
0010
0001
1000
0100
0010
0001
,
0100
0100
0001
0010
0100
0000
0011
0000
,
2000
0000
3020
0000
,
0100
1000
0130
0000
,
0020
0000
0230
0000
,
0001
0000
0010
0000
0301
0000
0001
1000
,
0001
0010
0001
0100
,
0010
0000
1000
0000
0100
0000
0010
0100
,
0020
0000
0000
0000
,
0130
0010
0001
1000
0100
0100
1000
0000
,
1002
1000
1000
1000
,
1000
0000
0103
0000
1001
0000
1000
0001
,
2000
0001
0001
0001
,
0001
0000
3010
0000
1001
0000
0001
0100
,
0010
0010
0010
0000
1000
0000
0010
0000
,
0200
0000
0301
0000
0020
0000
0130
0010
,
0002
0000
0000
0000
,
1003
1000
1000
0100
0001
0000
1100
0000
,
0001
0010
0001
0100
0001
0010
0001
0100
,
0001
0010
0100
0000
1100
0000
1000
0001
,
1000
0100
1000
0010
1000
0100
1000
0010
,
1000
0100
0010
0000
0010
0010
1001
0000
,
0001
1000
0010
1000
0001
0010
0001
1000
,
0100
0000
0000
0000
0010
0000
0000
0100
0000
0000
1000
0000
0010
0000
1000
0000
,
0002
0000
0000
0000
,
1003
0000
0001
0100
0000
0001
0010
0000
0100
0000
1000
0000
1001
0000
0000
0000
,
1000
0010
0100
0010
1000
0010
0100
0010
,
1000
0100
0010
0000
0001
0000
0001
1000
,
0001
0100
0010
0100
0001
0010
0001
0100
,
0010
0100
0001
0000
1000
1000
1001
0000
,
1000
0001
0100
0001
0010
0001
1000
0010
,
0100
0000
0010
0000
1000
0000
0000
0100
0000
0000
1000
0000
0010
0000
0100
0000
,
0002
0000
0000
0000
,
0013
0000
0000
0100
0000
0000
0010
0000
0000
0001
0000
0000
1001
0000
0000
0000
,
0220
0000
0000
0330
,
0001
0000
0100
0000
0010
0000
1000
0000
0001
0000
0000
0001
0000
0000
0001
0000
,
1000
0100
0010
0001
0010
0100
0010
0001
,
0200
2300
3200
0302
,
1003
0000
0010
0000
1000
0000
0001
0000
0010
0000
0000
0100
0000
0000
0010
0000
,
0100
0000
1000
0000
0001
0000
0100
0000
0010
0000
0000
0100
0000
0000
0010
0000
,
1000
0100
0010
0001
0010
0100
0010
0001
,
1000
0100
0001
0100
0010
0001
0100
0000
,
1020
0100
1000
0130
,
2001
0010
0100
3010
,
0201
0310
2100
3010
,
1000
1000
0010
0100
0001
0001
0100
0010
,
1001
1000
0000
0000
0000
0000
0000
0000
;

//--------------- dance-single - ----------------
#NOTES:
     dance-single:
     :
     Hard:
     16:
     0,0,0,0,0:
0000
0000
0000
0000
,
0000
0000
0000
0000
,
0000
0000
0000
0000
,
0000
0000
0000
0000
,
0000
0000
0000
0000
,
0000
0000
0000
0000
,
1000
0000
0001
0000
0100
0000
0001
0000
1000
0000
0100
0010
0001
0000
1000
0000
,
0001
0000
1000
0000
0010
0000
1000
0000
0001
0000
0010
0100
1000
0000
0001
0000
,
1000
0000
0010
0000
0100
0000
0001
0000
0010
0000
0100
1000
0100
0000
1000
0000
,
0001
0100
0001
0100
0001
0000
1000
0000
1100
0000
0000
0000
0021
0000
0000
0000
,
0130
0000
0100
0000
0010
0000
0100
1000
,
0010
0000
0010
0000
0100
0000
0010
0100
,
0001
0000
0001
0000
0001
0010
0100
0010
,
0001
0000
0001
0000
0001
0010
0012
0000
,
0103
0000
0100
0000
0010
0000
0100
0001
,
0010
0000
0010
0000
0100
0000
0010
0001
,
1000
1000
1000
1000
,
0102
0000
0000
0000
0000
0000
0000
0000
1003
0100
1000
0000
1001
0000
0000
0000
,
0001
0000
0000
0001
1000
0000
0000
0000
0100
0000
0000
0000
0010
0000
0002
0000
,
0000
0013
0100
0010
0100
1000
0001
0000
,
1000
0000
0000
1000
0001
0000
0000
0000
0010
0000
0000
0000
0100
0000
2000
0000
,
0000
0000
3100
0010
0100
0000
0010
0000
0001
0000
0100
0000
0001
0000
1000
0000
,
0010
0000
0000
0010
1000
0000
0000
0000
0001
0000
0000
0000
0010
0000
0200
0000
,
0000
1300
0001
1000
0001
0010
0001
0000
,
0010
0000
0000
0010
0100
0000
0000
0000
0010
0000
0000
0000
0001
0000
2000
0000
,
0000
0000
3010
0000
0100
0000
0010
0000
0100
0000
0000
0000
1001
0000
0001
0100
,
0001
0001
1000
0001
0010
0000
0100
1000
,
0001
0001
0100
0001
1000
0000
0010
1000
,
0100
0100
1000
0100
0010
0000
0100
1000
,
0002
0000
1000
1003
0000
0100
1000
0010
,
0100
0001
0010
0002
0000
1003
0100
0010
,
0100
1000
0010
0200
0000
0310
1000
0002
,
2000
0000
0000
3003
,
1000
0100
1000
0100
1000
0000
0010
0000
0100
0000
0000
0000
1001
0000
0000
0000
,
0002
0000
1003
1100
0000
0100
0010
0100
,
2000
0000
3001
0101
0000
0100
0001
0010
,
0200
0000
0000
0000
0310
0000
0110
0000
0100
0000
0000
0100
0000
0000
0100
0000
,
1000
0000
0001
0100
0010
0100
2001
0000
,
3100
0010
0001
1000
0000
0010
1000
0001
,
0010
0001
1000
0100
0000
0010
0100
1000
,
0010
1000
0001
0100
0010
1000
0001
0010
,
0100
1000
0100
0010
0100
1000
0001
0000
,
0201
0000
0000
0000
0010
0000
0000
0000
0001
0000
0000
0301
0000
0000
1000
0000
,
1020
0000
0000
0000
0100
0000
0000
0000
1000
0000
0000
1030
0000
0000
0001
0000
,
1002
0000
0000
0000
0010
0000
0000
0000
1000
0000
0000
1003
0000
0000
0100
0000
,
0000
0000
0010
0000
0000
0010
0000
0000
0001
0000
1000
0000
2001
0000
0000
0000
,
3001
0100
0001
1000
0100
1000
0001
1000
,
0100
1000
0010
0200
0000
0301
0010
0100
,
1000
0000
0001
0000
1000
0000
0001
0000
0001
0010
0001
0010
0100
1000
0100
1000
,
0002
0000
0000
0003
,
1000
0000
0000
0000
1000
0000
0000
1000
0010
0100
0010
0000
1000
0000
0001
0000
,
0100
0000
0000
0000
0100
0000
0001
2000
0002
0000
0000
0000
3003
0000
0000
0000
,
0001
0010
0001
0000
0010
0100
0000
0100
1000
0001
1000
0000
0001
0100
0000
0100
,
0001
0000
0000
0000
0010
0000
0000
0000
0100
0000
0000
0000
1000
0000
0000
0000
0001
0000
0000
0000
1000
0000
0000
0000
0100
0000
0000
0000
0000
0000
0000
0000
0000
0000
0000
0000
1000
0000
0000
0000
0000
0000
0001
0000
0000
0010
0000
0000
,
0001
0000
0000
0000
0001
0000
0000
0001
0010
0001
0100
0000
0001
0000
1000
0000
,
0010
0000
0000
0000
0010
0000
1000
0002
2000
0000
0000
0000
3003
0000
0000
0000
,
1000
0100
1000
0100
0010
0100
0010
0001
0010
0001
1000
0001
0100
0001
0100
0010
,
2000
3200
0320
0032
0023
0230
2300
0000
,
3010
0000
0100
0000
,
0001
0002
1003
0000
,
0001
0000
0010
0000
,
0100
0200
0310
0000
,
0001
0010
0001
1000
,
0100
0000
1000
0000
0010
0000
0100
0001
,
2000
0000
0000
3000
,
0001
0010
1000
0010
0001
0100
1010
0000
,
0001
0100
0001
0010
0100
0010
0001
0100
,
0010
0100
0002
0000
2003
0000
3100
0010
,
0100
1000
0010
0100
0010
1000
0100
0010
,
0100
1000
0002
0000
2003
0000
3100
0010
,
0001
1000
0010
1000
0001
0010
0100
1000
,
0001
1000
0010
1000
0001
1000
0100
0010
,
0002
0010
0100
1003
,
0001
0010
0001
0010
0100
0000
1000
0000
1001
0000
0000
0000
0110
0000
0000
0000
,
0001
0001
1000
1000
0001
0100
1000
0100
,
0001
0010
0200
0000
1300
0000
0001
0010
,
0100
0100
0010
0010
0001
0100
1000
0100
,
0010
1000
0002
0000
1003
0001
2001
0000
,
3100
0010
0001
1000
0010
0100
1000
0100
,
0001
0000
1000
0000
0100
0000
0000
1000
0000
0000
0001
0000
1000
0000
0010
0000
,
0200
0001
0010
0301
,
0001
0000
1000
0001
0000
1000
0001
0000
0010
0100
0010
0000
1001
0000
0000
0000
,
0001
0001
1000
1000
0100
0010
0001
1000
,
0010
0100
0002
0000
1003
0000
1000
0001
,
1000
1000
0001
0001
0010
0100
1000
0001
,
0100
0010
2000
0000
3001
1000
1002
0000
,
0013
0001
0010
0001
0100
0010
1000
0010
,
0100
0000
0001
0000
0010
0000
0000
0100
0000
0000
0010
0000
0001
0000
1000
0000
,
0002
0000
0000
0000
,
1003
0000
0001
0010
0100
0000
0010
0000
0000
0001
0000
0000
1010
0000
0000
0000
,
2002
0000
0000
3003
,
1001
0000
0001
0100
0001
0000
1000
0000
0100
0000
0010
0100
0000
0010
0100
0000
,
1000
0000
0010
0100
0010
0000
0100
0000
0001
0000
0010
0100
0010
0000
0001
0000
,
1000
0011
1100
0101
,
1001
0000
1000
0010
1000
0000
0001
0000
0010
0000
0100
0010
0000
0100
0010
0000
,
0001
0000
0100
0010
0100
0000
0010
0000
1000
0000
0100
0010
0000
0100
0010
0000
,
0001
0000
0010
0000
0100
0000
1000
0000
0100
0010
0001
0100
0001
0010
0001
1000
,
0020
0032
0023
0230
0302
2003
3100
0000
,
0021
0000
0000
0000
0100
0000
0000
0000
0001
0000
0000
0000
0130
0000
1000
0010
,
0200
0000
0010
0000
0001
0000
0310
1000
,
0001
0000
0010
0100
0010
0000
0100
0010
0100
0000
0010
0100
0010
0000
0001
0000
,
1000
0010
1000
0010
0100
0010
0100
0001
0100
0010
1000
0001
1000
0100
0010
0001
,
2000
3000
0000
0000
0000
0000
0000
0000
;
