#TITLE:V₂;
#SUBTITLE:;
#ARTIST:TAKA;
#TITLETRANSLIT:V2;
#SUBTITLETRANSLIT:;
#ARTISTTRANSLIT:;
#GENRE:;
#CREDIT:;
#MUSIC:V2.ogg;
#BANNER:v2.png;
#BACKGROUND:V2-bg.png;
#CDTITLE:;
#SAMPLESTART:2.042;
#SAMPLELENGTH:12.833;
#SELECTABLE:YES;
#OFFSET:1.164;
#BPMS:0.000=150.000;
#STOPS:311.500=0.200;
#BGCHANGES:;
#FGCHANGES:;

//--------------- dance-single - ----------------
#NOTES:
     dance-single:
     :
     Beginner:
     6:
     0,0,0,0,0:
0000
0000
0000
0000
,
0000
0000
0000
0000
,
0000
0000
0000
0000
,
0001
0001
0001
0001
,
1001
0000
0000
0000
,
1000
1000
1000
1000
,
1001
0000
0000
0000
,
0010
0010
0010
0010
,
1001
0000
0000
0000
,
0100
0100
0100
0100
,
1001
0000
0001
0000
,
1000
0000
0100
0000
,
0010
0010
0100
0000
,
0100
0000
0100
0000
,
1000
0000
1000
0000
,
1000
0000
1001
0000
,
0001
0000
0001
0000
,
0100
0001
0100
0001
,
0010
0000
1100
0000
,
0100
0000
0010
0000
,
0001
0000
1000
0000
,
0010
0000
1001
0000
,
0100
0000
1001
0000
,
0010
0000
1001
0000
,
0100
1001
0010
1001
,
0110
0000
0000
0000
,
0002
0000
0000
0000
,
0003
0000
0000
0000
,
2000
0000
0000
0000
,
3000
0000
0000
0000
,
0020
0000
0000
0000
,
0130
0000
0100
0000
,
0002
0000
0000
0000
,
2003
0000
0000
0000
,
3100
0000
0000
0000
,
0010
0000
0010
0000
,
0010
0000
0000
0000
,
0100
0000
0100
0000
,
0100
0000
0000
0000
,
1000
0000
1000
0000
,
1001
0000
0000
0000
,
0001
0100
1000
0100
,
0001
0000
0000
0000
,
1000
0100
0001
0100
,
1000
0000
0000
0000
,
0001
0100
1000
0100
,
0002
0000
0000
0000
,
2003
0000
0000
0000
,
3200
0000
0000
0000
,
0320
0000
0000
0000
,
0032
0000
0000
0000
,
0203
0000
0000
0000
,
2300
0000
0000
0000
,
3200
0000
0000
0000
,
0320
0000
1000
0000
,
0230
0000
0010
0000
,
0302
0000
0010
0000
,
2003
0000
0100
0000
,
3002
0000
0100
0000
,
0023
0000
0100
0000
,
0031
0000
0011
0000
,
1000
0000
1010
0000
,
0110
0000
1001
0000
,
0110
1001
0110
1001
,
0110
0000
0000
0000
,
0001
0001
0001
0001
,
2000
0000
0000
0000
,
3100
0100
0100
0100
,
0020
0000
0000
0030
,
0001
0001
0001
0001
,
0200
0000
0000
0000
,
0310
0100
0010
0100
,
0001
0001
0001
0000
,
1000
1000
1000
0000
,
0100
0100
0100
0000
,
0010
0001
0010
0000
,
0100
1000
0100
0000
,
1000
0010
1000
2002
,
3003
0000
0000
0000
;

//--------------- dance-single - ----------------
#NOTES:
     dance-single:
     :
     Easy:
     8:
     0,0,0,0,0:
0000
0000
0000
0000
,
0000
0000
0000
0000
,
2002
0000
0000
3003
,
0010
0010
0010
0010
,
2002
0000
0000
3003
,
0100
0100
0100
0100
,
2002
0000
0000
3003
,
0010
0010
0010
0010
,
2002
0000
0000
3003
,
0100
0100
0100
0100
,
1001
1000
0010
1000
,
0001
0010
0100
0010
,
0001
0100
0001
0000
0100
0000
0001
0000
,
1000
0100
0010
0001
,
0100
1000
0100
0001
,
1000
0000
0001
0010
0100
0000
0010
0000
,
0100
0010
0100
0010
,
0001
0100
0001
0100
,
0010
0000
1000
0001
0010
0000
0100
0000
,
0010
0100
0010
0100
,
0010
0100
1000
0010
,
0100
0001
1001
0000
,
1000
0100
0011
0000
,
0101
0000
1010
0000
,
1001
0001
0100
0010
,
1010
0000
0000
0000
,
0001
0010
0001
0010
0001
0010
0001
0010
,
0001
0000
0000
0000
,
1000
0100
1000
0100
1000
0100
1000
0100
,
1000
0000
0000
0000
,
0010
1000
0010
1000
0010
1000
0010
1000
,
0010
0010
0010
0010
,
0100
0100
0100
0100
,
0001
0001
1000
1000
,
0110
0000
0000
0000
,
0001
0000
1000
0000
,
0100
0010
0100
0010
,
0001
0000
1000
0000
,
0010
0100
0010
0100
,
0010
0000
0100
0000
,
1001
0000
0000
0000
,
0001
0000
1000
0000
,
0100
0000
0000
0000
,
0010
0000
0001
0000
,
0100
0000
0000
0000
,
0010
0000
0100
0000
,
0102
0000
0000
0000
,
0023
0000
0000
0000
,
2030
0000
0000
0000
,
3020
0000
0000
0000
,
0230
0000
0000
0000
,
2300
0000
0000
0000
,
3020
0000
0000
0000
,
0032
0000
0000
0000
,
0023
0000
0230
0000
,
0302
0000
2003
0000
,
3200
0000
0302
0000
,
0203
0000
0320
0000
,
0032
0000
2003
0000
,
3020
0000
0032
0000
,
0023
0230
0002
0303
,
0020
0230
2000
3300
,
0200
0320
0002
0033
,
0020
0230
2300
3002
,
2000
0000
0000
3003
,
0001
1000
0010
1000
,
0200
0302
0203
2300
,
3001
1000
0010
1000
,
0200
2300
3020
0230
,
0301
0100
0001
1000
,
0200
2300
3020
0032
,
0013
0010
0100
0100
,
1001
0000
0001
0100
0001
0000
0100
0000
,
0010
0000
1000
0010
1000
0000
0010
0000
,
1000
0000
0100
0010
0100
0000
0010
0000
,
0001
0000
1000
0001
1000
0000
0001
0000
,
0010
0000
0100
1000
0100
0000
1000
0000
,
0010
0000
0100
0001
0100
0000
0010
0000
,
2002
0000
0000
0000
,
0000
0000
0000
3003
0000
0000
0000
0000
;

//--------------- dance-single - ----------------
#NOTES:
     dance-single:
     :
     Medium:
     12:
     0,0,0,0,0:
0000
0000
0000
0000
,
0000
0000
0000
0000
,
0220
0000
0000
0330
,
0001
1000
0001
1000
0001
1000
0001
1000
,
0220
0000
0000
0330
,
1000
0001
1000
0001
1000
0001
1000
0001
,
0220
0000
0000
0330
,
0001
1000
0001
1000
0001
1000
0001
1000
,
0220
0000
0000
0330
,
1000
0000
0001
0000
1000
0000
0001
0000
1000
0001
0000
1000
0001
0000
1000
0000
,
0010
1000
0100
0000
0010
0001
1000
0000
,
0001
1000
0100
0000
0010
0100
1000
0000
,
0001
0001
0001
1000
0001
0000
0001
0000
,
0001
0001
0001
0001
,
1000
0100
0010
0000
0100
1000
0010
0000
,
0100
0000
0010
0100
0001
0000
0001
0000
,
1000
1000
0010
0010
,
0100
1000
0100
0001
0100
1000
0100
0001
,
1000
0000
0001
0100
1010
0000
0010
0000
,
0010
0010
0100
0100
,
0001
0001
1000
1000
,
0001
0000
1000
0000
0011
0000
0001
0010
,
0100
0000
0010
0000
1100
0000
1000
0010
,
0100
0001
1000
0100
,
0010
0100
1000
0001
,
2002
0000
0000
3003
,
0001
0100
0010
1000
0001
0100
0010
1000
,
2002
0000
0000
3003
,
1000
0100
0010
0001
1000
0100
0010
0001
,
2002
0000
0000
3003
,
0001
0010
0100
1000
0001
0010
0100
1000
,
0010
0010
0010
0010
,
0100
0001
0100
0000
0010
1000
0010
0000
,
1000
0001
1000
0001
0010
0100
1000
0001
,
0220
0000
0000
0330
,
0001
0001
1000
1000
,
0010
1000
0010
0000
0100
0001
0100
0000
,
0001
0001
0010
0010
,
0100
0010
0100
0000
0010
0001
0010
0000
,
0001
0000
0001
0000
0001
0010
0001
0010
,
0100
1000
0010
0100
,
2000
3100
0200
0301
,
0010
0001
1000
0010
,
2000
3100
0002
0103
,
1000
0010
0001
0010
,
0200
0001
0310
1001
,
0001
0100
0001
0000
0100
0010
0100
0000
,
0010
1000
0010
0000
1000
0100
1000
0000
,
0100
0010
0100
0000
0010
0001
0010
0000
,
0001
0100
0001
0000
0100
0010
0100
0000
,
1001
0001
1000
0000
0100
1000
0100
0000
,
0010
0001
0010
0000
0001
0100
0001
0000
,
0100
0010
0100
0000
0010
1000
0010
0000
,
1000
0001
1000
0000
0001
0010
0001
0000
,
0001
0010
0001
0010
0100
0010
0100
0010
,
0100
1000
0100
1000
0010
1000
0010
1000
,
0010
0100
0010
0100
0001
0100
0001
0100
,
0001
0010
0001
0010
0100
1000
0100
1000
,
0001
1000
0001
1000
0010
1000
0010
1000
,
0010
0100
0010
0100
0001
0100
0001
0100
,
0001
0000
1000
0000
0110
0000
1000
0100
,
0001
0000
0100
0000
1100
0000
1000
0010
,
0001
0010
0100
0000
0010
0100
0001
0000
,
0100
0010
1000
0001
0010
1000
0010
0001
,
2002
0000
0000
3003
,
0001
0100
0010
1000
0100
0010
0100
1000
,
2001
0010
0001
3100
,
1000
0001
0010
0001
0100
0010
1000
0100
,
0021
0100
0001
0130
,
0010
0001
0100
0010
1000
0010
0100
0001
,
0201
0010
0001
0310
,
0100
0100
0010
0010
1000
1000
0001
0001
,
1001
1000
1000
1000
1000
0001
0010
0100
,
1000
0100
0100
0100
0100
0010
0001
1000
,
0010
0100
0100
0100
0100
0010
1000
0001
,
0010
0001
0001
0001
0001
1000
0001
0100
,
0010
1000
1000
1000
1000
0100
0010
0001
,
0010
0100
0100
0100
0100
0010
0001
1000
,
0110
0000
0000
0000
;

//--------------- dance-single - ----------------
#NOTES:
     dance-single:
     :
     Hard:
     15:
     0,0,0,0,0:
0000
0000
0000
0000
,
0000
0000
0000
0000
,
0220
0000
0000
0330
,
0001
0100
0001
0100
0001
0100
0001
0100
,
2020
0000
0000
3030
,
1000
0100
1000
0100
1000
0100
1000
0100
,
0022
0000
0000
0033
,
0001
0010
0001
0010
0001
0010
0001
0010
,
2200
0000
0000
3300
,
1000
0000
0010
0000
1000
0000
0010
0000
1000
0010
0000
0010
0100
0000
0001
0000
,
1000
0100
1000
0010
1000
0001
0010
0100
,
0010
0001
0100
0010
1000
0001
0010
0100
,
1000
1000
1000
0100
0010
0001
0010
0001
,
0010
0001
0010
0001
0010
0001
0010
0001
,
0010
0100
1000
0001
0010
0100
1000
0001
,
0100
0000
0000
0010
1000
0000
0001
0000
1001
0000
1000
0000
0100
0000
1000
0000
,
0100
1000
0100
1000
0100
1000
0100
1000
,
0001
0010
0100
1000
0001
0010
0100
1000
,
0001
0000
0000
1000
0010
0000
1000
0000
1001
0000
0001
0000
0010
0000
0001
0000
,
0010
0001
0010
0001
0010
0001
0010
0001
,
1000
0010
1000
0001
0010
0001
1000
0100
,
0020
0000
0001
0000
0130
0000
0010
0001
,
0200
0000
0010
0000
0301
0000
1000
0100
,
0010
0010
0001
0100
0010
0010
0100
0001
,
1000
0100
0010
0001
1000
0100
0010
0001
,
1000
0001
0100
0010
,
1000
0100
1000
0100
1000
0100
1000
0100
1000
0100
1000
0100
1000
0100
1000
0100
,
1000
0100
1000
0001
,
0100
0010
0100
0010
0100
0010
0100
0010
0100
0010
0100
0010
0100
0010
0100
0010
,
0100
0010
1000
0001
,
0100
0001
0100
0001
0100
0001
0100
0001
0100
0001
0100
0001
0100
0001
0100
0001
,
0100
0100
0100
0100
,
0010
1000
0010
1000
0010
1000
0010
1000
,
0001
0000
1000
0000
0001
0000
1000
0000
0001
1000
0001
1000
0001
1000
0001
1000
,
0002
0000
0000
0003
,
1000
1000
1000
1000
,
0001
0100
0010
0100
0001
0010
0001
0100
,
0010
0010
0010
0010
,
0010
1000
0100
1000
0010
1000
0100
1000
,
0001
0000
0001
0000
0001
0001
1000
1000
,
1001
0001
0100
0001
,
2000
3100
2000
3010
,
0100
0001
0010
0100
,
0020
0031
0020
0130
,
0010
0001
0100
0010
,
0200
0301
0200
0310
,
1001
0000
0000
0001
0010
0000
0100
0000
0010
0000
0000
0100
1000
0000
0010
0000
,
0100
0000
0000
0010
1000
0000
0001
0000
0010
0000
0000
0100
0010
0000
0001
0000
,
1000
0000
0000
0100
0010
0000
0100
0000
1000
0000
0000
0001
0100
0000
0001
0000
,
0010
0000
0000
0100
0010
0000
0001
0000
1000
0000
0000
0100
0010
0000
0100
0000
,
1100
0000
0000
0100
1000
0000
0010
0000
0100
0000
0000
0010
0100
0000
0001
0000
,
0010
0000
0000
0001
1000
0000
0100
0000
0010
0000
0000
0100
1000
0000
0001
0000
,
0100
0000
0000
0001
1000
0000
0010
0000
1000
0000
0000
1000
0010
0000
0100
0000
,
0001
0000
0000
0010
0100
0000
0010
0000
0001
0000
0000
0010
0001
0000
0100
0000
,
0010
0010
0010
0010
1000
1000
1000
1000
,
0100
0100
0100
0100
1000
1000
1000
1000
,
0001
0001
0001
0001
0100
0100
0100
0100
,
0001
0001
0001
0001
1000
1000
1000
1000
,
0010
0010
0010
0010
0100
0100
0100
0100
,
0001
0001
0001
0001
1000
1000
1000
1000
,
1001
0000
0000
0001
0100
0000
0010
0000
1001
0000
0000
0000
1000
0000
0100
0000
,
0011
0000
0000
0010
0100
0000
1000
0000
1001
0000
0000
0001
0100
0000
0010
0000
,
1010
0010
0100
0001
0101
0001
0010
0100
,
0110
0110
1001
1001
0101
1010
1100
0011
,
2002
0000
0000
3003
,
0001
0100
0010
1000
0100
0010
0100
1000
,
0001
0000
1000
0010
1000
0010
1000
0010
1000
0000
0010
0000
0010
0000
0010
0000
,
0100
0001
1000
0100
0010
0100
1000
0010
,
0100
0000
0001
0010
0001
0010
0001
0010
0001
0000
0100
0000
0100
0000
0100
0000
,
0010
1000
0100
0010
0100
1000
0001
0100
,
0010
0000
1000
0100
1000
0100
1000
0100
1000
0000
0010
0000
0010
0000
0010
0000
,
1000
0100
0010
0000
0100
1000
0010
0000
0100
0001
0010
0100
1000
0100
0010
0001
,
1000
0000
0010
0100
0010
0100
0010
0100
0010
0000
0100
0000
0100
0000
0100
0000
,
0001
0000
0010
0100
0010
0100
0010
0100
0010
0000
0001
0000
0001
0000
0001
0000
,
1000
0000
0100
1000
0100
1000
0100
1000
0100
0000
1000
0000
1000
0000
1000
0000
,
0001
0000
0010
0100
0010
0100
0010
0100
0010
0000
0100
0000
0100
0000
0100
0000
,
1000
0000
0010
0100
0010
0100
0010
0100
0010
0000
0100
0000
0100
0000
0100
0000
,
0010
0000
0100
0001
0100
0001
0100
0001
0100
0000
0010
0000
0010
0000
0010
0000
,
2002
0000
0000
0000
,
0000
0000
0000
3003
0000
0000
0000
0000
;

//--------------- dance-single - ----------------
#NOTES:
     dance-single:
     :
     Challenge:
     18:
     0,0,0,0,0:
0000
0000
0000
0000
,
0000
0000
0000
0000
,
0000
0000
0000
0000
,
1000
0010
0001
0010
1000
0010
0001
0010
,
0100
0000
1000
0100
1000
0100
1000
0100
1000
0000
0100
0000
0100
0000
0100
0000
,
0001
0100
1000
0100
0001
0100
1000
0100
,
0001
0000
0100
0010
0100
0010
0100
0010
0100
0000
0010
0000
0010
0000
0010
0000
,
1000
0010
0001
0010
1000
0010
0001
0010
,
1000
0000
0010
0100
0010
0100
0010
0100
0010
0000
0100
0000
0100
0000
0100
0000
,
0001
0100
1000
0100
0001
0100
1000
0100
,
0001
1000
0010
1000
0100
0001
0100
1000
,
0001
0100
0010
1000
0010
0001
0010
1000
,
1010
0000
0011
0000
1001
0000
0001
0100
0010
1000
0100
1000
0001
0100
0010
1000
,
0010
0100
0001
1000
0010
0100
0001
1000
0010
0100
0001
1000
0010
0100
0001
1000
,
0001
1000
0001
1000
0100
0010
0001
1000
0001
1000
0001
1000
0100
0010
0001
1000
,
0010
0000
0000
0100
0010
0000
0100
0000
1001
0000
0001
0100
0001
0000
0100
0010
,
0100
0000
0010
1000
0010
0000
1000
0100
1000
0000
0001
0010
0001
0000
1000
0100
,
1000
0001
0010
0001
1000
0100
0010
0001
1000
0001
0010
0001
1000
0100
0010
0001
,
1000
0000
0000
0001
0100
0000
0010
0000
1010
0000
0010
0100
0010
0000
0100
0001
,
0100
0000
0001
0010
0001
0000
0100
0010
0100
0000
1000
0100
1000
0000
0001
0100
,
0001
0000
0010
0100
1000
0000
0100
0010
0001
0000
0010
0001
0100
0000
0010
1000
,
0200
0000
0001
0000
1300
0000
0100
0010
,
0021
0000
1000
0000
0031
0000
0010
0001
,
0100
0010
1000
0001
0010
0100
0010
0001
,
1000
0010
1000
0010
1000
0010
1000
0010
1000
0010
1000
0010
1000
0010
1000
0010
,
0200
0000
0000
0300
,
0001
0010
0001
1000
0010
1000
0100
0010
0100
1000
0001
0100
0010
1000
0100
1000
,
0002
0000
0000
0003
,
1000
0010
0100
0010
1000
0001
0010
0001
0100
0010
1000
0100
0010
0001
0100
0001
,
2000
0000
0000
3000
,
0001
0100
0010
1000
0001
0010
0100
1000
0100
0010
0100
1000
0001
0100
0001
0010
,
0200
1000
1000
1300
,
0001
1000
0001
1000
0001
1000
0001
1000
0001
1000
0001
1000
0001
1000
0001
1000
,
0010
0100
0010
0100
0010
0100
0010
0100
0010
0100
0010
0100
0010
0100
0010
0100
,
0002
0000
0000
0003
,
1000
1000
1000
1000
,
0001
0100
1000
0100
0001
0100
1000
0100
,
0001
0001
0001
0001
,
1000
0100
0001
0100
1000
0100
0001
0100
,
1000
0000
1000
0000
1000
1000
0001
0001
,
1000
0001
0100
0001
1000
0100
1000
0001
,
0020
0032
0203
0320
,
1030
0001
0010
0001
1000
0010
1000
0001
,
2000
3200
0320
0230
,
0310
0001
0100
0001
1000
0010
0100
0001
,
2000
3002
2003
3001
,
1000
0100
1000
0100
1000
0100
1000
0100
1000
0100
1000
0100
1000
0100
1000
0100
,
0010
0001
0010
0001
0010
0001
0010
0001
0010
0001
0010
0001
0010
0001
0010
0001
,
1000
0010
1000
0010
1000
0010
1000
0010
1000
0010
1000
0010
1000
0010
1000
0010
,
0100
0001
0100
0001
0100
0001
0100
0001
0100
0001
0100
0001
0100
0001
0100
0001
,
1000
0001
1000
0001
1000
0001
1000
0001
1000
0001
1000
0001
1000
0001
1000
0001
,
0010
0001
0010
0001
0010
0001
0010
0001
0010
0001
0010
0001
0010
0001
0010
0001
,
1000
0010
1000
0010
1000
0010
1000
0010
1000
0010
1000
0010
1000
0010
1000
0010
,
0100
0010
0100
0010
0100
0010
0100
0010
0100
0010
0100
0010
0100
0010
0100
0010
,
1000
0100
1000
0100
1000
0100
1000
0100
0010
0100
0010
0100
0010
0100
0010
0100
,
0010
0001
0010
0001
0010
0001
0010
0001
0100
0001
0100
0001
0100
0001
0100
0001
,
0100
0010
0100
0010
0100
0010
0100
0010
1000
0010
1000
0010
1000
0010
1000
0010
,
1000
0001
1000
0001
1000
0001
1000
0001
1000
0100
1000
0100
1000
0100
1000
0100
,
0010
0100
0010
0100
0010
0100
0010
0100
0010
0001
0010
0001
0010
0001
0010
0001
,
0010
0100
0010
0100
0010
0100
0010
0100
1000
0100
1000
0100
1000
0100
1000
0100
,
1000
0001
1000
0001
1000
0001
1000
0001
0010
0100
0010
0100
0010
0100
0010
0100
,
1000
0001
1000
0001
1000
0001
1000
0001
0100
0010
0100
0010
0100
0010
0100
0010
,
0100
0001
0100
0001
1000
0010
1000
0010
0100
0001
0100
0001
1000
0010
1000
0010
,
0100
0001
0100
0010
1000
0001
0100
0010
1000
0001
0100
0010
1000
0001
0100
0010
,
2000
0000
0000
3000
,
0001
0010
1000
0010
0001
0010
1000
0010
,
0001
0000
0100
0001
0100
0010
0100
0001
0100
0000
0001
0000
0001
0000
0001
0000
,
1000
0010
0001
0010
1000
0010
0001
0010
,
1000
0000
0100
0010
0100
1000
0100
0010
0100
0000
1000
0000
1000
0000
1000
0000
,
0001
0100
1000
0100
0001
0100
1000
0100
,
0001
0000
0010
0100
0010
0001
0010
0100
0010
0000
0001
0000
0001
0000
0001
0000
,
1000
0010
0100
0001
1000
0010
0100
0001
1000
0100
1000
0100
1000
0100
1000
0100
,
0010
0000
0001
0100
0010
1000
0001
0010
0100
0000
0010
0000
0010
0000
0010
0000
,
0001
0000
0010
0100
0010
0001
1000
0010
0100
0000
0010
0000
0010
0000
0010
0000
,
0100
0000
0001
0100
0010
1000
0100
0010
0100
0000
1000
0000
1000
0000
1000
0000
,
0001
0000
1000
0010
1000
0010
1000
0010
1000
0000
0001
0000
0001
0000
0001
0000
,
1000
0000
0001
0010
0001
0010
0001
0010
0001
0000
0100
0000
0100
0000
0100
0000
,
0010
0000
1000
0001
1000
0001
1000
0001
1000
0000
1000
0000
1000
0000
1000
0000
,
2002
0000
0000
0000
,
0000
0000
0000
3003
0000
0000
0000
0000
;
