#TITLE:Trick or Treat;
#SUBTITLE:;
#ARTIST:SLAKE;
#TITLETRANSLIT:;
#SUBTITLETRANSLIT:;
#ARTISTTRANSLIT:;
#GENRE:;
#CREDIT:;
#MUSIC:Trick or Treat.ogg;
#BANNER:Trick or Treat-bn.png;
#BACKGROUND:Trick or Treat-bg.png;
#CDTITLE:;
#SAMPLESTART:58.320;
#SAMPLELENGTH:12.800;
#SELECTABLE:YES;
#OFFSET:-0.720;
#BPMS:0.000=150.000;
#STOPS:31.500=3.200
,127.500=3.200
,255.750=3.200
;
#BGCHANGES:;
#FGCHANGES:;

//--------------- dance-single - Pandemonium X ----------------
#NOTES:
     dance-single:
     Pandemonium X:
     Beginner:
     3:
     0,0,0,0,0:
0000
0000
0000
0000
,
0000
0000
0000
0000
,
0000
0000
0000
0000
,
0000
0000
0000
0000
,
0001
0000
0000
0000
,
1000
0000
0000
0000
,
0001
0000
0000
0000
,
1000
0000
0001
0000
,
0100
0000
0000
0000
0000
0000
0000
0100
,
0000
0000
0000
0000
,
0010
0000
0000
0000
,
0000
0000
0000
0000
,
0010
0000
0000
0000
0000
0000
0000
1000
,
0000
0000
0000
0000
,
0001
0000
0000
0000
,
0020
0000
0000
0030
,
0100
0000
0000
0000
0000
0000
0000
1000
,
0000
0000
0000
0000
,
0001
0000
0100
0000
,
0000
0000
0010
0000
,
0100
0000
0000
0000
0001
0000
0000
1000
,
0000
0000
0000
0000
,
0001
0000
0000
0000
0000
0000
0000
0010
,
0000
0000
0000
0000
,
0100
0000
1000
0000
,
0000
0000
0000
0001
,
1000
0000
0010
0000
,
0000
0000
0000
0100
,
0001
0000
1000
0000
,
0000
0000
0000
0100
,
1000
0000
0000
0000
0001
0000
0000
0100
,
0000
0000
0000
0000
0000
0020
0000
0030
,
1001
0000
0000
0000
1000
0000
0000
0001
,
0000
0000
0000
0000
,
0010
0000
0001
0000
,
0100
0000
0010
0000
,
1000
0000
0000
0000
0100
0000
0000
1000
,
0000
0000
0000
0000
,
0001
0000
1000
0000
,
0010
0000
1000
0000
,
0100
0000
0000
0000
0010
0000
0000
0001
,
0000
0000
0000
0000
,
1000
0000
0001
0000
,
0100
0000
0010
0000
,
0100
0000
0000
0000
0001
0000
0000
1000
,
0000
0000
0000
0000
,
0001
0000
0010
0000
,
0100
0000
1000
0000
,
1001
0000
0110
0000
,
1001
0000
0000
0000
,
0001
0000
1000
0000
,
0000
0000
0000
0000
,
0010
0000
0100
0000
,
0000
0000
0000
0010
,
1000
0000
0001
0000
,
1000
0000
0000
0110
,
0001
0000
0000
1000
,
0000
0000
0000
0010
,
0100
0000
0000
0001
,
0000
0000
0000
0010
,
0100
0000
0000
1000
,
0000
0000
0000
0000
,
0001
0000
0000
1000
,
0010
0000
0100
0100
,
0020
0000
0000
0030
;

//--------------- dance-single - Pandemonium X ----------------
#NOTES:
     dance-single:
     Pandemonium X:
     Easy:
     6:
     0,0,0,0,0:
0000
0000
0000
0000
,
0000
0000
0000
0000
,
0000
0000
0000
0000
,
0000
0000
0000
0000
,
0002
0000
0003
0000
,
0000
0000
0000
0000
,
2000
0000
3000
0000
,
0010
0000
0100
0000
,
1001
0000
0000
0000
0001
0000
0000
1000
,
0000
0000
0000
0100
,
1000
0000
0010
0000
,
0000
0100
0010
1000
,
0001
0000
0000
0000
0010
0000
0000
0001
,
0000
0000
0000
0100
,
0001
0000
0000
0000
0000
0000
0000
1000
,
0200
0000
0000
0000
,
0310
0000
0000
0000
0100
0000
0000
1000
,
0000
0001
0001
0000
,
1000
0000
0010
0000
,
0000
0100
0010
1000
,
0001
0000
0000
0000
0010
0000
0000
0100
,
0000
0010
0010
0001
,
1000
0000
0000
0000
0100
0000
0000
1000
,
0000
0010
0010
0100
,
0001
0000
1000
0100
,
1000
0000
0010
0000
,
0100
0000
0001
0010
,
0001
0000
0010
0000
,
0001
0000
1000
0001
,
1000
0000
0001
0000
,
0100
0000
0010
1000
,
0010
0000
0100
0000
0000
0002
0000
0003
,
1001
0000
0000
0000
1000
0000
0000
0100
,
0000
1000
0010
1000
,
0001
0000
0000
0000
0010
0000
0000
0100
,
0000
1000
0100
1000
,
0001
0000
0000
0000
0100
0000
0000
0001
,
0000
0010
0001
1000
,
0100
0000
0000
0000
1000
0000
0000
0010
,
0000
0100
0001
0010
,
0100
0000
0000
0000
0010
0000
0000
0001
,
0000
0000
1000
0001
,
0100
0000
0000
0000
0001
0000
0000
1000
,
0000
0100
0010
0001
,
1000
0000
0000
0000
0001
0000
0000
0100
,
0000
0010
1000
0100
,
0010
0000
0000
0000
0001
0000
0000
0010
,
0000
0001
1000
0001
,
0101
0000
0000
1010
0000
0000
1100
0000
,
0000
0011
0000
0000
0000
0000
0000
0000
,
0001
0000
1000
0100
,
1000
0000
0000
0010
,
0100
0000
0001
0010
,
0001
0000
0000
1000
,
0001
0000
0100
0001
,
0010
0000
0100
0000
0000
1000
0001
0000
,
1000
0000
0001
0100
,
0000
0010
1000
0100
,
0010
0001
0100
0010
,
0100
0001
1000
0100
,
0110
0010
0001
0110
,
1000
0001
1000
0100
,
0011
0001
0100
1010
,
0010
0000
0100
0000
0001
0000
1000
1000
,
0001
0000
1000
0000
0010
0100
0010
0000
;

//--------------- dance-single - Pandemonium X ----------------
#NOTES:
     dance-single:
     Pandemonium X:
     Medium:
     8:
     0,0,0,0,0:
0000
0000
0000
0000
,
0000
0000
0000
0000
,
0000
0000
0000
0000
,
0000
0000
0000
0000
,
1000
0100
1000
0001
0000
0000
0000
0000
,
0100
0001
0010
0100
0000
0000
0000
0000
,
0010
0001
1000
0010
0000
0000
0000
0100
,
0000
0000
0000
0001
0000
0000
0010
0000
0100
0000
0000
1000
0000
0000
0001
0000
,
1020
0000
0000
0000
0130
0000
0000
0101
,
0000
0000
0000
0000
0000
0001
1000
0000
,
1200
0000
0000
0000
0310
0000
0000
0100
,
0000
0000
0000
0000
1000
0000
0000
1000
0000
0000
0000
0000
0000
0000
0000
0000
,
1002
0000
0000
0000
0103
0000
0000
1010
,
0000
0000
0000
0000
0000
0010
0100
0000
,
2001
0000
0000
0000
0000
0000
0000
3100
,
0010
0001
0010
0001
1000
0100
0010
0001
,
1002
0000
0000
0000
0103
0000
0000
0010
,
0000
0000
0000
0000
0100
0000
0000
0100
0000
0000
0001
0000
1000
0000
0000
0000
,
2100
0000
0000
0000
3001
0000
0000
1000
,
0000
0000
0001
0000
0100
0000
0000
0000
0001
0000
0000
0010
0000
0000
0100
0000
,
1000
0000
0000
0100
0000
0000
1000
0000
0001
0000
0000
0000
0000
0000
2010
0000
,
0000
0000
0000
0000
0000
3100
0010
0000
,
0021
0000
0000
0000
0130
0000
0000
0012
,
0000
0000
0103
0001
1000
0100
0010
0001
,
1000
0000
0000
0000
0000
0000
0000
0000
0001
0000
0000
0100
0000
0000
0001
0000
,
0000
0000
0000
0000
0000
0000
0000
0000
0000
0000
1000
0000
0100
1000
0000
0000
,
0100
0000
0000
0000
0000
0000
0000
0000
1000
0000
0000
0001
0000
0000
0100
0000
,
0000
0000
0000
0000
0000
0000
0000
0000
0000
0000
0001
0000
0010
0001
0000
0000
,
0100
0000
0000
0000
0000
0000
0000
0000
0001
0000
0000
1000
0000
0000
0100
0000
,
0000
0000
0000
0000
0010
0000
0000
0000
0000
0000
0100
0000
1000
0100
0000
0000
,
1000
0000
0000
0000
0000
0000
0000
0000
0001
0000
0000
0100
0000
0000
0010
0000
,
0000
1000
0000
0000
0001
0000
0000
1000
0000
0000
0200
0000
0000
0000
0300
0000
,
2001
0000
0000
0000
0000
0000
0000
0000
0001
0000
0000
3001
0000
0000
0101
0000
,
0000
0000
0000
0000
0001
0000
0000
1000
0000
0000
0100
0000
0010
0000
0000
0000
,
2100
0000
0000
0000
3010
0000
0000
0100
,
0000
0000
0000
0000
0001
0000
0000
0000
1000
0000
0000
0100
0000
0000
0010
0000
,
0100
0000
0000
1000
0000
0000
0001
0000
0100
0000
0000
0001
0000
0000
0010
0000
,
0000
0000
0000
0000
0100
0000
0000
0000
0010
0000
0000
0001
0000
0000
1000
0000
,
0001
0000
0000
0000
1020
0000
0000
0130
,
0000
0000
0010
0000
0100
0000
0000
0001
0000
0000
1000
0000
1001
0000
0000
0000
,
0002
0000
0000
0000
0103
0000
0000
0010
,
0000
0000
0000
0000
0100
0000
0000
0001
0000
0000
1000
0000
0100
0000
0000
0000
,
0020
0000
0000
0000
0000
0000
0000
0000
0130
0000
0000
0100
0000
0000
0100
0000
,
0000
0000
0010
0000
0001
0000
0000
0000
1000
0000
0000
0001
0000
0000
0100
0000
,
0001
0000
0000
1000
0000
0000
0100
0000
0010
0000
0000
0000
0000
0000
0110
0000
,
0000
0000
0000
0000
0100
0000
0000
0100
0000
0000
1000
0000
0001
0000
0000
0000
,
1000
0000
0000
0000
0000
0000
0000
0000
0001
0000
0000
0100
0000
0000
0001
0000
,
0000
1000
0000
0000
0100
0000
0000
0010
0000
0000
0100
0000
1000
0000
0000
0000
,
0001
0000
0000
0000
0000
0000
0000
0000
0100
0000
0000
0001
0000
0000
1000
0000
,
0000
0000
0000
0000
0000
0000
0000
0000
0000
0000
0100
0000
0010
0100
0000
0000
,
0010
0000
0000
0000
0000
0000
0000
0000
0001
0000
0000
0100
0000
0000
0001
0000
,
0000
0000
0000
0000
0000
0000
0000
0000
0000
0000
1000
0000
0001
1000
0000
0000
,
0001
0000
0000
0000
0000
0000
0000
0000
0010
0000
0000
0001
0000
0000
0100
0000
,
0000
0000
0000
0000
0000
0000
0000
0000
0000
0000
0010
0000
1000
0001
0000
0000
,
1000
0000
0000
0000
0000
0000
0000
0000
0001
0000
0000
0010
0000
0000
0100
0000
,
0000
1000
0000
0000
0001
0000
0000
0000
0000
0000
1000
0000
1002
0000
0000
0000
,
1003
0000
0000
0000
0000
0000
0001
0000
0000
0100
0000
0000
0010
0000
0000
1000
,
0000
0000
0000
0000
0010
0000
0000
0100
0000
0000
0001
0000
0001
1000
0000
0000
,
0100
0000
0000
1000
0000
0000
0010
0000
0000
0100
0000
0000
0001
0000
0000
1000
,
0000
0000
0000
0000
0001
0000
0000
0010
0000
0000
0100
0000
0100
1000
0000
0000
,
0100
0000
0000
1000
0000
0000
0001
0000
0000
0100
0000
0000
0001
0000
0000
0010
,
0000
0000
0000
0000
0100
0000
0000
0010
0000
0000
0001
0000
0001
0100
0000
0000
,
0101
0000
0000
0100
0000
0000
0010
0000
0000
1000
0000
0000
1100
0000
0000
0100
,
0000
0000
0010
0000
0100
0000
0000
1000
0000
0000
0001
0000
0200
0000
0000
0300
,
0010
0000
1000
0000
0010
0100
0000
0000
0001
0000
1000
0000
0200
0000
0000
0000
,
0000
0000
0000
0000
,
0300
0000
0000
0000
;

//--------------- dance-single - Pandemonium X ----------------
#NOTES:
     dance-single:
     Pandemonium X:
     Hard:
     12:
     0,0,0,0,0:
0000
0000
0000
0000
,
0000
0000
0000
0000
,
0000
0000
0000
0000
,
0000
0000
0000
0000
0000
0000
0000
0001
,
0000
0000
1000
0001
0000
0000
0100
0000
0001
0000
0000
0000
0010
0000
0100
0000
,
0010
0001
1000
0001
0000
0000
1000
0001
,
0100
0010
0100
0001
0000
0000
1000
0001
,
0100
0000
0000
0001
0000
0000
0010
0000
0100
0000
0000
1000
0000
0000
0001
0000
,
1001
0000
0000
0000
1020
0000
0000
0130
,
0000
0000
0000
0000
0001
0000
0000
0001
0000
0001
1000
0000
1100
0000
0000
0000
,
1002
0000
0000
0000
0013
0000
0000
0100
,
0000
0000
0000
0000
0010
0000
0000
0010
0001
0000
1000
0000
0000
0010
0000
0000
,
0201
0000
0000
0000
0310
0000
0000
1001
,
0000
0000
0000
0000
0001
0000
0000
1000
0000
1000
0010
0000
0100
0000
0001
0000
,
2200
0000
0000
0000
3300
0000
0000
1000
,
0010
0001
0010
1000
0001
0010
0100
1000
,
1002
0000
0000
0000
0013
0000
0000
1100
,
0000
0000
1000
0000
0001
0100
0000
0001
0000
0000
0010
0000
0011
0000
0000
0000
,
2100
0000
0000
0000
3010
0000
0000
0100
,
0000
0000
0010
0000
0100
0001
0000
0010
0100
0000
0000
0010
0000
0000
0001
0000
,
2000
0000
0000
0010
0000
0000
3001
0000
1001
0000
0000
0000
0000
0000
0201
0000
,
0000
0000
0000
0000
0310
1000
0000
1000
0100
0000
0000
1000
0000
0000
0001
0000
,
0100
0000
0000
0001
0000
0000
0010
0000
1001
0000
0000
0000
0000
0000
1100
0000
,
0000
0000
1000
0000
0001
0100
0000
0001
0000
0000
1000
0000
0001
0000
1000
0000
,
0200
0000
0000
0000
0010
0000
0000
0000
1300
0000
0000
0011
0000
0000
0101
0000
,
0000
0000
0000
0000
1010
0000
0000
0000
0000
0000
0001
0000
0001
1000
0000
0000
,
0002
0000
0000
0000
0013
0000
0000
0000
1100
0000
0000
1100
0000
0000
1001
0000
,
0000
0000
0000
0000
0001
0000
0000
0001
0000
0000
0001
0000
0100
0010
0000
0000
,
2000
0000
0100
0000
0000
0000
0000
0000
3001
0000
0000
0011
0000
0000
0101
0000
,
0000
0000
0000
0000
1010
0000
0000
0000
0000
0000
1000
0000
1000
0001
0000
0000
,
0011
0000
0000
0000
0000
0000
0000
0000
0110
0000
0000
1100
0000
0000
0110
0000
,
0000
0010
0000
0000
0001
0000
0000
1000
0000
0000
0001
0100
0001
0100
0001
0000
,
1002
0000
0000
0000
0000
0000
0000
0000
1003
0000
0000
1000
0000
0000
1100
0000
,
0000
0000
0001
0000
0010
0100
0000
0010
0000
0000
0001
0000
1000
0000
0000
0000
,
0010
1000
0010
0100
0001
0010
0100
0010
,
0001
0000
1000
0000
0100
0010
0000
0010
0100
0000
0000
1000
0000
0000
0001
0000
,
0100
0000
0000
0010
0000
0000
1000
0000
0002
0000
0000
0010
0000
0000
0103
0000
,
0000
0000
0000
0000
0010
1000
0000
1000
0100
0000
0000
0010
0000
0000
0100
0000
,
1000
0001
0100
0001
0010
0100
0010
0001
,
1000
0010
0100
0001
0010
0100
1000
0001
,
2000
0000
0000
0000
0000
0000
0000
0000
3010
0000
0000
0100
0000
0000
0010
0000
,
0000
0000
0100
0000
0001
0010
0000
0100
0000
0000
0010
0000
0001
0000
0000
0000
,
1000
0001
0100
0001
0010
0001
1000
0100
,
0010
0000
0100
0000
1000
0001
0000
0100
0001
0000
0000
0010
0000
0000
0001
0000
,
1000
0000
0000
0010
0000
0000
0100
0000
0101
0000
0000
0001
0000
0000
1000
0000
,
0000
0000
0100
0000
0010
0100
0000
0010
0001
0000
0000
1000
0000
0000
0010
0000
,
1000
0001
0010
0001
1000
0100
0010
0001
,
0010
0001
0100
0010
1000
0001
0010
0100
,
2100
0000
0000
0000
3010
0000
0000
0000
0101
0000
0000
0011
0000
0000
1001
0000
,
0000
0000
1000
0000
0001
0010
0000
0100
0000
0000
1000
0000
0100
0000
0010
0000
,
0002
0000
0000
0000
0103
0000
0000
0000
1010
0000
0000
0110
0000
0000
1010
0000
,
0000
0000
1000
0000
0100
0010
0000
0100
0000
0000
0010
0000
0001
0100
0000
0010
,
2000
0000
0001
0000
0000
0000
3000
0000
1010
0000
0000
0101
0000
0000
1010
0000
,
0000
0000
0001
0000
1000
0100
0000
0010
0000
0000
0100
0000
1000
0000
0000
0000
,
0020
0000
0000
0000
0130
0000
0000
0000
0110
0000
0000
0101
0000
0000
0011
0000
,
0000
1100
0000
0000
0001
0010
0000
0100
0000
0000
1000
0000
0110
0000
0000
0000
,
1001
0000
0000
0000
0000
0000
0001
0000
0000
0010
0000
0000
0001
0000
0000
0100
,
0000
0000
0000
0000
0010
0000
0000
1000
0000
0000
0100
0000
0010
0100
0000
0000
,
0110
0000
0000
0010
0000
0000
0001
0000
0000
0100
0000
0000
0110
0000
0000
1000
,
0000
0000
0000
0000
0010
0000
0000
1000
0000
0000
0100
0000
0010
0001
0000
0000
,
1100
0000
0000
0100
0000
0000
1000
0000
0000
0010
0000
0000
0101
0000
0100
0001
,
0000
0000
0000
0000
0001
0000
0000
0010
0000
0000
0100
0000
0100
0010
0000
0000
,
0011
0000
0000
1100
0000
0000
0101
0000
0000
1010
0000
0000
1001
0000
0000
0101
,
0000
0000
1010
0000
0101
0000
0000
1001
0000
0000
1000
0000
0010
0100
0010
0100
,
0010
0000
0001
0000
0010
2000
0000
0000
3100
0000
1000
0000
0002
0000
0000
0000
,
0000
0000
0000
0000
,
0003
0000
0000
0000
;
