#TITLE:TITANS RETURN;
#SUBTITLE:;
#ARTIST:L.E.D.;
#TITLETRANSLIT:;
#SUBTITLETRANSLIT:;
#ARTISTTRANSLIT:;
#GENRE:;
#CREDIT:;
#MUSIC:TITANS RETURN.ogg;
#BANNER:TITANS RETURN-bn.png;
#BACKGROUND:TITANS RETURN-bg.png;
#CDTITLE:;
#SAMPLESTART:21.457;
#SAMPLELENGTH:19.562;
#SELECTABLE:YES;
#OFFSET:-0.426;
#BPMS:0.000=194.000
,132.000=97.000
,147.979=194.000
,228.000=97.000
,244.000=194.000
;
#STOPS:;
#BGCHANGES:;
#FGCHANGES:;

//--------------- dance-single - Pandemonium X ----------------
#NOTES:
     dance-single:
     Pandemonium X:
     Beginner:
     5:
     0,0,0,0,0:
0000
0000
0000
0000
,
0000
0000
0000
0000
,
0000
0000
0000
0000
,
0000
0000
0000
0000
,
0000
0000
0000
0000
,
0000
0000
0000
0000
,
0000
0000
0000
0000
,
0000
0000
0000
0000
,
0000
0000
0000
0000
,
0001
0000
0000
0000
,
1000
0000
0000
0000
,
0001
0000
0000
0000
,
0010
0000
0001
0000
,
0100
0000
0000
0000
,
0010
0000
0000
0000
,
0100
0000
0000
0000
,
0010
0000
0000
0010
0000
0000
0010
0000
,
1000
0000
0000
0000
,
0001
0000
1000
0000
,
0100
0000
0000
0000
,
0010
0000
0001
0000
,
0100
0000
0000
0000
,
0010
0000
1000
0000
,
0001
0000
0000
0000
,
1000
0000
0001
0000
,
0100
0100
0000
0000
,
0000
0000
0000
0000
,
0010
0010
0000
0000
,
0000
0000
0000
0000
,
0000
0000
1000
0000
0000
0001
0000
0000
,
0000
0000
0000
0000
,
1000
0000
0001
0000
,
0100
0000
0010
0000
,
1000
0000
0000
0000
,
0001
0000
0000
0000
,
0010
0000
0000
0000
,
0100
0000
1000
0001
,
0100
0000
0000
0000
,
0010
0000
0000
0000
,
1000
0000
0000
0000
,
0001
0001
0001
0000
,
1000
0000
0000
0000
,
0010
0000
0100
0000
,
0001
0000
0000
0000
,
0010
0000
0100
0000
,
1000
0000
0000
0000
,
0001
0000
1000
0000
,
0000
0110
0000
0000
,
0001
0001
1000
0000
,
0010
0000
0000
0000
,
1000
0000
0100
0000
,
0010
0000
0000
0000
,
0100
0000
1000
0000
,
0010
0000
0000
0000
,
0100
0000
0001
0000
,
0010
0000
0100
0000
,
1000
1000
1000
0000
,
0000
0001
0000
1000
,
0000
0010
0100
0000
,
0001
0000
0010
0000
,
0100
0000
1000
1000
,
0001
0000
1000
0000
,
0010
0000
1000
0000
,
0100
0000
0000
0000
,
0010
0010
0010
0000
,
1001
0000
0001
0000
,
1000
0000
0010
0000
,
1001
0000
1000
0000
,
0001
0000
0100
0000
,
1001
0000
0001
0000
,
1001
0000
1000
0000
,
1001
0000
0110
0000
,
0001
0001
1000
1000
,
0110
0000
0000
0000
;

//--------------- dance-single - Pandemonium X ----------------
#NOTES:
     dance-single:
     Pandemonium X:
     Easy:
     8:
     0,0,0,0,0:
0000
0000
0000
0000
,
0000
0000
0000
0000
,
0000
0000
0000
0000
,
0000
0000
0000
0000
,
0000
0000
0000
0000
,
0001
1000
0000
0001
,
1000
0001
0000
1000
,
0001
0001
0100
0100
,
0110
0110
1001
1001
,
1000
0001
0100
0001
,
1000
0100
1000
0001
,
1000
0010
1000
0001
,
0010
0010
0100
0100
,
1000
0001
0010
0010
,
0001
1000
0010
0010
,
1000
0001
0100
0100
,
1001
0000
0000
0110
0000
0000
0001
0000
,
1000
0100
1000
0010
,
0100
0001
0010
0100
,
0010
0001
0100
0010
,
1000
0100
0010
0001
,
0010
0001
0100
0010
,
1000
0010
0100
0001
,
0010
0010
0100
0100
,
1000
0100
0010
0001
,
1001
1001
0000
0000
,
0000
0000
0000
0000
,
0110
0110
0000
0000
,
0000
0000
0000
0000
,
0000
0000
1001
0000
0000
1001
0000
0000
,
0000
0000
0000
0000
,
1001
0000
0001
0000
,
1000
0010
0100
0001
,
0000
1000
0100
0010
,
0000
0100
1000
0001
,
0000
0100
0001
0010
,
0000
0100
0020
0032
,
0103
0010
0100
0010
,
1000
0001
1000
0001
,
0200
0000
0000
0000
,
0310
0010
0010
1001
,
1000
0001
0010
0100
,
1000
0100
1000
0010
,
0100
0001
0010
0001
,
1000
1001
0001
1001
,
0001
1000
0010
1000
,
0010
0100
0001
0010
,
0000
1100
0100
1000
,
0002
1003
2000
3001
,
0100
0001
0010
0001
,
0100
0010
1000
0010
,
0100
0001
0010
0100
,
1000
0100
1000
0010
,
0100
0001
0010
0100
,
1000
0100
0010
0100
,
1000
1000
0100
0100
,
0010
0001
1000
0100
,
0000
1000
0010
0100
,
0000
0001
0020
0230
,
1300
0001
1000
0010
,
0000
0100
0002
2003
,
3001
0100
0001
0010
,
0001
1000
0010
1000
,
0200
0000
0310
0000
,
0001
0001
0001
1001
,
1000
0000
0001
0000
,
0100
0001
0010
0001
,
1000
0000
0010
0000
,
0100
0010
1000
0100
,
0010
0000
0001
0000
,
0100
0001
0010
0001
,
1000
1000
0001
0001
,
0100
0010
1000
0001
,
2002
0000
0000
0000
,
3003
0000
0000
0000
;

//--------------- dance-single - Pandemonium X ----------------
#NOTES:
     dance-single:
     Pandemonium X:
     Medium:
     11:
     0,0,0,0,0:
0000
0000
0000
0000
,
0000
0000
0000
0000
,
0000
0000
0000
0000
,
0000
0000
0000
0000
,
0000
0000
0000
0000
,
0001
0000
0100
0000
0000
0001
1000
0000
,
0001
0000
0010
0000
0000
0001
1000
0000
,
0001
0100
0010
1000
,
0100
0010
0100
1000
0001
0100
0010
0000
,
0100
0000
0001
0000
0010
0001
0010
0000
,
0001
0000
1000
0000
0010
1000
0010
0000
,
1000
0000
0001
0000
0010
0100
0010
0000
,
0001
0100
0010
1000
0100
0010
0001
0000
,
1000
0000
0001
0000
1000
0100
1000
0000
,
0010
0000
0100
0000
0001
0100
0001
0000
,
1000
0000
0001
0000
0010
0100
0010
0000
,
0100
0000
0000
1000
0000
0000
0010
0000
0000
0100
0000
0000
1001
0000
0000
0000
,
1000
0001
0100
0001
0000
0010
0000
0100
,
0000
0010
0000
0001
0000
0100
0010
0000
,
0010
1000
0010
0100
0000
0001
0000
0010
,
0000
0100
0000
1000
0000
0001
0000
1000
,
0100
0010
0100
1000
0000
0001
0000
0100
,
0000
0001
0000
0010
0000
0100
0010
0000
,
0100
0010
0001
0100
0000
0010
0000
0001
,
0000
0010
0000
0100
0000
1000
0000
0100
,
1001
0000
1001
0000
0000
0001
0000
0100
,
0000
0001
0000
0010
0000
0001
0100
0000
,
1010
0000
1010
0000
0000
1000
0000
0010
,
0000
0100
0000
0010
0000
1000
0000
0100
,
0010
0001
0011
0000
0000
1100
0000
0001
,
0000
0100
0000
0010
0000
0100
0001
0000
,
1000
0100
0010
0001
1000
0100
0010
0001
,
0020
0000
0031
0200
0000
0310
2000
0000
,
3000
0001
0100
0010
0100
0001
0010
0001
,
0000
1000
0010
0100
0020
1030
0200
0310
,
0000
0010
0001
0100
0001
0010
0200
0000
,
0300
1000
0100
0010
0200
0000
2300
0000
,
3010
0000
0100
0000
0001
0010
0001
0000
,
0100
0000
0010
0000
1000
0010
1000
0000
,
0002
0000
0000
2003
0000
3010
0200
0000
,
0301
0100
0010
1000
0100
0010
0001
0000
,
1000
0000
1100
0000
0100
1000
0010
0000
,
0100
0000
0101
0000
0001
0010
0100
0000
,
0010
0000
0011
0000
0001
0100
0010
0000
,
0100
0001
0010
0100
0010
0001
1000
0000
,
0001
0000
1001
0000
1000
0001
0100
0000
,
0010
0000
1010
0000
0010
0100
0001
0000
,
0000
0000
1100
0000
0100
0010
0001
0000
,
0020
0000
0130
0020
0000
0130
0020
0000
,
0031
0000
1001
0000
0001
0100
0010
0000
,
1000
0000
1010
0000
0010
0100
0001
0000
,
1000
0000
1001
0000
0010
0100
1000
0000
,
1000
0000
1001
0000
1000
0100
0010
0000
,
0011
0000
0101
0000
0001
0100
0010
0000
,
0110
0000
1010
0000
0010
0100
0001
0000
,
1001
0100
1001
0010
,
0001
0100
0010
1000
0001
0100
0010
0000
,
0000
1000
0100
0100
0010
0010
0001
0001
,
0000
0010
0001
0001
0200
0000
0320
0000
,
2030
3100
0010
0010
0010
0010
0002
0000
,
0003
0100
0100
0100
0200
0301
0020
0130
,
1000
0000
0100
0000
1000
0010
0100
0000
,
0001
0000
0010
0000
0100
0010
0001
0000
,
0200
0000
0320
0000
,
0130
0001
1000
0010
0100
0001
1001
0000
,
1000
0001
0100
0001
0000
0010
0000
0001
,
0000
0100
0000
0001
0000
0010
0011
0000
,
0001
1000
0010
1000
0000
0100
0000
1000
,
0000
0010
0000
1000
0000
0100
0000
1000
,
0010
0100
0010
1000
0000
0001
0000
0010
,
0000
0001
0000
1000
0000
0010
1010
0000
,
1000
0010
1000
0001
0000
0001
0000
0010
,
0000
0100
0000
1000
0000
0100
0000
1000
,
2002
0000
0000
0000
,
3003
0000
0000
0000
;

//--------------- dance-single - Pandemonium X ----------------
#NOTES:
     dance-single:
     Pandemonium X:
     Hard:
     16:
     0,0,0,0,0:
0000
0000
0000
0000
,
0000
0000
0000
0000
,
0000
0000
0000
0000
,
0000
0000
0000
0000
,
0000
0000
0000
0000
,
1000
0001
0100
0000
0000
0010
1001
0000
,
0001
0000
1000
0100
0000
0100
1000
0000
,
0001
0010
0001
1000
0100
1000
0001
1000
,
0010
0100
0010
0000
0100
0001
0100
0000
0001
0010
0001
0000
1001
0000
0000
0000
,
1000
0000
0000
0000
0001
0000
0000
0100
0000
0000
0100
0000
0001
0000
0000
0000
,
0010
0000
0010
0000
0100
0000
0100
1000
0000
0100
0010
0000
0100
0000
0000
0000
,
1000
0000
0000
0000
0010
0000
0000
1000
0000
0000
1000
0000
0010
0000
0000
0000
,
0100
0000
0100
0000
0001
0000
0010
0001
0000
0001
0010
0000
0100
0000
0010
0001
,
0010
0000
0000
0000
0100
0000
0000
0010
0000
0000
0001
0000
1000
0000
0000
0000
,
0010
0000
0010
0000
1000
0000
1000
0001
0000
0001
1000
0000
0100
0000
0000
0000
,
0010
0000
0000
0000
0100
0000
0000
1000
0000
0000
0100
0000
0010
0000
0000
0000
,
0001
0000
0000
1010
0000
0000
0001
0000
0000
1010
0000
1000
0100
0000
0010
0000
,
0001
0001
1000
0001
0100
1000
0100
0010
,
1000
0100
0001
0100
1000
0001
0001
0000
,
1000
1000
0001
1000
0010
0001
0010
0100
,
0001
0010
1000
0010
0001
1000
0000
1000
,
0001
0001
0010
1000
0010
0100
0010
0001
,
0100
0010
0001
0010
0100
0001
1000
0000
,
0100
0100
0010
0010
0001
0001
1000
1000
,
0020
0000
0000
0000
0130
0000
0002
0000
0000
0000
0013
0100
1000
0000
0001
0000
,
1001
1000
1001
0001
0000
0010
0000
0001
,
0000
0100
0000
0010
0000
1000
0001
0000
,
0101
0001
0110
0100
0000
0010
0000
1000
,
0000
0001
0000
1000
0000
0100
0000
1000
,
0001
0100
0101
0000
0000
0011
0000
0001
,
0000
0010
0000
0100
0000
0010
0001
0000
,
1000
0100
0010
0001
1000
0100
0010
0001
,
2000
3020
0032
0023
2030
3200
0302
0203
,
0300
1000
0001
0001
0010
0010
0100
0100
,
0000
0000
0000
1000
0000
0000
0100
0000
0000
0100
0000
0000
1000
0000
1000
0000
1000
0000
0010
0000
0010
0000
0010
0000
,
0000
0000
0000
0100
0000
0000
0001
0000
0000
0001
0000
0000
0010
0000
0000
0010
0000
0000
0100
0010
0100
0010
0001
0010
,
0000
0000
0000
0001
0000
0000
1000
0000
0000
1000
0000
0000
0010
0100
0010
1000
0010
0100
0001
0010
0100
0010
0001
1000
,
0001
0000
1000
0000
0010
0000
0100
0001
0000
0010
0100
0000
0010
0000
0001
0000
,
1000
0000
0010
0000
0100
0000
0010
1000
0000
0100
0010
0000
0100
0000
1000
0000
,
0002
0000
0000
0000
0000
0000
0000
0000
0000
2003
0000
0000
0000
0000
3001
0000
0010
0000
0100
0000
0010
0000
0100
0000
,
1000
0001
1000
0001
1000
0001
1000
0001
1000
0001
1000
0001
1000
0000
0000
0000
,
0001
0000
0100
0000
0001
0000
0010
0100
0000
0010
0001
0000
1000
0000
0000
0000
,
0010
0000
1000
0000
0010
0000
0100
0001
0000
0010
0100
0000
0010
0000
0001
1000
,
0001
0000
1000
0000
0100
0000
0010
0100
0000
0010
0001
0000
1000
0000
0000
0000
,
0001
0000
0010
0000
0100
0000
0010
0001
0000
0100
0010
0000
0100
0000
0010
1000
,
0001
0000
0010
0000
0100
0000
1000
0100
0000
0010
0001
0000
1000
0000
0000
0000
,
0001
0000
0010
0000
0100
0000
1000
0100
0000
0010
0001
0000
1000
0000
0001
0100
,
0010
0000
0000
0000
1001
0000
1000
0100
0000
0010
0001
0000
1000
0000
0001
0000
,
2000
0000
0000
0000
3020
0000
0230
0000
0000
0000
0310
0000
0100
0001
0010
0100
,
0010
0001
0010
0000
0001
0000
0100
0010
0100
0000
0001
0000
1000
0000
0000
0000
,
0100
0010
0100
0000
1000
0000
0010
1000
0010
0000
0100
0000
0001
0000
1000
0000
,
0100
0010
0100
0000
0010
0000
0001
1000
0001
0000
1000
0000
0010
0000
0000
0000
,
0100
0001
0100
0000
0010
0000
0100
0010
1000
0000
0001
0000
0010
0000
0100
0000
,
1000
0010
1000
0000
0010
0000
0100
0001
0010
0000
0100
0000
1000
0000
0000
0000
,
0001
0010
0001
0000
0010
0000
0100
1000
0010
0000
0100
0000
0001
0000
1000
0000
,
0001
0001
1000
1000
0010
0010
0100
0100
,
0001
0100
0001
0000
1000
0010
1000
0000
0100
0010
0100
0000
1001
0000
0000
0000
,
0000
0001
1000
1000
0010
0010
0100
0100
,
0000
0001
0010
0010
0200
0000
2300
3020
,
0230
0000
0000
0301
0000
0000
0001
0000
0000
0001
0000
0000
0001
0000
0000
0001
0000
0000
0001
0010
0001
1000
0100
1000
,
0000
0000
0000
0010
0000
0000
0100
0000
0000
0100
0000
0000
0100
0010
1000
0010
0100
0001
0100
0010
1000
0010
0100
0001
,
1000
0000
0100
0000
0010
0000
0100
1000
0000
0001
0100
0000
0010
0000
1000
0000
,
0001
0000
1000
0000
0001
0000
0010
0001
0000
1000
0010
0000
0100
0000
0001
0000
,
1000
0100
1000
0100
1000
0100
1000
0100
1000
0000
0001
0000
0100
0000
0001
0000
,
0010
0100
0010
0000
0100
1000
0100
0000
1000
0010
1000
0000
1100
0000
0000
0000
,
1000
0100
0001
0100
0000
0010
0000
0001
,
0000
1000
0000
0010
0000
0100
1001
0000
,
0001
0010
1000
0010
0000
0001
0000
1000
,
0000
0010
0000
0001
0000
0010
0000
0100
,
0001
0010
0100
0010
0000
0100
0000
0001
,
0000
0100
0000
1000
0000
0010
1001
0000
,
0001
0001
0100
0100
0010
0010
1000
1000
,
0001
0100
0001
0000
0100
0010
0100
0000
0010
1000
0010
0000
1001
0000
0000
0000
,
0220
0000
0000
0000
,
0330
0000
0000
0000
;
