#TITLE:Synchronize;
#SUBTITLE:;
#ARTIST:causeluve;
#TITLETRANSLIT:;
#SUBTITLETRANSLIT:;
#ARTISTTRANSLIT:;
#GENRE:;
#CREDIT:;
#MUSIC:Synchronize.ogg;
#BANNER:Synchronize.png;
#BACKGROUND:Synchronize-bg.png;
#CDTITLE:;
#SAMPLESTART:57.406;
#SAMPLELENGTH:13.568;
#SELECTABLE:YES;
#OFFSET:-0.603;
#BPMS:0.000=150.000;
#STOPS:;
#BGCHANGES:-1.000=Synchronize.mp4=1.000=0=0=1,
99999.000=-nosongbg-=1.000=0=0=0=StretchNoLoop====
;
#FGCHANGES:;

//--------------- dance-single - Pandemonium X ----------------
#NOTES:
     dance-single:
     Pandemonium X:
     Beginner:
     5:
     0,0,0,0,0:
0000
0000
0000
0000
,
0000
0000
0000
0000
,
0000
0000
0000
0000
,
0000
0000
0000
0000
,
0000
0000
0000
0000
,
0000
0000
0000
0000
,
0000
0000
0000
0000
,
0000
0000
0000
0000
,
0000
0000
0000
0000
,
0000
0000
0000
0000
,
0000
0000
0000
0000
,
0000
0000
0000
0000
,
0001
0000
0000
0000
,
1000
0000
0000
0000
,
0010
0000
0000
0000
,
0100
0000
0000
0000
,
0001
0000
1000
0000
,
0100
0000
0010
0000
,
2002
0000
0000
0000
,
0000
0000
3003
0000
,
0001
0000
0000
0000
,
1000
0000
0001
0000
,
0100
0100
0000
0000
,
0010
0000
0010
0000
,
1000
1000
0000
0000
,
0001
0000
0010
0000
,
0100
0100
0000
0000
,
0010
0000
0001
1000
,
0100
0000
0010
0000
,
0001
0000
0100
0000
,
0010
0000
1000
0000
,
0100
0000
0020
0000
,
0130
0000
0100
0000
,
0010
0000
0010
0000
,
0001
0100
0010
1000
,
2002
0000
3000
0003
,
0100
0100
0010
0000
,
0000
0000
0100
0000
,
0001
0000
0001
0000
,
1000
1000
1100
0000
,
0020
0000
0130
0000
,
0010
0010
0010
0000
,
0100
0000
0001
0000
,
0010
0000
0001
0000
,
0100
0100
0001
0000
,
0010
0000
0011
0000
,
1000
0000
0001
0000
,
0100
0000
0001
1000
,
0100
0000
0011
0000
,
0001
0000
0100
0000
,
0010
0000
0000
0000
1000
0000
0000
2002
,
0000
0000
0000
3003
,
0001
0000
0000
0000
,
1000
0000
0000
0000
,
0100
0000
0000
0000
,
0010
0000
0100
0000
,
1000
0000
0000
0000
,
0001
0000
0000
0000
,
0100
0000
0000
0000
,
0001
0000
0010
0000
,
0100
0100
0100
0000
,
0010
0010
0010
0000
,
0001
0001
0001
0000
,
1000
1000
1000
0000
,
0001
0000
0100
0000
,
0010
0000
1000
0000
,
0001
0100
0010
1000
,
0000
0000
1001
0110
,
0001
0001
0001
0000
,
1000
1000
1000
0000
,
0100
0100
0100
0000
,
0010
0010
0010
0000
,
0001
0100
0001
0000
,
1000
0010
1000
0000
,
0100
1000
0100
0000
,
0010
0001
0010
0000
,
0001
0000
1000
0000
,
0010
0000
0100
0000
,
0001
0000
0010
0000
,
0100
0000
1000
0000
,
0010
0000
0100
0000
,
0001
0000
1000
0000
,
1001
0000
0110
0000
,
1001
0000
0010
0010
,
1001
0000
0000
0000
,
0000
0000
0000
0000
,
0000
0000
0000
0000
,
0000
0000
1000
0001
,
1000
0000
0000
0000
,
0001
0000
0000
0000
,
0010
0000
0000
0000
,
0200
0000
0000
0000
0000
0000
0000
0300
;

//--------------- dance-single - Pandemonium X ----------------
#NOTES:
     dance-single:
     Pandemonium X:
     Easy:
     7:
     0,0,0,0,0:
0000
0000
0000
0000
,
0000
0000
0000
0000
,
0000
0000
0000
0000
,
0000
0000
0000
0000
,
0000
0000
0000
0000
,
0000
0000
0000
0000
,
0000
0000
0000
0000
,
0000
0000
0000
0000
,
0000
0000
0000
0000
,
0000
0000
0000
0000
,
0000
0000
0000
0000
,
0000
0000
1001
0110
,
0001
0000
0101
0000
,
0100
0010
0100
0000
,
0010
0000
1010
0000
,
1000
0001
1000
0000
,
0100
0000
1100
0000
,
0001
0100
0001
0000
,
0220
0000
0000
0000
,
0000
0000
0300
0030
,
1001
0000
0001
0000
,
1000
1000
0100
0000
,
0010
0000
0001
0000
,
0001
0000
0001
0100
,
0010
0010
0100
0001
,
1000
1000
0100
0010
,
0100
0100
0010
0001
,
1000
0001
0100
0010
,
1000
1000
0001
0010
,
0100
0100
0010
0001
,
0010
0010
0001
0100
,
0010
0010
0100
0002
,
1003
1000
0001
0001
,
0100
0100
0010
0010
,
0200
0302
0023
0230
,
2300
0000
0000
0000
3001
0100
0020
0000
,
0130
0001
0100
0001
0100
0000
0010
0000
,
1000
0100
0010
0100
,
1100
0000
0101
0000
,
2001
3002
0203
0000
,
0310
1000
0010
1000
0100
0000
1000
0000
,
0001
0001
0100
0001
,
0020
0000
0032
0000
,
0203
0000
0310
2001
,
3100
1000
0100
0000
1000
0000
0001
0000
,
0100
0001
0010
0001
,
0100
0001
1000
0100
,
1000
0010
0100
0001
,
1000
0001
0100
0100
0001
0000
1000
0000
,
0100
0100
0010
0001
,
0011
0000
0000
0000
1010
0000
0000
2002
,
0000
0000
3000
0003
,
1000
0000
0100
0000
,
0010
0000
0001
0000
,
0100
0000
1000
0000
,
0100
0000
0010
1000
,
0100
0000
0001
0000
,
0100
0000
0010
0000
,
1000
0000
0010
0000
,
0001
0000
0100
1000
,
0100
0100
0010
1000
,
0100
0100
0010
0001
,
0010
0010
1000
0010
,
0001
0001
0100
1000
,
0100
0010
1000
0001
,
0100
0010
1000
0001
,
0100
0010
1000
0001
,
1001
0000
0002
2003
,
3100
0100
0010
0010
,
0001
0001
1000
1000
,
0010
0010
0100
0100
,
0001
0001
1000
1000
,
0100
1100
1000
0010
,
0100
0101
0001
0010
,
0100
1100
0100
1000
,
0020
0000
0000
0030
,
0100
0001
0010
1000
,
0010
0001
0100
1000
,
0100
0010
1000
0100
,
0001
0100
0010
1000
,
0010
0100
0001
0100
,
1000
0010
0001
0010
,
1001
0000
0001
0100
0101
0000
1000
0100
,
1100
0000
0100
0010
0012
0000
2003
0000
,
3010
0000
0100
0000
,
0001
0000
1000
0000
,
0100
0000
0010
0000
,
0100
0000
1000
0001
,
1000
0000
0001
0000
,
0100
0000
0001
0000
,
0010
0000
0001
0000
,
1000
0000
0000
0000
0200
0000
0000
0300
;

//--------------- dance-single - Pandemonium X ----------------
#NOTES:
     dance-single:
     Pandemonium X:
     Medium:
     12:
     0,0,0,0,0:
0000
0000
0000
0000
,
0000
0000
0000
0000
,
0000
0000
0000
0000
,
0000
0000
0000
0000
,
0000
0000
0000
0000
,
0000
0000
0000
0000
,
0000
0000
0000
0000
,
0000
0000
0000
0000
,
0000
0000
0000
0000
,
0000
0000
0000
0000
,
0000
0000
0000
0000
,
0000
0000
0002
2003
,
3010
0000
1010
0000
,
1000
0001
0101
0000
,
0001
0000
0011
0000
,
1000
0100
1100
0000
,
0100
0000
1001
0000
,
0001
1000
0101
0000
,
1020
0000
0000
0000
,
0000
0000
0100
1030
,
0001
1000
0100
1000
,
0010
0100
0001
0010
,
0100
0010
0100
0000
0010
0000
0001
0000
,
0100
1000
0100
0001
,
1001
1000
1000
1000
,
0001
0001
0100
0100
,
0010
1000
0100
0000
0100
0000
0100
0000
,
0010
0010
0011
1100
,
0001
1000
0010
1000
,
0001
0010
0001
1000
,
0010
1000
0001
0010
,
0001
1000
0010
1002
,
0103
0000
0000
0100
0000
0000
0100
0000
0001
0000
0000
0001
0000
0000
0001
0000
,
1000
0000
0000
1000
0000
0000
1000
0000
0100
0000
0000
0100
0000
0000
0100
0000
,
0010
0000
0000
0100
0000
0000
1000
0000
0000
0001
0000
0000
0100
0000
0010
0000
1000
0000
0001
0000
0010
0000
0100
0000
,
0020
0000
0031
1001
,
1100
0100
0100
0010
0001
1000
0010
0100
,
0000
0100
0000
0000
0100
0000
0000
0000
0010
0000
0000
0100
0000
0000
0001
0000
,
1000
0000
0000
1000
0000
0000
1000
0000
0001
0000
0000
0001
0000
0000
0001
0000
,
0012
0000
0023
0000
0130
1000
1000
1000
,
0001
0010
0100
0100
0010
0001
0100
0001
,
0000
0001
0000
0000
0001
0000
0000
0001
0000
1000
0000
0010
0000
0000
0100
0000
,
0201
0310
1020
0130
,
0021
1030
0012
0103
,
0010
0010
0010
0000
0100
0001
1000
0000
,
0100
1000
0100
1000
0200
0320
0032
0000
,
0103
0001
0010
1000
0010
0001
0100
0010
,
0000
0010
0000
0000
0010
0000
0100
0000
0001
0000
0000
0000
2000
0000
0000
0000
,
3100
0100
0010
0010
0001
1000
0010
0000
,
0100
1000
0100
0001
2000
0000
3200
0000
,
0310
0000
0000
0010
0000
0000
0010
0000
0100
0000
0000
0100
0000
0000
2002
0000
,
0000
0000
0003
3000
,
0001
0101
0100
0010
,
1000
1100
0100
1000
,
0010
0110
0100
0001
,
1000
0001
0011
1010
,
1001
0000
0101
0000
0001
0010
0100
0000
,
0010
0000
0011
0000
0001
1000
0100
0000
,
0010
0000
1100
0000
0100
1000
0010
0000
,
0100
0000
0101
0000
0001
1000
0010
0000
,
1000
0100
1000
0000
0001
0000
0101
0000
,
0001
0010
0001
0000
1000
0000
1010
0000
,
0010
0100
0010
0000
0100
0000
0101
0000
,
0001
1000
0001
0000
1000
0000
1100
0000
,
1000
0001
1000
0000
0001
0100
0001
0000
,
0100
0010
0100
0000
0010
1000
0010
0000
,
1000
0100
0010
0001
0010
0100
1000
0001
,
0100
0000
0000
0000
0000
0000
0000
0000
0020
0000
0000
0030
2001
0000
0000
0000
,
3100
0000
0100
0000
0100
0001
0100
1000
,
0010
0000
0010
0000
0010
0001
0010
0100
,
0001
0000
0001
0000
0001
0010
1000
0010
,
0100
0000
0100
0000
0100
0001
0100
1000
,
0001
0000
0101
0000
0001
0100
1000
0100
,
0001
0000
1010
0000
1000
0010
0001
0010
,
0100
0000
0101
0000
0001
0010
1000
0010
,
0100
1000
1010
0101
,
0000
0000
0001
0100
0000
0000
0100
0010
0000
0000
0010
1000
0000
0000
1000
0100
,
0000
0000
0100
0010
0000
0000
0010
0001
0000
0000
0001
1000
0000
0000
1000
0001
,
0000
0000
0001
0100
0000
0000
0100
0010
0000
0000
0010
1000
0000
0000
1000
0100
,
0000
0000
0100
0010
0000
0000
0010
0001
0000
0000
0001
0100
0000
0000
0010
0000
,
1000
0000
0001
0010
0000
0000
0010
0100
0000
0000
0100
1000
0000
0000
1000
0100
,
0000
0000
0100
0010
0000
0000
0010
0001
0000
0000
0001
0100
0000
0000
0100
0010
,
1000
0100
0020
0032
1003
0100
0020
0230
,
1300
0010
1000
0001
1001
0000
0110
0000
,
1002
0003
2000
3000
,
0020
0030
0200
0300
,
0002
0003
0020
0030
,
0200
0300
0110
1001
,
1200
0300
2000
3000
,
0020
0030
0002
0003
,
0020
0030
0200
0300
,
0002
0000
0003
0000
2000
0000
0000
3000
;

//--------------- dance-single - Pandemonium X ----------------
#NOTES:
     dance-single:
     Pandemonium X:
     Hard:
     15:
     0,0,0,0,0:
0000
0000
0000
0000
,
0000
0000
0000
0000
,
0000
0000
0000
0000
,
0000
0000
0000
0000
,
0000
0000
0000
0000
,
0000
0000
0000
0000
,
0000
0000
0000
0000
,
0000
0000
0000
0000
,
0000
0000
0000
0000
,
0000
0000
0000
0000
,
0000
0000
0000
0000
,
0000
0000
2000
3002
,
1003
0010
0000
0100
1001
0000
0001
0100
,
0000
0010
0100
0000
0100
0010
0100
0001
,
1000
0001
0000
1000
1001
0000
1000
0001
,
0000
0010
0001
0000
0200
0000
0302
0000
,
0013
0001
0000
1000
1100
0000
0010
0001
,
0000
0001
0100
0000
0010
1000
0100
0010
,
2002
0000
0000
0000
,
0000
0000
3000
0003
,
0100
0000
0000
0010
0000
0000
0010
0000
0000
0010
0100
0000
0000
0001
0000
0000
,
0010
0000
0010
0100
0000
0000
0100
0010
0100
0000
0000
0010
0000
0000
0100
0000
,
1000
0001
1000
0000
0001
0000
1000
0001
0000
0000
0001
0000
0000
0001
0000
0000
,
0001
0000
0000
0001
0000
0000
0100
0001
0100
0000
0000
0100
0000
0000
0001
0000
,
1000
0001
1000
0000
0001
0100
0000
0010
1000
0000
0001
0100
0000
0010
1000
0000
,
0001
0000
1000
0100
0000
0010
0001
0000
0010
0000
0100
0010
0000
0001
0100
0000
,
0010
0100
0010
0000
0100
0000
0001
0010
0000
0001
1000
0000
0001
0100
0000
0010
,
0100
0000
0001
0010
0000
0100
1000
0000
0001
0100
0000
0010
1000
0000
0001
0000
,
1001
0000
0000
0001
0100
0000
0000
0100
0010
0000
1000
0000
0100
0000
0000
0000
,
1001
0000
0000
1000
0100
0000
0000
0100
0010
0000
0100
0000
1000
0000
0000
0000
,
0101
0000
0000
0010
1000
0000
0000
0010
0100
0000
0001
0000
0100
0000
0000
0000
,
1010
0000
0000
0100
0001
0000
0000
0100
0010
0000
1000
0000
0200
0000
0000
0000
,
0310
0001
0100
0010
1000
0001
0010
0100
,
1000
0100
1000
0000
0010
0000
0100
0000
0001
0100
0001
0000
1000
0000
0001
0000
,
1000
0000
0000
0100
0000
0000
1000
0000
0000
0100
0000
0000
0010
0000
0000
0001
0000
0000
0010
0000
0000
0001
0000
0000
1000
0000
0000
0000
0010
0000
0000
0000
0100
0000
0000
0000
0001
0000
0000
0000
0010
0000
0000
0000
0100
0000
0000
0000
,
2100
0000
0000
0000
0000
0000
0000
0000
3002
0000
0200
0003
0020
0000
0000
0300
,
2030
3000
0200
0300
0020
0030
0020
0030
0021
0000
0130
0000
1001
0000
0001
0000
,
0000
1000
0000
0000
0010
0000
0000
0100
0001
0000
0000
0010
0000
0000
0100
0000
,
2100
0000
0000
3010
0000
0000
0100
0001
0020
0000
0000
0130
0000
0000
1000
0010
,
0200
0000
0000
0000
0001
0000
0000
0000
0310
0000
1000
0100
1000
0100
1000
0100
,
0020
0030
0200
0300
2000
3000
2000
3001
0200
0000
0001
0000
0310
0000
1000
0001
,
0000
1000
0001
0000
1000
0001
0000
1000
0001
0100
0000
0001
0000
0000
0010
0000
,
0010
0100
0010
0100
0010
0100
0010
0100
1000
0001
1000
0001
1000
0001
1000
0001
,
0000
0100
0001
0100
0001
0100
0001
0100
0010
1000
0010
1000
0200
0000
0000
0000
,
0320
0030
0022
0033
2200
3300
0000
0000
1001
0000
0001
0100
0010
0100
0000
0100
,
0001
0010
0001
0010
0001
0010
0001
0010
0001
0000
0010
0000
0200
0000
2300
3020
,
0130
0010
0100
0010
0200
0000
0302
0000
0013
0100
0010
0100
0020
0000
0130
0000
,
0000
1100
0000
0000
1010
0000
0010
0000
0200
0000
0001
0000
0320
0000
0000
0000
,
2030
3000
0002
0003
0022
0033
0220
0330
1001
0000
1000
0100
0010
0100
0000
1000
,
0010
1000
0010
1000
0010
1000
0010
1000
0100
0000
0010
0000
0002
0000
0000
0000
,
0203
0000
0000
0310
0000
0000
1000
0000
2001
0000
0000
3010
0000
0000
0202
0000
,
0000
0000
0003
0300
,
0010
0000
1010
0000
1000
0001
0010
0000
,
0100
0000
0011
0000
0001
0010
0100
0000
,
0010
0000
1100
0000
1000
0010
0100
0000
,
0010
1010
0002
2003
,
3001
0100
0001
0000
0100
0010
0000
0100
0001
0000
0100
0010
0000
0100
0001
0000
,
1000
0001
0000
1000
0010
0000
1000
0001
0000
1000
0010
0000
0100
0001
0000
0010
,
0100
1000
0100
0000
0100
0010
0000
0100
0001
0000
0100
0010
0000
0100
0001
0000
,
0100
0010
0000
0010
0001
0000
0010
0100
1000
0001
1000
0001
1000
0000
0010
0000
,
0100
0001
0100
0001
0100
0010
1000
0001
,
0010
0100
0010
0100
0010
0001
0100
0010
,
1000
0100
1000
0100
0010
0001
0100
0010
,
1000
0001
1000
0001
0010
0100
1000
0001
,
1000
0010
0001
0010
0100
0001
0010
0100
,
1000
0100
0001
0100
0010
0001
0100
0010
,
1000
0001
1000
0001
0100
0010
0100
0010
1000
0010
1000
0010
0100
0001
0010
0100
,
1000
0000
0000
0000
0000
0000
0000
0000
2002
0000
0000
3003
0220
0000
0000
0330
,
1000
0010
1000
0001
0010
1000
0010
0001
,
1000
0001
0100
0001
1000
0100
0001
0100
,
1000
0010
0100
0001
0010
1000
0010
0001
,
0100
0010
1000
0001
0010
1000
0010
0001
,
1000
0000
0010
0000
0100
0000
0010
1000
0001
0000
0010
0000
0100
0000
1000
0100
,
0010
0000
0100
0000
1000
0000
0010
0100
0001
0000
0010
0000
0100
0000
0010
0001
,
0100
0000
0010
0000
1000
0000
0001
0010
0100
0000
1000
0000
0010
0100
0010
0100
,
0001
0010
0100
1000
1100
0000
0101
0000
,
0001
0010
0001
0010
0000
0001
0100
0001
0000
0100
0010
0100
0000
0010
1000
0010
,
0000
1000
0100
1000
0000
0001
0100
0001
0000
1000
0100
1000
0000
0010
1000
0010
,
0000
0100
0001
0100
0000
0010
1000
0010
0000
1000
0001
1000
0000
0001
0010
0001
,
0000
1000
0010
1000
0000
0001
1000
0001
0000
0010
0100
0010
0000
0100
1000
0100
,
0010
0001
0100
0010
0000
0100
0001
1000
0000
0100
0010
0001
0000
0010
0001
0100
,
0000
0001
1000
0010
0000
0100
0001
0010
0000
0100
1000
0001
0000
1000
0001
0100
,
0020
1000
0130
1001
2000
0100
3001
0011
,
1100
0000
0100
0000
0010
0001
0010
0001
2000
0000
0000
0000
3002
0000
0000
0000
,
0103
0000
0000
0001
0000
0000
0010
0000
0001
0000
0000
0100
0000
0000
0010
0000
,
1000
0000
0000
0010
0000
0000
1000
0000
0001
0000
0000
0010
0000
0000
0001
0000
,
1000
0000
0000
0100
0000
0000
0010
0000
0100
0000
0000
1000
0000
0000
0010
0000
,
0100
0000
0000
0001
0000
0000
0010
0000
0100
0000
0000
0000
0010
0000
0000
0000
,
0001
0000
0000
0100
0000
0000
0010
0000
1000
0000
0000
0001
0000
0000
0010
0000
,
0001
0000
0000
1000
0000
0000
0100
0000
0010
0000
0000
0100
0000
0000
1000
0000
,
0010
0000
0000
0100
0000
0000
0001
0000
0010
0000
0000
0100
0000
0000
0010
0000
,
0001
0000
0000
0100
0000
0000
0010
0000
1000
0000
0000
0001
0000
0000
1000
0000
;

//--------------- dance-single - Pandy -True Love Style- ----------------
#NOTES:
     dance-single:
     Pandy -True Love Style-:
     Challenge:
     17:
     0,0,0,0,0:
0000
0000
0000
0000
,
0000
0000
0000
0000
,
0000
0000
0000
0000
,
0000
0000
0000
0000
,
0000
0000
0000
0000
,
0000
0000
0000
0000
,
0000
0000
0000
0000
,
0000
0000
0000
0001
,
1000
0000
0010
0000
,
0100
0000
1000
0100
,
0010
0000
0000
0010
1000
0000
0000
1000
0100
0000
0010
0000
0100
0000
1000
0001
,
1000
0000
0000
0000
0001
0000
0000
0000
2000
0000
0000
3000
M002
0000
0000
0003
,
100M
0100
0000
0010
0011
0000
0001
0010
,
0001
1000
0001
0100
0101
0001
0010
0001
,
1000
0100
0000
0010
0011
0000
1000
0001
,
1000
0000
0100
0000
1100
0000
0100
0000
0020
0000
0000
0030
00M2
0000
0000
0000
,
0103
1000
0100
0010
0100
0001
0010
0001
,
0100
0001
0010
0100
0001
0100
1000
0001
,
4000
0040
0000
0000
0000
0000
0000
0000
0000
0000
0000
0000
0000
0000
0000
0000
,
0000
0000
0000
0000
3030
0000
0000
0000
2000
0000
0000
3000
M002
0000
0000
0003
,
100M
0000
0000
0101
0000
0000
0110
0000
0000
0100
0010
0000
0000
1001
0000
0000
,
1010
0000
0010
0100
0000
0000
0010
0100
0010
0000
0000
1001
0000
0000
0101
0000
,
0001
0010
0001
0000
0100
0000
0001
0100
0000
0000
0110
0000
0000
0110
0000
0000
,
0110
0000
0000
0110
0000
0000
0010
0100
0010
0000
0000
0010
0000
0000
1000
0000
,
0001
1000
0001
0000
1000
0010
0000
0100
0001
0000
1000
0010
0000
0100
0001
0000
,
1000
0000
0001
0010
0000
0100
1000
0000
0100
0000
0010
0100
0000
1000
0010
0000
,
0100
0010
0100
0000
0010
0000
1000
0100
0000
0100
1000
0000
1000
0100
0000
0100
,
1000
0000
0000
0000
1000
0000
0100
0000
0000
0000
0100
0000
1000
0000
0000
0000
1000
0000
0020
0030
0000
0000
0020
0030
0001
0000
0000
0000
1000
0000
0000
0000
,
1001
0000
0001
1000
0001
0000
0010
0001
0010
0000
0100
1000
0100
0000
1000
0000
,
0100
0000
0010
0100
0010
0000
0001
0010
0001
0000
0100
0010
0100
0000
0001
0000
,
0100
0000
0010
0100
0010
0000
0100
0001
0100
0000
0010
1000
0010
0000
0100
0000
,
0010
0000
1000
0001
1000
0000
0010
0100
0010
0000
1000
0000
MM2M
0000
0000
0000
,
1030
0010
1000
0000
0010
0100
0010
0000
0100
0001
0100
0000
0001
0010
0001
0000
,
0010
0100
0010
0100
1000
0100
1000
0010
1000
0010
0100
0010
0100
0001
0100
0001
,
1000
0001
1000
0001
1000
0001
1000
0010
1000
0010
1000
0010
0100
0001
0100
0001
0100
0001
0100
0010
1000
0001
0010
0100
,
2000
0000
0000
0000
0000
0000
0000
0000
3002
0000
0020
0003
0400
0000
0000
0030
,
4300
3000
0400
0300
0040
0030
0040
0030
0021
0000
0130
0000
1001
0000
1100
0000
,
0000
0000
0000
0000
0000
0000
0011
0000
0000
0000
0000
0000
0000
0000
0000
0000
0000
0000
0000
0000
0000
0000
0000
0000
0101
0000
0000
0000
0000
0000
0000
0000
0000
0000
0000
0000
0000
0000
0000
0000
0000
0000
0010
0000
0000
0000
0000
0000
2000
0000
0000
0000
3000
0000
0000
0000
0000
0000
0000
0000
0000
0000
0000
0000
0000
0000
0200
0000
0000
0300
0000
0000
0000
0000
0000
0000
0000
0000
0000
0000
0000
0000
0000
0000
0020
0000
0000
0030
0000
0000
0000
0000
0000
0000
0000
0000
,
0012
0000
0003
010M
0000
0000
0010
1000
1200
0000
0300
0M10
0000
0000
0001
0100
,
0040
4000
0000
0000
0000
0000
3030
0000
0001
01M0
10M0
01M0
00M1
01M0
10M0
00M1
,
0400
0300
0040
0030
0400
0300
0004
1003
0020
0000
1030
0000
1001
0000
0002
1003
,
000M
0000
0002
0000
1003
0000
000M
0000
0002
0000
1003
0000
000M
0000
0001
0000
1000
0000
0020
0030
0000
0000
2000
3000
0000
0000
0000
0000
0020
0030
0000
0000
,
0100
0010
0100
0010
0100
0010
0100
0010
1000
0001
1000
0001
1000
0001
1000
0001
,
M000
0100
0001
0100
0001
0100
0001
0100
0010
1000
0010
1000
0200
0000
0000
0300
,
M22M
0330
22MM
3300
MM22
0033
0000
0000
1001
0000
1000
0010
0100
0010
0M00
0010
,
1000
01M0
00M1
01M0
10M0
01M0
00M1
01M0
4000
0000
3400
0000
0340
0000
0034
0403
,
0310
0000
0000
0100
0000
0000
0001
0000
0000
0010
0000
0000
0400
0000
0000
0000
0000
0000
1300
0000
0100
0000
0010
0000
0100
0000
0000
0010
0000
0000
0100
0000
0000
0010
0000
0000
0200
0000
0000
0000
0000
0000
0310
0000
0000
0000
0000
0000
,
0000
0011
0000
0000
0101
0000
0100
0000
0020
0000
1000
0000
0230
0000
0000
0000
,
0302
0000
0000
0003
0000
0000
2000
0000
0000
3000
0000
0000
0202
0000
0303
0000
0000
0000
2M2M
0000
3030
0000
0000
0000
1001
0000
0000
0000
0000
0000
0001
0000
0000
0010
0000
0000
0100
0000
0000
0010
0000
0000
0000
0000
0000
0M01
0000
0000
,
0M10
1M00
0M10
0M01
0M10
1M00
0M10
0M01
0M10
0000
0100
0000
4000
0000
0001
0000
,
3020
0000
0000
0130
0000
0000
0010
0000
1002
0000
0000
1003
0000
0000
0020
0400
,
0000
0000
0000
0330
,
2001
0000
0000
3000
M011
0000
0000
0001
0100
0000
0010
0000
1001
0000
0000
0000
,
1002
0000
0000
0003
101M
0000
0000
1000
0100
0000
0010
0000
0110
0000
0100
1000
,
1002
0000
0000
0003
011M
0000
0000
1000
0001
0000
0010
0000
0110
0000
0000
0000
,
1100
0000
0400
0040
0000
0000
0000
0330
1MM1
0000
0000
0000
M11M
0000
0000
0000
,
1000
0010
1000
0000
0010
0100
0000
0010
1000
0000
0010
0100
0000
0010
1000
0000
,
0001
1000
0000
0001
0100
0000
0001
1000
0000
0001
0100
0000
0010
1000
0000
0100
,
0010
0001
0010
0000
0010
0100
0000
0010
1000
0000
0010
0100
0000
0010
1000
0000
,
0010
0100
0000
0100
1000
0000
0100
0010
0001
1000
0001
1000
0001
0000
0100
0000
,
0020
1030
0020
1030
0020
0130
0002
2003
,
3200
0310
0200
0310
0200
1300
0020
0230
,
0302
0013
0002
0013
0200
1300
0020
0230
,
0301
0000
0000
0000
0000
0000
1000
0000
0100
0000
1000
0000
0100
0000
0000
1000
0000
0000
0010
0000
0000
0000
0000
0000
0100
0000
0000
0000
0000
0000
0010
0000
0000
0000
0000
0000
0100
0000
0001
0000
0100
0000
0001
0000
0000
1000
0000
0000
,
0001
0100
0001
0000
0100
0010
0100
0000
0010
1000
0010
0000
1000
0100
1000
0000
,
0001
0010
0001
0000
1000
0001
1000
0000
0001
0100
0001
0000
1000
0010
1000
0000
,
0001
0000
0000
0100
0000
0000
0010
0000
0000
1000
0000
0000
0100
0000
0000
0010
0000
0000
0001
0000
0000
0010
0000
0000
0001
0000
0100
0000
0001
0000
1000
0000
0010
0000
1000
0000
0001
0000
0010
0000
0100
0000
1000
0000
0100
0000
0010
0000
,
0001
0000
0000
0000
0000
0000
0000
0000
2MM2
0MM0
0MM0
3MM3
M22M
M00M
M00M
M33M
,
1MM1
0000
0000
0000
0000
0000
0000
0000
1000
0000
0000
0000
0000
0000
0000
0000
0100
0000
0000
0000
0000
0000
0000
0000
1000
0000
0000
0000
0000
0000
0000
0000
0020
0030
0000
0000
0000
0000
0000
0000
0020
0030
0000
0000
0000
0000
0000
0000
0001
0000
0000
0000
0000
0000
0000
0000
1000
0000
0000
0000
0000
0000
0000
0000
,
0001
0000
0000
0000
0000
0000
0000
0000
0100
0000
0000
0000
0000
0000
0000
0000
0001
0000
0000
0000
0000
0000
0000
0000
1000
0000
0000
0000
0000
0000
0000
0000
0020
0030
0000
0000
0000
0000
0000
0000
0020
0030
0000
0000
0000
0000
0000
0000
0001
0000
0000
0000
0000
0000
0000
0000
1000
0000
0000
0000
0000
0000
0000
0000
,
0001
0000
0000
0000
0000
0000
0000
0000
0010
0000
0000
0000
0000
0000
0000
0000
0001
0000
0000
0000
0000
0000
0000
0000
1000
0000
0000
0000
0000
0000
0000
0000
0200
0300
0000
0000
0000
0000
0000
0000
0200
0300
0000
0000
0000
0000
0000
0000
0001
0000
0000
0000
0000
0000
0000
0000
1000
0000
0000
0000
0000
0000
0000
0000
,
0010
0000
0000
0000
0000
0000
0000
0000
0100
0000
0000
0000
0000
0000
0000
0000
0001
0000
0000
0000
0000
0000
0000
0000
1000
0000
0000
0000
0000
0000
0000
0000
0200
0300
0000
0000
0000
0000
0000
0000
0200
0300
0000
0000
0000
0000
0000
0000
0001
0000
0000
0000
0000
0000
0000
0000
1000
0000
0000
0000
0000
0000
0000
0000
,
0001
0000
0010
0000
0110
0000
0100
0010
0001
0000
0100
0000
0101
0000
0100
0001
,
1000
0000
0100
0000
0110
0000
0010
0001
1000
0000
0001
0000
0101
0000
0001
0100
,
0010
0000
1000
0000
1100
0000
0100
0010
0001
0000
1000
0000
0100
0010
0100
0010
,
0001
0000
0000
0000
0000
0000
0000
0000
0100
0000
0000
0000
0000
0000
0000
0000
0010
0000
0000
0000
0000
0000
0000
0000
1000
0000
0000
0000
0000
0000
0000
0000
2020
0000
0000
0000
0000
0000
0000
0000
0000
0000
0000
0000
0000
3030
0000
0000
M1M1
0000
0000
0000
0000
0000
0000
0000
0000
0000
0000
0000
0000
0000
0000
0000
,
1000
0100
1000
0100
0000
1000
0010
1000
0000
0010
0100
0010
0000
0100
0001
0100
,
0000
0001
0010
0001
0000
1000
0010
1000
0000
0001
0010
0001
0000
0100
0001
0100
,
0000
0010
1000
0010
0000
0100
0001
0100
0000
0001
1000
0001
0000
1000
0100
1000
,
0000
0001
0100
0001
0000
1000
0001
1000
0000
0100
0010
0100
0000
0010
0001
0010
,
0100
1000
0010
0100
0000
0010
1000
0001
0000
0010
0100
1000
0000
0100
1000
0010
,
0000
1000
0001
0100
0000
0010
1000
0100
0000
0010
0001
1000
0000
0001
1000
0010
,
0200
0001
031M
1001
0002
0010
10M3
0110
,
1MM1
0000
1000
0000
0001
1000
0001
1000
0002
0000
0000
0003
200M
0000
0000
3000
,
M010
0000
0000
1000
0000
0000
0100
0000
1000
0000
0000
0010
0000
0000
0100
0000
,
0001
0000
0000
0100
0000
0000
0001
0000
1000
0000
0000
0100
0000
0000
1000
0000
,
0001
0000
0000
0010
0000
0000
0100
0000
0010
0000
0000
0001
0000
0000
0100
0000
,
0010
0000
0000
1000
0000
0000
0100
0000
0M10
0000
0000
0000
01M0
0000
0000
0000
,
1M00
0000
0000
0010
0000
0000
0100
0000
0001
0000
0000
1000
0000
0000
0100
0000
,
1000
0000
0000
0001
0000
0000
0010
0000
0100
0000
0000
0010
0000
0000
0001
0000
,
0100
0000
0000
0010
0000
0000
1000
0000
0100
0000
0000
0010
0000
0000
0100
0000
,
1000
0000
0000
0010
0000
0000
0100
0000
0001
0000
0000
2000
0000
0000
0002
0000
,
3003
0000
0000
0000
;
