#TITLE:Spooky;
#SUBTITLE:;
#ARTIST:good-cool;
#TITLETRANSLIT:;
#SUBTITLETRANSLIT:;
#ARTISTTRANSLIT:;
#GENRE:;
#CREDIT:;
#MUSIC:Spooky.ogg;
#BANNER:Spooky-bn.png;
#BACKGROUND:Spooky-bg.png;
#CDTITLE:;
#SAMPLESTART:5.537;
#SAMPLELENGTH:14.063;
#SELECTABLE:YES;
#OFFSET:1.320;
#BPMS:0.000=140.000
,271.500=455.000
;
#STOPS:;
#BGCHANGES:3.000=Spooky.mp4=1.000=0=0=1,
99999.000=-nosongbg-=1.000=0=0=0=StretchNoLoop====
;
#FGCHANGES:;

//--------------- dance-single - Pandemonium X ----------------
#NOTES:
     dance-single:
     Pandemonium X:
     Beginner:
     4:
     0,0,0,0,0:
0000
0000
0000
0000
,
0000
0000
0000
0000
,
0000
0000
0000
0000
,
0000
0000
0000
0000
,
0001
0000
1000
0000
,
0010
0000
0000
0000
,
0000
1001
0000
0000
,
0000
0000
0000
1000
,
1000
0000
0001
0000
,
0010
0000
0000
0000
,
0000
0110
0000
0000
,
0001
0000
0001
0000
,
1000
0000
0001
0000
,
0100
0000
0000
0000
,
0010
0000
0000
0000
,
1000
1000
0000
0000
,
1001
0000
1000
0000
,
0001
0000
0000
0000
,
0010
0000
0001
0000
,
1000
1000
1000
1000
,
0001
0000
1000
0000
,
0010
0000
1000
0000
,
0100
0000
0000
0000
,
0100
0000
0010
0010
,
0001
0000
2000
0000
,
0000
0000
0000
0000
,
0000
0000
3000
0000
,
0001
0000
1000
0000
,
0010
0000
0100
0000
,
0001
0001
0001
0000
,
1000
0000
0100
0000
,
0010
0000
0001
0000
,
0001
0000
1000
0000
,
0100
0100
0100
0000
,
0010
0000
0100
0000
,
1000
1000
0001
0001
,
0100
0000
0001
0000
,
0010
0000
0100
0000
,
1000
0010
0000
0100
,
0000
1001
0000
0000
,
0001
0000
1000
0000
,
0100
0000
0010
0000
,
1001
0000
0110
0000
,
1001
0110
1001
0000
,
0001
0001
0001
0000
,
0100
0000
0010
0000
,
1000
1000
1000
0000
,
0200
0000
0000
0300
,
0010
0010
0010
0000
,
0100
0000
1000
0000
,
0010
0010
0010
0000
,
0200
0000
0000
0300
,
0001
1000
0010
0100
,
0001
0020
0000
0000
,
0030
0100
0000
0000
,
0000
0200
0000
0300
,
2000
0000
0000
3000
,
0010
0200
0000
0300
,
0000
0010
0000
0000
,
0100
0000
0001
0000
,
1000
0001
0100
0010
,
2000
0000
0000
3000
,
0000
1001
0000
0000
,
0001
0100
1000
0100
,
0002
0000
0000
0003
,
0020
0000
0000
0030
,
0000
0110
0000
0000
,
1000
0000
0001
0000
0100
0000
0000
1001
;

//--------------- dance-single - Pandemonium X ----------------
#NOTES:
     dance-single:
     Pandemonium X:
     Easy:
     7:
     0,0,0,0,0:
0000
0000
0000
0000
,
0000
0000
0000
0000
,
0000
0000
0000
0000
,
0000
0000
0000
0000
,
0002
0203
0320
2030
,
3200
0310
0100
1000
,
0001
0000
0100
0001
0000
0000
0000
0000
,
1000
0001
0010
0100
,
2000
3100
0010
0001
,
0200
0310
0100
0001
,
1000
0000
0100
0010
0000
0000
0100
0000
,
1000
0001
0100
0001
,
1000
0100
0010
0001
,
0200
0000
0000
0000
0000
0320
0000
0000
,
0130
0001
1000
0100
,
0011
1100
1000
0001
,
1000
0100
0010
0100
,
0020
0000
0000
0000
0000
0230
0000
0000
,
0310
0001
1000
0010
,
0101
1010
0101
1010
,
0001
0000
1000
0000
,
0010
0000
0100
0000
,
1001
0000
0100
0000
,
1001
0000
0010
0010
,
1001
0000
0001
0000
,
1000
0000
0100
0000
,
0010
0000
0001
0000
,
0100
0001
1000
0100
,
1000
0100
0001
0100
,
1000
0000
0000
0000
,
0001
0100
0010
1000
,
0001
0010
0100
1000
,
0001
0100
1000
0100
,
0001
0000
0000
0000
,
1000
0001
0010
0100
,
2000
3200
0320
0032
,
1003
0010
0100
0001
,
0010
0100
1000
0001
,
1000
0020
0000
0130
,
0000
1001
0000
0000
,
0001
1000
0100
1000
,
0001
0100
0010
1000
,
1001
0000
0110
0000
,
1001
0110
1001
0110
,
0001
1000
0001
0010
,
0001
1000
0100
0010
,
0100
1000
0010
0100
,
2000
3200
0302
2003
,
3100
0010
0001
0010
,
0100
0010
0001
1000
,
0100
0010
0100
1000
,
0002
0203
0320
2030
,
3001
0101
1001
1100
,
0110
0002
0100
0103
,
0001
0000
1000
0001
0010
0000
0100
0000
,
1000
0200
1000
1300
,
0100
1000
0010
0100
,
0010
0200
0001
0301
,
1000
0000
0001
0010
0001
0000
0010
0000
,
0100
1000
0000
0000
1000
0000
1000
1000
,
0002
0203
0320
2030
,
3200
0320
0032
2003
,
3002
0203
0320
2030
,
3100
0000
0011
0000
1001
0000
0001
1000
,
0002
0203
0320
2030
,
3200
0320
0032
0023
,
0230
0320
0032
2003
,
3001
0000
1010
0000
1001
0000
0100
2002
,
0000
0000
0000
0000
,
0000
0000
0000
0000
,
0000
0000
0000
0000
,
0000
0000
0000
0000
,
0000
0000
0000
0000
,
0000
0000
0000
0000
,
0000
3003
0000
0000
;

//--------------- dance-single - Pandemonium X ----------------
#NOTES:
     dance-single:
     Pandemonium X:
     Medium:
     11:
     0,0,0,0,0:
0000
0000
0000
0000
,
0000
0000
0000
0000
,
0000
0000
0000
0000
,
0000
0000
0000
0000
,
2000
3200
0320
0032
,
2003
0001
3001
0100
,
0010
0000
1001
1001
0001
0000
0010
0000
,
0001
0000
1000
0000
0100
0000
0010
0100
,
2000
0000
3200
0000
0320
0000
0031
0100
,
0020
0230
0302
1003
,
0010
0000
1001
1001
0001
0000
1000
0000
,
0001
0100
0000
0000
0100
0100
0000
0100
,
0020
2030
3002
0023
,
0230
0000
2300
0000
3100
2000
0000
0000
,
3010
0000
0010
0000
0100
0000
0100
0000
0001
0000
0000
0001
0000
0000
0001
0000
,
1001
0000
0000
0000
0110
0000
0000
0000
1000
0000
0000
1000
0000
0000
1000
0000
,
0002
0000
0203
0000
0320
0000
1030
0010
,
0200
0000
0302
0000
0013
0200
0000
0000
,
1000
0000
1300
0000
0100
0000
1000
0000
0010
0000
0000
0010
0000
0000
0100
0000
,
0110
1001
0110
1001
,
0001
0000
0000
0001
0000
0000
0001
0000
1000
0000
0000
1000
0000
0000
1000
0000
,
0010
0000
0000
0010
0000
0000
0010
0000
0100
0000
0000
0100
0000
0000
0100
0000
,
0110
0000
0000
0010
0000
0000
0010
0000
0100
0000
0000
0100
0000
0000
0101
0000
,
0101
0000
0000
0001
0000
0000
0001
0000
1000
0001
0000
1000
0001
0000
1000
0000
,
1100
0000
0000
0100
0000
0000
0100
0000
0010
0000
0000
0010
0000
0000
0010
0000
,
0001
0000
0000
0001
0000
0000
0001
0000
1000
0000
0000
1000
0000
0000
1000
0000
,
0010
0000
0000
0010
0000
0000
0010
0000
0100
0000
0000
0100
0000
0000
0100
0000
,
0010
1000
0001
0010
0100
1000
0001
0000
,
1000
0100
0001
0100
1000
0010
0100
1000
,
0100
0001
1000
0100
,
0010
0001
0010
0000
0100
1000
0100
0000
,
1000
0010
1000
0000
0001
0100
0001
0000
,
0001
0010
1000
0010
0001
0100
0010
0001
,
0010
1000
0001
0010
,
0100
1000
0100
0000
0010
0001
0010
0000
,
0100
0000
0100
0000
0100
1000
0000
0001
0000
1000
0010
0000
0100
0000
0010
0000
,
1001
0001
0100
0010
2000
0000
3010
0100
,
0002
0000
0103
0010
2000
0000
3200
0000
,
0310
0100
1000
0000
0100
0000
0020
0000
,
0031
0000
0000
0000
1000
0200
0000
0000
0000
0000
0010
0000
0000
0000
0310
0000
,
1001
1000
0100
0010
0002
0000
0013
0100
,
2000
0000
3100
0010
0002
0000
0103
0010
,
1001
0000
0000
0100
1001
0000
0000
0010
,
1001
0000
0000
0000
1001
0000
0000
0000
0001
0100
0000
0010
1000
0000
0100
0000
,
0010
0000
0100
1000
0100
0000
0000
0000
1000
0001
1000
0000
0000
0000
0000
0000
,
0001
0000
0000
0000
0100
0000
0000
0000
0010
0000
0000
1000
0000
0000
0001
0000
,
1000
0000
0100
1000
0100
0000
0000
0000
0010
0001
0010
0000
0000
0000
0000
0000
,
0001
2000
3020
0230
0302
0023
0230
2300
,
3000
0000
0100
1000
0100
0000
0000
0000
0010
0001
0010
0000
0000
0000
0000
0000
,
0001
0000
0000
0000
1000
0000
0000
0000
0100
0000
0000
0100
0000
0000
0100
0000
,
1000
0000
0010
0100
0010
0000
0000
0000
1000
0001
1000
0000
0000
0000
0000
0000
,
1000
0010
0100
0001
0010
0100
1000
0001
,
2000
3200
0320
0032
,
0203
0000
0320
0000
0130
0000
0001
1000
,
0100
0000
1001
1001
0001
0000
0100
0000
,
0001
0000
0021
0000
0130
0000
0010
0001
,
0100
0010
1000
1000
0001
0000
1000
0100
,
0020
0230
1000
1300
,
0001
0000
1001
1001
1000
0000
0001
0000
,
0100
0001
0000
0000
0001
0000
0001
0001
,
1000
0100
0010
0001
0010
0100
1000
0010
,
0100
0001
0010
0100
1000
0100
0010
0001
,
1000
0010
0100
0001
0010
0100
1000
0001
,
1001
0110
2002
3003
,
1000
0010
1000
0001
0010
0100
0010
0001
,
0100
0010
1000
0100
0010
0100
1000
0001
,
0010
0100
0010
0001
0100
0010
1000
0001
,
1001
0000
0110
0000
1001
0000
0000
0220
,
0000
0000
0000
0000
,
0000
0000
0000
0000
,
0000
0000
0000
0000
,
0000
0000
0000
0000
,
0000
0000
0000
0000
,
0000
0000
0000
0000
,
0000
0330
0000
0000
;

//--------------- dance-single - Pandemonium X ----------------
#NOTES:
     dance-single:
     Pandemonium X:
     Hard:
     15:
     0.687325,0.852014,0.336052,0.327855,0.557354,587,546,41,40,91,0,0.687325,0.852014,0.336052,0.327855,0.557354,587,546,41,40,91,0:
0000
0000
0000
0000
,
0000
0000
0000
0000
,
0000
0000
0000
0000
,
0000
0000
0000
0000
,
0101
0011
1100
1001
,
1010
0000
1000
0100
1000
0000
0001
0000
0100
0010
0100
0000
0001
0000
1000
0100
,
0010
0000
0001
0000
0011
0000
0011
0000
0001
0100
0001
0000
1000
0001
1000
0000
,
0001
0000
0100
0010
0100
0000
0001
0000
0010
0100
0010
0000
0100
0010
0001
0000
,
2000
0000
0100
0000
0010
0000
3001
0100
,
2000
0000
0000
0000
3100
0000
0000
0000
0001
0100
0001
0000
0010
0000
0001
1000
,
0001
0000
1000
0000
1100
0000
1100
0000
0001
0100
0001
0000
1000
0100
1000
0000
,
0100
1001
0001
0100
1010
0101
0001
1100
,
0001
0000
1000
0100
0010
0000
0001
0000
0200
0000
0000
0000
0301
0000
1000
0000
,
0200
0000
0000
0000
0010
0000
0000
0000
1300
0000
0020
0000
0000
0000
0130
0001
,
0010
0000
0100
0000
0010
0000
0001
1000
0001
0000
1000
0100
0000
0100
0010
0000
,
0021
0000
0000
0030
01M0
0000
0010
0001
1000
0000
0001
0100
0000
0100
0001
0000
,
1000
0000
0001
0100
0010
0000
1000
0000
0200
0000
0000
0000
1300
0000
0001
0000
,
0200
0000
0000
0000
0010
0000
0000
0000
0301
0000
0020
0000
0000
0000
0130
1000
,
0010
0000
0100
0000
0010
0000
1000
0001
1000
0000
0001
0100
0000
0100
0010
0000
,
1020
0000
0000
0030
01M0
0000
0000
0000
0102
0000
0000
0003
001M
0000
0000
0000
,
0100
0000
0000
0100
0000
0000
1000
0000
0010
0000
0000
0200
0000
0000
0001
0000
,
0001
0000
0000
0010
0000
0000
0320
0000
1000
0000
0000
1000
0000
0000
0130
0000
,
0101
0000
0000
0001
0000
0000
1000
0000
0001
0000
0000
1000
0000
0000
0011
0000
,
1001
0000
0000
0000
0000
0000
0000
0000
0000
1000
0000
0000
0000
0000
0000
0000
0000
0000
0001
0000
0000
0000
0000
0000
1000
0000
0000
0200
0300
0000
0000
0000
0000
0200
0300
0000
0001
0000
0000
0000
0000
0000
1000
0000
0000
0000
0000
0000
,
1001
0000
0000
0001
0000
0000
0001
0000
0100
0000
0000
0001
00M0
0000
10M0
0000
,
01M0
0000
00M0
1000
00M0
0000
00M1
0000
10M0
0000
00M0
0001
00M0
0000
10M0
0000
,
01M0
0000
00M0
1000
00M0
0000
00M1
0000
01M0
0000
0000
0001
0000
0000
0010
0000
,
0100
1000
0000
0100
0010
0000
0001
0100
0000
0010
1000
0010
1000
0000
0001
0000
,
1000
0100
0001
0100
1000
0001
0100
1000
,
0200
0001
0010
1300
,
1000
0100
0001
0010
0100
0010
0001
1000
,
0100
0001
0100
1000
0010
0100
1001
0000
,
0001
0010
1000
0010
0001
1000
0010
0001
,
0020
1000
0100
0031
,
0001
0010
1000
0100
0010
0100
1000
0001
,
1000
0010
2000
0000
3001
0100
0002
0000
0013
0100
0010
0100
1000
0001
1000
0001
,
0100
0001
0010
1000
0020
0000
0130
0010
,
0002
0000
0013
0100
2000
0000
3001
0011
,
1100
0002
0100
2003
,
3100
0000
0000
0000
1001
2002
0000
0000
0000
3000
1000
0000
0000
0000
1003
0000
,
0100
1000
0010
0001
0020
0000
0130
0010
,
2000
0000
3010
0100
0002
0000
1003
1010
,
0101
0000
0001
0011
1100
0000
1000
0001
,
0110
0000
0000
0000
0110
0000
0000
0000
0001
0100
0000
0010
1000
0000
0100
0000
,
0010
0000
0001
0000
0100
0000
0001
1000
0100
0000
0010
0001
0000
0010
0100
0000
,
1000
0000
0001
0000
0100
0000
0001
0010
0100
0000
1000
0100
0000
0010
0001
0000
,
0100
0000
0010
0000
1000
0000
0100
1000
0010
0000
1000
0010
0000
0100
0001
0000
,
1000
0100
0001
0100
1000
0000
0020
0000
0031
0010
2000
0000
3100
0010
0002
0000
,
1003
0000
0001
0000
0010
0000
0100
0010
0001
0000
0010
0001
0000
1000
0100
0000
,
0010
0000
0100
0000
1000
0000
0010
0100
0001
0000
0100
0001
0000
1000
0010
0000
,
0100
0000
0001
0000
0100
0000
0100
0001
1000
0000
1000
0001
0000
0100
0010
0000
,
1000
0010
1000
0010
0100
0001
0100
0001
0010
0100
1000
0010
0100
0001
1000
0100
,
1000
0000
0001
0100
0001
0000
0100
0000
0010
1000
0010
0000
0100
0001
0100
0000
,
0001
0000
0010
0001
0M10
0000
0M01
0000
1M00
0010
1M00
0000
0M01
0010
0001
0000
,
1000
0000
0001
0100
0001
0000
0011
0000
0010
0100
0010
0000
0100
1000
0100
0000
,
1000
0000
0001
0010
0M01
0000
1M00
0000
0M10
1000
0M10
0000
1M00
0001
1000
0001
,
1000
0000
0001
0010
0001
0000
0100
0000
0010
1000
0010
0000
0100
0001
0100
0000
,
0001
0000
1000
0001
10M0
0000
00M1
0000
10M0
0100
10M0
0000
00M1
0100
0001
0000
,
1000
0001
1000
0001
0100
0000
0010
0000
1000
0100
1000
0000
0001
0010
0001
0000
,
1000
1010
0001
1000
0011
1100
0101
1010
,
0002
0000
0000
1003
0020
0000
0000
0130
0002
0000
0000
0013
0200
0000
0000
1300
,
0001
0000
1000
0010
1M00
0000
0M01
0000
1M00
0001
0M10
0000
0M10
0001
0010
0100
,
1000
0000
0001
0010
0100
0000
1001
0000
0001
1000
0100
0000
1000
0001
0010
0100
,
0020
0000
1000
0000
0031
0100
0010
1000
,
1001
0000
0001
0000
0100
0001
0100
0000
0010
1000
0010
0000
1000
0100
1000
0000
,
0001
0000
1000
0001
01M0
0000
00M1
0000
01M0
0001
10M0
0000
0100
1000
0100
0010
,
0100
0000
0010
0001
0100
0000
1001
0000
1000
0001
0010
0000
0001
1000
0100
0010
,
0200
0000
0001
0000
1300
0010
0100
2002
,
00M0
0M00
00M0
0M00
00M0
0M00
00M0
0M00
,
00M0
0M00
00M0
0M00
00M0
0M00
00M0
0M00
,
00M0
0M00
00M0
0M00
00M0
0M00
00M0
0M00
,
00M0
0M00
00M0
0M00
00M0
0M00
00M0
0M00
,
00M0
0M00
00M0
0M00
00M0
0M00
00M0
0M00
,
00M0
0M00
00M0
0M00
00M0
0M00
00M0
0M00
,
00M0
3003
0000
0000
;
