#TITLE:Spinning Around;
#SUBTITLE:;
#ARTIST:Dirty Androids;
#TITLETRANSLIT:;
#SUBTITLETRANSLIT:;
#ARTISTTRANSLIT:;
#GENRE:;
#CREDIT:;
#MUSIC:Spinning Around.ogg;
#BANNER:;
#BACKGROUND:Spinning Around-bg.png;
#CDTITLE:;
#SAMPLESTART:76.533;
#SAMPLELENGTH:14.884;
#SELECTABLE:YES;
#OFFSET:1.607;
#BPMS:0.000=129.000;
#STOPS:;
#BGCHANGES:;
#FGCHANGES:;

//--------------- dance-single - Pandy as "Spin2Win" ----------------
#NOTES:
     dance-single:
     Pandy as "Spin2Win":
     Beginner:
     3:
     0,0,0,0,0:
0000
0000
0000
0000
,
0000
0000
0000
0000
,
0000
0000
0000
0000
,
0000
0000
0000
0000
,
0000
0000
0000
0000
,
0001
0000
0000
0000
,
1000
0000
0000
0000
,
0001
0000
0000
0000
,
1000
0000
0000
0000
,
0010
0000
0000
0000
,
0100
0000
0000
0000
,
0020
0000
0000
0030
,
1001
0000
0000
0000
,
1000
0000
0000
0000
,
0100
0000
0000
0000
,
0010
0000
0000
0000
,
0001
0000
0000
0000
,
0100
0000
0000
0000
,
0010
0000
0000
1000
,
0001
0000
1000
0000
,
0010
0010
0100
0100
,
0001
0000
0000
0000
,
0010
0000
0000
0000
,
0100
0000
0000
0000
,
1000
0000
0000
0000
,
0010
0000
0000
0000
,
0100
0000
0000
0000
,
0001
0000
0000
0000
,
1000
0000
0000
0000
,
0001
0001
0001
0000
,
1000
1000
1000
0000
,
0100
0100
0100
0000
,
0010
0010
0010
0000
,
0100
1000
0100
0000
,
0010
0001
0010
0000
,
0001
0100
0001
0000
,
1000
0010
1000
0000
,
1001
0000
0000
0000
,
1001
0000
0000
0000
,
1001
0000
1001
0000
,
1001
1001
1001
1001
,
0000
0000
0000
0000
,
0001
0000
0000
0000
,
0100
0000
0000
0000
,
1000
0000
0000
0000
,
0010
0000
0000
0000
,
0001
0000
0000
0000
,
0100
0000
0000
0000
,
1000
0000
0000
0000
,
0010
0000
0000
0000
,
0001
0000
0000
0000
,
1000
0000
0000
0000
,
0100
0000
0100
0000
,
0100
0000
0000
0000
,
1000
0000
0000
0000
,
0001
0000
0000
0000
,
0100
0000
0100
0000
,
0100
0100
0100
0000
,
0110
0000
0000
0000
,
0001
0000
0000
0000
,
1000
0000
0000
0000
,
0100
0000
0100
0000
,
0100
0000
0000
0000
,
0010
0000
0000
0000
,
0001
0000
0000
0000
,
1000
0000
0001
0001
;

//--------------- dance-single - Pandy as "Spin2Win" ----------------
#NOTES:
     dance-single:
     Pandy as "Spin2Win":
     Easy:
     7:
     0,0,0,0,0:
0000
0000
0000
0000
,
0000
0000
0000
0000
,
0000
0000
0000
0000
,
0000
0000
0000
0000
,
0000
0000
0000
0000
,
0001
1000
0100
0010
,
0100
1000
0001
0100
,
0001
0010
0100
1000
,
0001
0010
0001
1001
,
1000
0100
0010
0001
,
0100
0001
1000
0100
,
0000
0010
0000
0010
0000
0010
0000
0010
,
2002
0000
0000
3003
,
0001
0000
0000
2000
0000
0000
0100
3100
,
0000
0010
0000
0002
0000
0000
0100
0103
,
0000
0010
0000
0200
0000
0000
0001
0301
,
0000
0010
0000
0200
0000
0000
1000
1300
,
0001
0000
0000
0020
0000
0000
0100
0130
,
0000
1000
0000
0002
0000
0010
0013
0000
,
1001
0000
0110
0000
,
1001
0011
0110
1100
,
0002
0000
0000
0000
,
0203
0000
0000
0000
,
2300
0000
0000
0000
,
3020
0000
0000
0000
,
0031
0100
0020
0130
,
0001
1000
0200
0310
,
0001
0010
0200
1300
,
0100
1000
0002
0103
,
0020
0000
0000
2000
0030
0000
3001
0000
,
0020
0000
0000
0200
0030
0000
0310
0000
,
0002
0000
0000
2000
0003
0000
3010
0000
,
0200
0000
0000
0002
0300
0000
0013
0000
,
0200
0000
0000
0020
0300
0000
0031
0000
,
2000
0000
0000
0020
3000
0000
0130
0000
,
0002
0000
0000
2000
0003
0000
3100
0000
,
0020
0000
0000
0200
0000
0000
0330
0000
,
1001
0000
0100
0000
,
1001
0000
0010
0000
,
1001
0000
0110
0000
,
1001
0110
1001
0110
,
2000
0000
0000
3000
,
0001
0100
1000
0010
,
0001
0100
1000
0010
,
0001
0100
1000
0010
,
0001
0100
1000
0010
,
0001
1000
0100
0001
,
0010
1000
0100
0001
,
0010
1000
0100
0001
,
0010
1000
0001
1001
,
1000
0000
0000
0002
0000
0000
0003
0200
,
0000
0000
0300
0020
0000
0000
0030
0100
,
0000
1000
0000
0100
0000
0001
0000
1000
,
0000
0100
0010
0200
0000
0000
0300
0000
,
0010
0000
0000
0200
0000
0300
0000
2000
,
0000
3000
0000
0100
0000
0010
0000
0200
,
0000
0000
0000
2300
0000
3001
0000
0100
,
0000
0010
0000
1000
0000
0001
1000
0000
,
0001
0010
0100
0010
,
0001
1000
0100
0010
,
0100
0010
0001
0100
,
0020
1030
0020
0130
,
0001
1000
0100
0010
,
0100
0000
1000
0000
0001
0000
0100
0010
,
0000
0200
0000
0000
0000
0301
0000
0000
,
0000
0000
1000
0000
0000
0001
0000
0000
1000
0000
0001
0000
1000
0000
0000
0000
;

//--------------- dance-single - Pandy as "Spin2Win" ----------------
#NOTES:
     dance-single:
     Pandy as "Spin2Win":
     Medium:
     12:
     0,0,0,0,0:
0000
0000
0000
0000
,
0000
0000
0000
0000
,
0000
0000
0000
0000
,
0000
0000
0000
0000
,
0000
0000
0000
0000
,
0001
0100
0010
0001
0010
1000
0001
0010
,
0100
1100
1000
1010
,
1000
0010
0100
1000
0100
0001
1000
0100
,
0010
0000
0000
0000
0000
0001
0000
0001
0000
0001
0100
0000
0010
0000
0100
0000
,
0001
0010
0100
0001
0100
1000
0001
0100
,
0010
1010
1000
1100
,
0000
0011
0000
1010
0000
0011
0000
1000
,
0001
1000
0001
1000
0000
0001
0000
0001
0000
0001
1000
0000
0020
0000
0000
0000
,
0130
0000
0001
0000
0010
0000
0200
0000
0000
0000
0000
0000
1300
0100
1000
0000
,
0001
0000
0100
0000
0001
0000
2000
0000
0000
0000
0000
0000
3010
1000
0010
0000
,
0100
0000
0001
0000
0010
0000
0002
0000
0000
0000
0000
0000
0103
0001
0100
0000
,
0001
0000
0010
0000
0001
0000
2000
0000
0000
0000
0000
0000
3001
1000
0100
0000
,
0010
0000
0100
0000
1000
0000
0020
0000
0000
0000
0000
0000
0130
0010
0100
0000
,
0010
0000
1000
0000
0001
0000
2000
0000
0000
0000
0100
0000
3100
1000
0100
0000
,
0021
0130
1020
0130
,
0001
0000
0100
0000
1000
0000
0100
0000
0001
0010
0000
0000
1100
0000
0000
0000
,
0001
0000
0000
0001
0000
0000
0001
0000
0000
0000
0000
0000
0001
1000
0001
0000
,
1000
0000
0000
1000
0000
0000
1000
0000
0000
0000
0000
0000
1000
0001
1000
0000
,
0001
0000
0000
0001
0000
0000
0001
0000
0000
0000
0000
0000
0001
1000
0001
0000
,
1000
0000
0000
1000
0000
0000
1000
0000
0000
0000
0000
0000
1000
0001
1000
0000
,
0001
0100
0010
2000
0000
0000
3100
1001
,
0000
0001
0010
0002
0000
0013
1001
0000
,
1000
0000
0001
0000
0010
0000
0200
0000
0000
0310
0001
0000
1000
0000
0001
0000
,
1000
0000
0100
0000
0010
0000
0200
0000
0000
0310
0001
1000
0000
1000
0000
0000
,
0001
0000
0100
0000
0010
0000
0002
0000
0000
0000
0000
0000
0013
0100
0001
0000
,
1000
0000
0010
0000
0100
0000
2000
0000
0000
0000
0000
0000
3100
0010
1000
0000
,
0100
0000
0010
0000
1000
0000
0020
0000
0000
0000
0000
0000
0130
0010
0001
0000
,
0010
0000
0100
0000
0001
0000
0200
0000
0000
0000
0000
0000
0310
0100
1000
0000
,
0010
0000
0001
0000
0010
0000
2000
0000
0000
0000
0000
0000
3001
0100
0010
0000
,
0100
0000
1000
0000
0100
0000
0002
0000
0000
0000
0100
0000
0103
0001
1000
0000
,
0100
0000
1000
0000
0100
0000
0010
0100
0000
0010
0100
0000
1000
0001
1000
0000
,
0001
0000
0100
0000
0001
0000
0020
0000
0000
0000
0000
0000
0130
1000
0001
0000
,
1001
0000
0101
0000
,
1001
0000
1100
0000
,
0000
1100
0000
0101
0000
1100
0000
0101
,
0001
0100
0010
1000
0001
0100
0010
1000
,
0002
0000
0000
1003
,
0001
0000
0100
0000
1000
0000
0020
0000
0000
0000
0000
0000
0031
1000
0001
0000
,
1000
0000
0100
0000
0001
0000
0020
0000
0000
0000
0000
0000
1030
0001
1000
0000
,
0001
0000
0100
0000
1000
0000
0020
0000
0000
0000
0000
0000
0031
1000
0001
0000
,
1000
0000
0100
0000
0001
0000
0020
0000
0000
0000
0000
0000
1030
0001
1000
0000
,
0001
0000
0100
0000
1000
0000
0020
0000
0000
0000
0000
0000
0031
0010
0100
0000
,
1000
0000
0100
0000
0001
0000
0020
0000
0000
0000
0000
0000
1030
0100
0010
0000
,
0001
0000
0000
0000
0000
0000
0000
0000
0100
0000
0000
0000
0000
0000
0000
0000
1000
0000
0000
0000
0000
0000
0000
0000
0020
0000
0000
0000
0000
0000
0000
0000
0000
0000
0000
0000
0000
0000
0000
0000
0001
0000
0000
0000
0000
0000
0000
0000
0001
0030
0000
0000
1000
0000
0000
0000
0001
0000
0000
0000
0000
0000
0000
0000
,
1000
0000
0100
0000
0001
0000
0020
0000
0000
0000
0000
0000
1030
0001
1000
0000
,
1001
0000
0001
0200
0000
0000
0301
0020
,
0000
0000
0130
2000
0000
0000
3000
0021
,
0000
1000
0000
0031
0000
0201
0000
1000
,
0000
0000
0301
0000
1000
0001
0020
0000
0000
0000
0000
0000
0030
0000
0100
0000
,
2000
0000
3100
0020
0000
0000
0130
2000
,
0000
0000
3010
0200
0000
1300
0000
0201
,
0000
0000
0000
0320
0000
0130
0001
0020
,
0000
0000
0130
0000
0010
0000
0001
0000
1000
0000
0010
0000
0100
0001
1000
0000
,
0001
0000
1000
0000
0000
0100
0000
0010
0001
0000
0000
0100
0000
0000
0020
0000
,
0000
0000
0130
0000
0000
0001
0000
1000
0100
0000
0000
1000
0000
0000
0001
0000
,
0000
0000
0100
0000
0000
0001
0000
0010
0100
0000
0000
0010
0000
0000
0002
0000
,
0000
0103
0001
0000
0000
0001
0010
0000
0000
0010
0100
0000
0000
0100
1000
0000
,
0000
0000
0001
0000
0000
1000
0000
0000
0100
1000
0000
0010
0000
0000
2000
0000
,
0000
0000
3010
0000
0100
0000
0001
0000
0010
0100
0000
1000
0000
0000
0002
0000
,
0000
0000
2000
0000
0000
0000
0000
0000
0003
0000
3001
0010
0100
0000
0020
0000
,
0000
0000
0031
0000
0000
1000
0000
0001
0100
0000
0010
0000
1000
0000
0100
1000
;

//--------------- dance-single - Pandy as "Spin2Win" ----------------
#NOTES:
     dance-single:
     Pandy as "Spin2Win":
     Hard:
     15:
     0,0,0,0,0:
0000
0000
0000
0000
,
0000
0000
0000
0000
,
0000
0000
0000
0000
,
0000
0000
0000
0000
,
0000
0000
0000
0110
,
0001
0000
1000
0000
0100
0010
0100
0000
1000
0000
0001
0000
0100
0000
0001
0000
,
1000
0000
0001
1000
0100
1000
0000
0100
0000
0100
0000
0100
1000
0000
0001
0000
,
1000
0000
0001
0000
0010
0100
0010
0000
0001
0000
1000
0000
0100
0000
1000
0000
,
0001
0000
0000
0000
1000
0000
0001
0000
1000
0000
0020
0030
0000
0000
0020
0030
0000
0000
0001
0000
1000
0000
0000
0000
0001
0000
0000
0000
1000
0000
0100
0000
,
0010
0000
0001
0000
0100
0010
0100
0000
0001
0000
1000
0000
0010
0000
0100
0000
,
0001
0000
0010
0100
0010
0001
0000
0001
0000
0001
1000
0000
0010
0100
0001
0000
,
1000
0021
0031
1020
1030
0021
0031
1020
,
1030
0000
0001
0000
1000
0000
0001
0000
0000
1000
0000
0000
0000
0000
0000
1000
0000
0000
0000
0000
0000
1000
0000
0000
0000
0000
0000
1000
0000
0000
0020
0000
0000
0000
0000
0000
0130
0000
0000
0010
0000
0000
1000
0000
0000
0000
0000
0000
,
0001
0000
0100
0000
1000
0000
0020
0000
0000
0000
0000
0000
0031
1000
0001
0000
,
1000
0000
0100
0000
0001
0000
0020
0000
0000
0000
0000
0000
1030
0001
1000
0000
,
0001
0000
0100
0000
1000
0000
0020
0000
0000
0000
0000
0000
0031
1000
0001
0000
,
1000
0000
0100
0000
0001
0000
0020
0000
0000
0000
0000
0000
1030
0001
1000
0000
,
0001
0000
0100
0000
1000
0000
0020
0000
0000
0000
0000
0000
0031
1000
0001
0000
,
1000
0000
0100
0000
0001
0000
0020
0000
0000
0000
1030
0000
0001
0100
0001
0100
,
0001
0100
1000
0100
0001
0010
1000
0010
,
0001
0100
1000
0010
0001
0100
1000
0010
,
0002
0000
0000
0100
0000
0000
0023
0000
0000
0000
0000
0000
0130
0010
0001
0000
,
2000
0000
0000
0010
0000
0000
3200
0000
0000
0000
0010
0000
0310
0100
1000
0000
,
0002
0000
0000
1000
0000
0000
0203
0000
0000
0000
0000
0000
0310
0100
0001
0000
,
2000
0000
0000
0001
0000
0000
3200
0000
0000
0000
0000
0000
0310
0100
1000
0000
,
0002
0000
0203
0000
2300
0000
3200
0000
0000
0000
0000
0000
0310
0100
0001
0000
,
0002
0000
0023
0000
2030
0000
3020
0000
0000
0000
0230
0000
0310
0001
1000
0010
,
0200
0000
2300
0000
3200
0000
0302
0000
0000
1003
0200
0000
0310
0100
0010
0001
,
2000
0000
3200
0000
0320
0000
0032
0000
0003
0100
0001
1000
0000
1000
0000
1000
,
0001
0000
0100
0000
0010
0000
2002
0000
0000
0000
3000
0000
1003
0100
0010
0000
,
0100
0000
0010
0000
0001
0000
2200
0000
0300
0000
3100
0000
1000
0010
0100
0001
,
1000
0000
0100
0000
0010
0000
0022
0000
0000
0000
0030
0000
1003
0001
0010
0000
,
0100
0000
1000
0000
0001
0000
2020
0000
0000
0000
3000
0000
1030
0001
0010
0000
,
0100
0000
0010
0000
0001
0000
2002
0000
0000
0000
0003
0000
3001
1000
0100
0000
,
0010
0000
0001
0000
1000
0000
2020
0000
3000
0000
0130
0000
0010
1000
0100
0010
,
0001
0000
0010
0000
0100
0000
2200
0000
0300
3200
0020
0300
0130
0010
0001
1000
,
0010
0000
0100
0000
0001
0000
2002
0000
0000
0000
3000
0000
1003
0100
0010
0000
,
1001
0000
0002
0000
0000
1003
0010
0000
0000
0000
2000
0000
0000
3001
0010
0000
,
1001
0000
2000
0000
0000
3001
0100
0000
0000
0000
0002
0000
0000
1003
0100
0000
,
0010
2001
3100
1002
0013
2001
3100
1002
,
1003
0100
1000
0000
0001
0010
0000
0010
0100
1000
0100
1000
0001
1000
0001
1000
,
0001
0000
0001
0000
0000
0001
0000
0001
2000
0000
3020
0230
0002
0000
0300
0000
,
1003
0000
0100
0000
0001
0000
0010
0000
1000
0000
0001
0000
1000
0001
1000
0000
,
0001
0000
0010
0000
1000
0000
0100
0000
0001
0000
1000
0000
0001
1000
0001
0000
,
1000
0000
0100
0000
0001
0000
0010
0000
1000
0000
0001
0000
1000
0001
1000
0000
,
0001
0000
0010
0000
1000
0000
0100
0000
0001
0000
1000
0000
0001
1000
0001
0000
,
0001
0000
0100
0000
1000
0000
0010
0000
0001
0000
1000
0000
0001
1000
0001
0000
,
1000
0000
0010
0000
0001
0000
0100
0000
1000
0000
0001
0000
1000
0001
1000
0000
,
0001
0000
0100
0000
1000
0000
0010
0000
0000
0001
1000
0000
1000
0100
0010
0100
,
1000
0000
0010
0000
0001
0000
0100
0000
1000
0000
0001
0000
1000
0001
2000
0000
,
3020
0000
0130
0201
0000
0000
0310
1002
,
0000
0000
0013
0021
0000
0000
0000
0032
,
0000
0203
0000
2300
0000
3020
0000
0032
,
0000
0000
1003
0000
0001
0010
0002
0000
0000
0000
0000
0000
1003
0100
0010
0000
,
2001
0000
3001
0021
0000
0000
0130
2001
,
0000
0000
3100
2100
0000
0010
0000
3002
,
0000
0000
0000
0000
0000
0000
0023
0000
0000
0000
0130
1000
0010
0000
0102
0000
,
0000
2003
3200
0302
0023
2030
3001
1000
,
1001
0000
0001
0000
0000
0100
0000
0010
2000
0000
0000
3200
0000
0000
0020
0000
,
0300
0000
0130
0000
0000
0010
0000
0001
0020
0000
0000
0230
0000
0000
2000
0000
,
0300
0000
3100
0000
0000
1000
0000
0010
0200
0000
0000
0302
0000
0000
2000
0003
,
0000
3001
0100
0020
0000
0130
0010
2000
0000
3100
0010
0002
0000
0013
0001
2000
,
0000
0000
3001
0000
0000
1000
0000
0100
0010
0100
0000
0010
0000
0010
0002
0000
,
0000
0000
0000
0000
0000
0000
0103
0000
0001
0000
1000
0000
0001
0000
0000
1000
0000
0000
0001
0000
0000
0010
0000
0000
0001
0000
0000
1000
0000
0000
0000
0000
0000
0100
0000
0000
0000
0000
0000
0000
0000
0000
0020
0000
0000
0000
0000
0000
,
0000
0000
0000
0000
0000
0000
0200
0000
0000
0000
0000
0000
0000
0000
0000
0000
0000
0000
0000
0000
0000
0000
0000
0000
0030
0000
0000
0000
0000
0000
0310
0000
0001
0000
1000
0000
0001
0000
0000
0100
0000
0000
0002
0000
0000
0000
0000
0000
,
0000
0000
0000
0000
2003
0000
0000
0000
0000
0000
3001
0000
0000
0000
0020
0030
0020
0030
0000
0000
1000
0000
0000
0000
0201
0000
0000
0000
0010
0000
0310
0000
;
