#TITLE:真FAKE STYLE;
#SUBTITLE:;
#ARTIST:FAKE TYPE.;
#TITLETRANSLIT:SHIN FAKE STYLE;
#SUBTITLETRANSLIT:;
#ARTISTTRANSLIT:;
#GENRE:;
#CREDIT:;
#MUSIC:Shin FAKE STYLE.ogg;
#BANNER:Shin FAKE STYLE-bn.png;
#BACKGROUND:Shin FAKE STYLE-bg.png;
#CDTITLE:;
#SAMPLESTART:103.655;
#SAMPLELENGTH:14.536;
#SELECTABLE:YES;
#OFFSET:1.800;
#BPMS:0.000=132.000;
#STOPS:;
#LASTBEATHINT:1.760000;
#BGCHANGES:4.000=Shin FAKE STYLE.mp4=1.000=0=0=1,
99999.000=-nosongbg-=1.000=0=0=0=StretchNoLoop====
;
#FGCHANGES:;

//--------------- dance-single - Pandemonium X ----------------
#NOTES:
     dance-single:
     Pandemonium X:
     Beginner:
     5:
     0,0,0,0,0:
0000
0000
0000
0000
,
0000
0000
0000
0000
,
0000
0000
0000
0000
,
0000
0000
0000
0000
,
0000
0000
0000
0000
0020
0000
0000
0030
,
1001
0000
0001
0000
,
1000
1000
1000
0000
,
0100
0000
0010
0000
,
0001
0000
0100
0100
,
0010
0000
0100
0000
,
0001
0001
0001
0000
,
1000
0000
0001
0000
,
0100
0000
0010
0010
,
1001
0000
0000
0000
,
0200
0000
0300
0000
,
0000
0000
0000
0000
,
0001
0001
0001
0000
,
1000
0000
0001
0000
,
0100
0000
0001
0000
,
0010
0100
1000
0000
,
0100
0000
1000
0000
,
0010
0000
0100
0000
,
0001
0001
1000
1000
,
0001
0000
0010
0000
,
0001
0000
0100
0110
,
1000
0000
0001
0000
,
0100
0000
0001
0000
,
0010
0000
0100
0000
,
1000
0000
0100
1000
,
0010
0000
0100
0000
,
0001
0000
1000
0000
,
1001
0000
0001
0000
,
0100
0100
0100
0000
,
0001
0100
0001
0000
,
1000
0100
1000
0000
,
1001
0000
0110
0000
,
0001
1000
1001
0000
,
1000
0000
0001
0000
,
0100
0001
0100
0000
,
0010
0010
0010
0000
,
2002
0000
0000
3003
,
0110
0000
0001
0000
,
1000
1000
1000
0000
,
0001
0000
1000
0000
,
0010
0100
1001
0000
,
0001
0000
1000
0000
,
0100
0100
0010
0000
,
0100
0000
1000
0000
,
0010
0100
1001
0110
,
1001
0000
0001
0000
,
1000
0010
1000
0000
,
0001
0000
1000
0000
,
0001
0100
0001
0000
,
0010
0000
0001
0000
,
1000
0001
0100
0000
,
0010
0000
0100
0000
,
0001
0000
1000
0000
,
0110
0000
0000
0000
,
1000
0010
1000
0000
,
0001
0010
0001
0000
,
1001
0000
0110
0000
,
1000
0001
1001
0000
,
0001
0000
1000
0000
,
0010
1000
0010
0000
,
0100
0100
0100
0000
,
0001
1000
0001
0110
,
1000
0000
1000
0000
,
0001
1000
0001
0000
,
0010
0000
0001
0000
,
0100
0000
0010
0010
,
1000
0000
0001
0000
,
0010
0001
0010
0000
,
0100
0100
0010
0010
,
0001
0001
1000
0001
,
0110
0000
0000
0000
;

//--------------- dance-single - Pandemonium X ----------------
#NOTES:
     dance-single:
     Pandemonium X:
     Easy:
     8:
     0.332415,0.498302,0.33669,0.059856,0,311,266,45,8,0,0,0.332415,0.498302,0.33669,0.059856,0,311,266,45,8,0,0:
0000
0000
0000
0000
,
0000
0000
0000
0000
,
0000
0000
0000
0000
,
0000
0000
0000
0000
,
0000
0000
2000
0000
,
3001
1000
0010
1000
,
0100
0100
0100
0000
,
1000
0010
0100
0001
,
0010
0100
0010
0001
,
1000
0001
1000
0001
,
0010
0010
0010
0000
,
0011
0011
1010
1010
,
0101
1100
1001
0110
,
1001
0000
0001
0000
,
1000
0000
0001
0000
,
0100
0000
0010
0000
,
0100
0100
0100
0000
,
1001
0001
1000
0010
,
1000
0001
0010
0001
,
1000
0100
0010
0001
,
0001
0010
0100
1000
,
0001
0100
0010
0100
,
0001
1000
0001
1000
,
0100
1000
0010
1000
,
0001
1000
0001
1000
,
1001
0001
1000
0100
,
0011
0001
0100
0010
,
1001
0002
0013
0200
,
1300
0000
0100
0000
1000
0000
0001
0200
,
0000
0310
1000
0001
,
0010
0001
0100
0010
,
1001
0001
1000
0010
,
0100
0100
0100
0000
,
0001
0100
0010
1000
,
0001
0010
0001
0010
0001
0000
0000
0000
,
2100
3010
0201
0310
,
1001
1001
0110
0000
,
1000
0010
0100
0001
,
0010
0100
0010
0100
0010
0000
0000
0000
,
0001
0010
0100
1000
0001
0000
1000
0000
,
1001
1001
0110
0000
,
1000
0010
0100
0010
,
0100
0010
1001
0000
,
0001
0010
0001
0000
0001
0100
0001
0000
,
0101
1100
1001
0000
,
0001
1000
0010
1000
,
0100
0010
0100
1000
,
0001
0100
0010
1000
,
0001
1000
1001
0110
,
0001
0100
0010
1000
,
0100
0001
0100
0000
,
1000
0010
0100
0001
,
0010
1000
0010
0000
,
0001
0000
1000
0000
,
0010
0100
0001
0000
,
1000
0001
0010
0100
,
0010
0001
1000
0010
,
2002
0000
3000
0003
,
1000
0010
0100
0001
,
1000
0100
1000
0100
1000
0000
0000
0000
,
2100
3010
0102
0013
,
1001
1001
0110
0000
,
0001
0100
0010
1000
,
0001
0010
0001
0010
0001
0000
0000
0000
,
0001
0010
0100
1000
0001
0000
1000
0000
,
1001
1001
0110
0000
,
0001
0100
0001
1000
,
0100
1000
0010
0100
0001
0000
0000
0000
,
0100
0001
0010
0100
,
0010
0001
1000
0001
,
1000
0100
1000
0010
,
0100
0010
1000
0001
0010
0000
0000
0000
,
0011
0011
1100
1100
,
1100
0011
0101
1100
,
1001
0000
0000
0000
;

//--------------- dance-single - Pandemonium X ----------------
#NOTES:
     dance-single:
     Pandemonium X:
     Medium:
     11:
     0,0,0,0,0:
0000
0000
0000
0000
,
0000
0000
0000
0000
,
0000
0000
0000
0000
,
0000
0000
0000
0000
,
0000
0000
0220
0330
,
0001
1000
0001
1000
0100
0000
1000
0000
,
0010
0001
0010
1000
0002
0000
0003
0000
,
0010
0001
1000
0010
,
1000
0000
0001
0000
0010
0100
0010
0010
,
0001
0010
0100
0010
0001
0000
1000
0000
,
0010
0100
0010
0010
0020
0000
0030
0000
,
2000
3100
0020
0031
,
0020
0000
0130
0000
1000
0100
0010
0001
,
2002
3003
0000
0000
,
0020
0000
0030
0000
,
0000
0000
0000
0000
,
0001
0000
1000
0000
0220
0000
0000
0330
,
0001
1000
0010
0000
1000
0000
1100
0000
,
0100
1000
0001
0000
0100
0000
0110
0000
,
0100
0000
0001
0000
0010
0100
0010
0000
0100
0000
0000
0000
0011
0000
0000
0000
,
0001
1000
0100
0000
0010
0000
1100
0000
,
1000
1000
0001
0000
0100
0100
0010
0000
,
1000
1000
0001
0010
0100
0100
0010
0000
,
0100
0000
1100
0000
1000
0010
0100
0000
,
0001
0000
0011
0000
0010
0001
2000
0000
,
3010
0000
0101
0000
0001
0100
0010
1000
,
0100
0000
0011
0000
0020
0000
0130
0010
,
0001
0100
0020
0000
0130
0010
1000
1000
,
0001
0010
1000
0010
0001
0100
0010
2010
,
0000
0000
3001
0000
0010
0001
0100
0000
,
1010
0000
0101
0000
1000
0100
0010
0000
,
1001
0000
0001
1000
0010
0000
1000
0000
,
0001
0000
0000
0100
0000
0000
0002
0000
2000
0000
0003
0000
3000
0000
0000
0000
,
0001
0000
0100
0000
0010
0000
1000
0000
0100
0000
0000
0100
0000
0000
0100
0000
,
0010
0000
0100
0000
1000
0000
0001
0200
0000
0000
0000
0000
0300
0000
0000
0000
,
0010
0000
0000
0010
0000
0000
0010
0000
0100
0000
0000
0100
0000
0000
0100
0000
,
0101
1010
1001
0000
,
1000
0000
0100
0000
1000
0000
0001
0000
0100
0000
0000
0100
0000
0000
0100
0000
,
0001
0000
0010
0000
0100
0000
1000
0020
0000
0000
0000
0000
0030
0000
0000
0000
,
0100
0010
1000
0001
0010
0000
0100
0000
,
1100
0011
1100
1001
,
0001
0100
0010
0000
0100
0010
1000
0000
,
0001
0010
1000
0010
0100
0000
0000
0000
,
0010
0010
0001
0000
0001
0001
0100
0000
,
0010
1000
0100
0010
0011
0000
1010
0000
,
1001
0000
1000
0000
0100
0000
0000
0100
0000
0000
1000
0000
0010
0000
0000
0010
,
0000
0100
0001
0010
0100
0000
0010
0000
,
0001
0000
0000
0100
0000
0000
0010
0000
0000
1000
0000
0000
0001
0000
1000
0000
,
0100
0000
0000
0010
0000
0000
0001
0010
0001
1000
0100
1000
,
0010
0100
0010
0100
0010
1000
0010
1000
,
0010
0100
0001
1000
0200
0000
0300
0000
,
0010
0001
0010
0001
0010
0100
0010
0100
,
0010
0001
0100
0010
2000
0000
3000
0000
,
0001
0000
0000
1010
0000
0000
0000
0000
1000
0000
0000
0011
0000
0000
0000
0000
,
0001
0000
0000
0000
1000
0000
0000
0010
0000
0000
0100
0000
0000
0000
0000
0000
,
0001
0000
0100
0000
0010
0000
0000
1000
0000
0000
0100
0000
0010
0000
0000
0100
,
0000
0000
1000
0000
0010
0000
0000
0100
0000
0000
0001
0000
0020
0000
0000
0200
,
0000
0000
0030
0300
,
0001
0000
1000
0000
0010
0000
1000
0000
0001
0000
0000
0001
0000
0000
0001
0000
,
0010
0000
0100
0000
1000
0000
0010
0200
0000
0000
0000
0000
0300
0000
0000
0000
,
0010
0000
0000
0010
0000
0000
0010
0000
0100
0000
0000
0100
0000
0000
0100
0000
,
0110
1001
0110
0000
,
0001
0000
0010
0000
0100
0000
0010
0000
0001
0000
0000
1000
0000
0000
0001
0000
,
1000
0000
0100
0000
0010
0000
0100
2000
0000
0000
0000
0000
3000
0000
0000
0000
,
0001
0100
1000
0100
0001
0000
1000
0000
,
0101
1010
1001
0000
,
1000
0001
1000
0001
0010
0000
0001
0000
,
0100
1000
0100
0001
2000
0000
3000
0000
,
0100
1000
0001
0100
,
0001
0000
1000
0000
0100
0010
0100
0100
,
1000
0100
0010
0100
1000
0000
0001
0000
,
0100
0010
0100
0100
0200
0000
0300
0000
,
0002
0013
0200
1300
,
0200
0000
0310
0000
0001
0010
0100
1000
,
2002
3003
0000
0000
;

//--------------- dance-single - Pandemonium X ----------------
#NOTES:
     dance-single:
     Pandemonium X:
     Hard:
     15:
     0.544049,0.749977,0.231942,0.209496,0.340431,509,478,31,28,0,0,0.544049,0.749977,0.231942,0.209496,0.340431,509,478,31,28,0,0:
0000
0000
0000
0000
,
0000
0000
0000
0000
,
0000
0000
0000
0000
,
0000
0000
0000
0000
,
0000
0000
0000
0000
2002
0000
0000
0003
,
3010
0000
0100
0000
0010
0000
0100
0000
0001
0000
0000
1000
0000
1000
0000
1000
,
0100
0000
0000
1000
0000
0000
0001
0000
0000
0100
0000
0002
0000
0000
0000
0013
0000
0000
0011
0000
0000
0000
0000
0000
,
1000
0000
0001
0000
0000
1000
0100
0000
1000
0010
0000
0100
0000
0000
0010
0000
0000
0100
0001
0000
0001
0010
0000
0100
,
0000
0000
0010
0000
0000
0001
0100
0000
0100
0010
0000
0010
1000
0000
1000
0001
0000
0001
1000
0000
1000
0100
0000
1000
,
0010
0000
0100
0000
0010
0000
0100
0000
0001
0000
0000
0010
0000
0010
0000
0010
,
0100
0000
0000
1000
0000
0000
0100
0000
0010
0000
0000
0002
0000
0000
0000
1003
0000
0000
1001
0000
0000
0000
0000
0000
,
1000
0100
0001
0100
1000
0010
0001
0010
,
1000
0000
0100
0000
0010
0000
0001
1000
0010
0000
0001
0000
0010
0000
1000
0000
,
1001
0000
0000
0000
1000
0000
0000
0000
0001
0000
0000
0001
0000
0000
0010
0000
,
0100
0000
0000
0000
1000
0000
0000
0000
0100
0000
0000
0100
0000
0000
1000
0000
,
0001
0000
0000
0000
0100
0000
0000
0000
0001
0000
0000
0001
0000
0000
0010
0000
,
0001
0000
0001
0000
0001
0200
0000
0310
,
1000
0001
1000
0000
0001
0000
0010
0000
0001
0000
0100
0000
0010
0000
1000
0000
,
0100
0000
0010
0100
0010
0000
0010
0001
0010
0000
0001
0100
0001
0000
0001
1000
,
0001
0000
1000
0000
0100
0010
0100
0000
0010
0000
0001
0000
0100
0000
0001
0000
,
1000
0000
0100
0000
1000
0000
0001
0000
0100
0000
0001
0010
0100
0000
0000
0000
,
0010
0000
0000
0000
0000
0000
0001
0000
0000
0100
0000
0000
0010
0000
0000
0000
0000
0000
0000
0000
0000
0000
0000
0000
0100
0000
0000
0000
0010
0000
0000
0000
1000
0000
0000
0000
0001
0000
0000
0000
0000
0000
0000
0000
0000
0000
0000
0000
,
1000
0000
0000
0100
0000
0000
1000
0000
0000
0001
0000
0000
0100
0000
0001
0000
0010
0000
0100
0000
0000
0000
0000
0000
,
1000
0100
1000
0010
0100
0001
0010
0100
,
0010
0000
0001
0000
0100
0000
0010
0000
1000
0000
0100
0010
0002
0000
0000
0000
,
1003
0000
0000
0000
0000
0000
1100
0000
0000
0000
0000
0000
0011
0000
0000
0000
0000
0001
0100
0000
0000
0010
0000
0000
,
1001
0000
0000
0000
0000
0000
0000
0000
0000
0000
0000
0000
1010
0000
0000
0000
0000
0000
0000
0000
0000
0000
0000
0000
0002
0000
0000
0000
0000
0000
0000
0000
0000
0003
1000
0000
0010
0000
0000
0000
0000
0000
0100
0000
0000
0000
0000
0000
,
0001
0010
0002
0000
0013
0100
2000
3002
,
1003
0000
0010
0000
0100
0000
0010
1000
0100
0000
0010
0000
0001
0000
2200
0000
,
0000
0000
0000
0300
3001
0000
0100
0000
0001
0000
1000
0000
0010
0100
0000
0001
,
0010
0000
0100
0000
0010
0001
0000
1000
0100
0000
0010
0000
0001
1000
0000
0000
,
1001
0000
0001
0010
0100
1000
0001
0010
,
0001
0100
0001
1000
0001
0010
0001
2000
0002
0000
3000
0000
0003
0000
0000
0000
,
1000
0000
0100
0000
0001
0000
0100
0000
1000
0000
0000
1000
0000
0000
1000
0100
,
1000
0000
0100
0000
0001
0000
0100
0020
0000
0000
0031
0000
1001
0000
0000
0000
,
0201
0000
0000
0310
0000
0000
1000
0000
1200
0000
0000
0310
0000
0000
0001
0000
,
0011
1010
1001
0000
,
0001
0000
0010
0000
1000
0000
0010
0000
0001
0000
0000
0001
0000
0000
0001
0000
,
0001
0000
0010
0000
1000
0000
0010
0200
0000
0000
1300
0000
0011
0000
0000
0000
,
1000
0000
0100
0000
0010
0000
0001
0000
0010
0000
0000
0000
0100
0010
0000
0000
,
1100
0000
0011
0000
0101
0000
0020
0030
,
1001
0000
0000
0000
1000
0000
0000
0000
0020
0030
0000
0000
0020
0030
0000
0000
0001
0000
0000
0000
1000
0000
0000
0000
0200
0300
0000
0000
0200
0300
0000
0000
,
0001
0100
0010
0100
1001
0000
1001
0000
,
1000
0100
0011
0000
0001
0100
1010
0000
,
2000
3100
0002
0103
0110
0000
0110
0000
,
1001
0000
0001
0000
1000
0000
1000
0001
0000
0000
1000
0000
0100
0000
0100
0010
,
0000
0000
0001
0000
0010
0000
0100
0010
0100
0000
0010
0001
0010
0000
0100
1000
,
0100
0010
0000
0010
0100
0000
0100
0010
0000
0010
0100
0000
0010
0000
0001
0000
,
2000
0000
0000
3001
0000
0000
0200
0000
0000
0310
0000
0000
1000
0000
1000
0000
1000
0000
0001
0000
0001
0000
0001
0000
,
1000
0100
1000
0100
0010
0001
0010
0001
,
0010
0100
1000
0001
2002
0000
3003
0000
,
0001
0100
0001
0100
0010
1000
0010
1000
,
0010
0100
0001
0010
0210
0000
1000
0000
,
0310
1100
1000
0101
,
0001
0000
0100
0000
0010
0100
0000
0002
0000
0000
2000
0000
0003
0000
3100
0010
,
0100
0000
1000
0000
0001
0100
0000
0020
0000
0000
0130
0000
0001
0010
0000
0200
,
0000
0000
1300
0000
0001
0100
0000
0020
0000
0000
0130
0000
0010
0100
0000
2002
,
0000
0000
3000
0003
,
1000
0000
0100
0000
0001
0000
0100
0000
1000
0000
0000
1000
0000
0000
1000
0100
,
1000
0000
0100
0000
0001
0000
0100
0020
0000
0000
0031
0000
1001
0000
0000
0000
,
0201
0000
0000
0310
0000
0000
1000
0000
1200
0000
0000
0310
0000
0000
0001
0000
,
0011
1010
1001
0000
,
0001
0000
0010
0000
1000
0000
0010
0000
0001
0000
0000
0001
0000
0000
0001
0000
,
0001
0000
0010
0000
1000
0000
0010
0200
0000
0000
1300
0000
0011
0000
0000
0000
,
1000
0000
0100
0000
0010
0000
0001
0000
0010
0000
0000
0000
0100
0010
0000
0000
,
1100
0011
0101
1001
,
0001
0000
0001
0000
1000
0000
1000
0000
0001
0000
0000
0100
0000
0100
0000
0100
,
0010
0000
0000
1000
0000
0000
0100
0000
0000
0010
0000
0200
0000
0000
0000
1300
0000
0000
1100
0000
0000
0000
0000
0000
,
0001
0000
1000
0000
0000
0001
0010
0000
0001
0100
0000
0010
0000
0000
1000
0000
0000
1000
0010
0000
1000
0100
0000
0010
,
0000
0000
0100
0000
0000
1000
0010
0000
0010
0100
0000
0100
0001
0000
0001
1000
0000
1000
0001
0000
0001
0010
0000
0001
,
0100
0000
0010
0000
0100
0000
0010
0000
1000
0000
0000
0100
0000
0100
0000
0100
,
0010
0000
0000
0001
0000
0000
0010
0000
0100
0000
0000
2000
0000
0000
0000
3001
0000
0000
1001
0000
0000
0000
0000
0000
,
0001
0010
1000
0010
0001
0100
1000
0100
,
0001
0000
0010
0000
0100
0000
1000
0001
0100
0000
1000
0000
0100
0000
0001
0000
,
0020
0030
0000
0000
;

//--------------- dance-single - ----------------
#NOTES:
     dance-single:
     Pandemonium X:
     Challenge:
     16:
     0,0,0,0,0:
0000
0000
0000
0000
,
0000
0000
0000
0000
,
0000
0000
0000
0000
,
0000
0000
0000
0000
,
0000
0000
0102
0010
,
1003
0000
0000
1100
0000
0000
1000
0000
0000
1010
0000
0000
0210
0000
0000
0000
0000
0001
0000
0000
0301
0000
0000
0001
,
0010
0000
0010
0100
0000
0100
1000
0000
0010
0100
0000
0202
0000
0000
0000
0003
0000
0000
0300
0000
0000
0000
0000
0000
,
0001
0000
1000
0000
0000
0010
1000
0000
0100
0010
0000
0001
0000
0000
1010
0000
0000
1000
0010
0000
1000
0100
0000
0010
,
0000
0000
0011
0000
0000
0010
0001
0000
0001
1000
0000
1000
0010
0000
1000
0001
0000
1000
0100
0000
1000
0001
0000
1000
,
0010
0000
0000
0110
0000
0000
0100
0000
0000
0101
0000
0000
0012
0000
0000
0000
0000
1000
0000
0000
1003
0000
0000
0100
,
0010
0000
0010
0001
0000
0001
0100
0000
0100
0010
0000
2020
0000
0000
0000
0030
0000
0000
3000
0000
0000
0000
0000
0000
,
0001
0011
1000
1010
0001
0101
1000
1100
,
1001
0100
1001
0001
1010
0010
0101
0100
,
2001
0000
0000
0000
0000
0000
3001
0000
0000
0000
0000
0000
0100
0000
0000
0010
0000
1000
0000
0000
0000
0100
0000
0000
,
0020
0000
0000
0000
0000
0000
0001
0000
0000
0000
0000
0000
0130
0000
0000
1000
0000
0001
0000
0000
0000
0100
0000
0000
,
0010
0000
0000
0000
0000
0000
1000
0000
0000
0000
0000
0000
0100
0000
0000
1000
0000
0010
0000
0000
0000
0100
0000
0000
,
0001
0000
1000
0000
0010
0200
0000
0301
,
1000
0000
0000
0000
1000
0000
0001
0000
0000
0000
0000
0000
0010
0000
0000
0000
0100
0000
0010
0000
0000
0000
0001
0000
1000
0000
0000
0010
0000
0000
1000
0000
0000
0001
0000
0000
1000
0000
0000
0100
0000
0000
0010
0000
0000
0100
0000
0000
,
1000
0001
1000
0001
0100
0000
0001
1000
0010
0000
1000
0001
0010
0000
0100
1000
,
0001
0000
0000
1000
0000
0000
0010
0000
0000
0000
0000
0000
0200
0000
0000
0302
0000
0000
0023
0000
0000
0000
0000
0000
0130
0000
0000
0000
1000
0000
0001
0000
0100
0000
0001
0000
0100
0000
0000
0000
0010
0000
0100
0000
0000
0000
0001
0000
,
1000
0000
0001
0100
0000
0000
0010
0000
0000
1000
0000
0000
0100
0000
0000
0010
0000
0001
0200
0000
0000
0010
0000
0000
,
0301
0000
0000
0000
0000
0000
1000
0000
0000
0001
0000
0000
0100
0000
0000
0000
0000
0000
0000
0000
0000
0001
0000
0000
0100
0000
0000
0000
0001
0000
0000
0000
0010
0000
0000
0000
0100
0000
0000
0000
0000
0000
0000
0000
0000
0000
0000
0000
,
1000
0000
0000
0100
0000
0000
1000
0000
0000
0100
0000
0000
1000
0000
0000
0010
0000
0000
0100
0000
0000
0001
0000
0000
1000
0000
0000
0000
0100
0000
0000
0000
1000
0000
0000
0000
0001
0000
0000
0000
0000
0000
0000
0000
0000
0000
0000
0000
,
0100
0000
0000
0000
0000
0000
0001
0000
0000
0000
0000
0000
0010
0000
0100
0000
0010
0000
0100
0000
0000
1000
0000
0000
0001
0000
0000
1000
0000
0000
0001
0000
0100
0000
0001
0000
0100
0000
0000
0000
0000
0000
0010
0000
0000
1000
0000
0000
,
0001
0000
0000
1000
0000
0000
0100
0000
0010
0000
0100
0000
0010
0000
0000
0000
0001
0000
0000
0000
0010
0000
0000
0000
0100
0000
0000
0000
0100
0000
1000
0000
0000
0000
1000
0000
0020
0000
0000
0000
0000
0000
0000
0000
0000
0000
0000
0000
,
0130
0000
0000
0000
0000
0000
0001
0000
1000
0000
0001
0000
1000
0000
0000
0000
0000
0000
0100
0000
0000
0000
0000
0000
0010
0000
0000
0001
0000
0000
0100
0000
0000
0001
0000
0000
1000
0000
0000
0000
0000
0000
0001
0000
0000
1000
0000
0000
,
0100
0000
0010
0000
0100
1000
0001
0000
0201
0000
0000
0310
1000
0000
0001
0010
,
0100
0000
1000
0001
0020
0000
0000
0000
0130
0000
0100
1000
0020
0000
1000
0000
,
0130
0000
0000
0010
0000
0000
1000
0000
1000
0010
0000
0010
0100
0000
0000
0001
0000
0000
1000
0000
0000
0220
0000
0000
,
0000
0000
0000
0000
0000
0000
0330
0000
0000
0000
0000
0000
0001
0000
0000
0000
0000
0000
0100
0000
0000
0000
0000
0000
0010
0000
1000
0000
0010
0000
1000
0000
0000
0100
0000
0000
0010
0000
0000
0200
0000
0000
0000
0000
0000
0000
0000
0000
,
1300
0000
0001
0000
0200
0000
0000
0310
1000
0000
0100
0000
0010
0001
2000
3000
,
MMMM
0000
0000
0000
1001
0000
1000
0001
0100
0000
0010
1000
0000
0001
0010
0000
,
0100
1000
0100
0001
0100
1000
0001
0100
0001
0000
1000
0000
1001
0000
0000
0000
,
0001
0000
0000
0000
1000
0000
0100
0000
0000
0000
0100
0000
0010
0000
0000
0000
0010
0000
0001
0000
0000
0000
0001
0000
1000
0000
0000
0000
0000
0000
0000
0000
0000
1000
0000
0000
0000
0000
0000
0000
0000
0000
1000
0000
0000
0001
0000
0000
,
0100
0000
1000
0000
0100
0000
0002
2000
0000
0000
0003
0000
3000
0000
0000
0000
,
1001
0000
0000
0000
0001
0000
0020
0030
0000
0000
0020
0030
1000
0000
0000
0000
1001
0000
0000
0000
1000
0000
0200
0300
0000
0000
0200
0300
0001
0000
0000
0000
,
1001
1001
MMMM
0000
,
1000
0000
0000
0000
0001
0000
0010
0000
0000
0000
0010
0000
0100
0000
0000
0000
0100
0000
1000
0000
0000
0000
1000
0000
0001
0000
0000
0000
0000
0000
0000
0000
0000
0001
0000
0000
0000
0000
0000
0000
0000
0000
1000
0000
0000
0000
0000
0000
,
0100
0000
0001
0000
0100
0000
2000
0002
0000
0000
3000
0000
0003
0000
0000
0000
,
1000
0000
0100
0000
0001
0000
0010
0000
1000
0000
0000
0000
0001
1000
0000
1000
,
0001
0001
0100
0010
0010
1000
0001
0001
1000
MMMM
0000
0000
,
0100
0001
0101
1001
1000
0001
0011
0101
,
0001
0100
1000
0100
MMMM
0000
0000
0000
,
1000
0001
0110
0000
0001
1000
0110
0000
,
1000
0010
0100
0001
MMMM
0000
MMMM
0000
,
0001
1000
0001
0000
1000
0000
0010
1000
0000
0000
0010
0100
0001
0000
0010
0100
,
0000
0000
0010
0001
0100
0000
0010
1000
0100
0000
0010
0100
1000
0000
1000
0001
,
1000
0000
0200
0300
0000
0000
0200
0300
0001
0000
0000
0000
0001
0000
0200
0300
0000
0000
0200
0300
1000
0000
0000
0000
0010
0000
0000
0000
1000
0000
0000
0000
,
0001
0001
1000
0001
0001
1000
2001
0001
3001
1002
1000
1003
,
0001
0100
1000
0100
0001
0100
1000
0100
,
0001
0010
0100
1000
2002
0000
3003
0000
,
1000
0010
0001
0010
1000
0010
0001
0010
,
1000
0100
0010
0001
2002
0000
3003
0000
,
1000
0000
0000
0100
0000
0000
0000
0000
0000
0011
0000
0000
0000
0000
0000
0000
0000
0000
0001
0000
0000
0000
0000
0000
0100
0000
0000
0000
0010
0000
0000
0000
0000
0000
1001
0000
0000
0000
0000
0000
0000
0000
1000
0000
0000
0000
0000
0000
,
0001
0000
0100
0010
0100
0001
0000
2000
0000
0000
0200
0000
3000
0000
0310
0001
,
1000
0000
1000
0000
0001
0100
0000
0020
0000
0000
1030
0000
0100
1000
0000
0002
,
0000
0000
0103
0000
0010
1000
0000
0200
0000
0000
0310
0000
0100
1000
0000
2002
,
0000
0000
3000
0003
,
1000
0000
0000
0000
0001
0000
0010
0000
0000
0000
0010
0000
0100
0000
0000
0000
0100
0000
1000
0000
0000
0000
1000
0000
0001
0000
0000
0000
0000
0000
0000
0000
0000
0001
0000
0000
0000
0000
0000
0000
0000
0000
0001
0000
0000
1000
0000
0000
,
0010
0000
0001
0000
0010
0000
2000
0002
0000
0000
3000
0000
0003
0000
0000
0000
,
1001
0000
0000
0000
1000
0000
0200
0300
0000
0000
0200
0300
0001
0000
0000
0000
1001
0000
0000
0000
0001
0000
0020
0030
0000
0000
0020
0030
1000
0000
0000
0000
,
1001
1001
MMMM
0000
,
0001
0000
0000
0000
1000
0000
0100
0000
0000
0000
0100
0000
0010
0000
0000
0000
0010
0000
0001
0000
0000
0000
0001
0000
1000
0000
0000
0000
0000
0000
0000
0000
0000
1000
0000
0000
0000
0000
0000
0000
0000
0000
0001
0000
0000
0000
0000
0000
,
0010
0000
1000
0000
0010
0000
0002
2000
0000
0000
0003
0000
3000
0000
0000
0000
,
0001
0000
0100
0000
1000
0000
0010
0000
0001
0000
0000
0000
1000
0001
0000
0000
,
1001
0110
1001
MMMM
,
0001
0000
0000
0011
0000
0000
0001
0000
0000
0101
0000
0000
0120
0000
0000
0000
0000
1000
0000
0000
1030
0000
0000
1000
,
0100
0000
0100
0010
0000
0010
0001
0000
0100
0010
0000
2020
0000
0000
0000
0030
0000
0000
3000
0000
0000
0000
0000
0000
,
1000
0000
0001
0000
0000
0100
0001
0000
0010
0100
0000
1000
0000
0000
0101
0000
0000
0001
0100
0000
0001
0010
0000
0100
,
0000
0000
1100
0000
0000
0100
1000
0000
1000
0100
0000
0100
0010
0000
0010
0100
0000
0010
0100
0000
0100
0010
0000
0001
,
1000
0000
0000
0110
0000
0000
0010
0000
0000
1010
0000
0000
2100
0000
0000
0000
0000
0001
0000
0000
3001
0000
0000
0010
,
0100
0000
0100
1000
0000
1000
0010
0000
0010
0100
0000
0202
0000
0000
0000
0300
0000
0000
0003
0000
0000
0000
0000
0000
,
1000
1100
0001
0101
1000
1010
0001
0011
,
1001
0010
1001
1000
0101
0100
1010
0010
,
2002
3003
0000
0000
;
