#TITLE:Rise'n Beauty;
#SUBTITLE:;
#ARTIST:Sota feat. Cyborg Akemi;
#TITLETRANSLIT:;
#SUBTITLETRANSLIT:;
#ARTISTTRANSLIT:;
#GENRE:;
#CREDIT:;
#MUSIC:Rise'n Beauty.ogg;
#BANNER:Rise'n Beauty-bn.png;
#BACKGROUND:Rise'n Beauty-bg.png;
#CDTITLE:;
#SAMPLESTART:53.767;
#SAMPLELENGTH:25.894;
#SELECTABLE:YES;
#OFFSET:1.207;
#BPMS:0.000=144.000;
#STOPS:;
#BGCHANGES:;
#FGCHANGES:;

//--------------- dance-single - Pandemonium X ----------------
#NOTES:
     dance-single:
     Pandemonium X:
     Beginner:
     4:
     0,0,0,0,0:
0000
0000
0000
0000
,
0000
0000
0000
0000
,
0000
0000
0000
0000
,
0000
0000
0000
0000
,
0000
0000
0000
0000
,
0000
0000
0000
0000
,
0000
0000
0000
0000
,
0000
0000
0000
0000
,
0000
0000
0000
0000
,
0001
0000
1000
0000
,
0001
0001
0001
0000
,
1000
0000
0001
0000
,
1000
1000
1000
0000
,
0010
0000
0100
0000
,
0010
0010
0100
0100
,
0001
0000
0000
0001
0000
0000
0001
0000
,
0000
0000
0000
0000
,
1000
0000
0000
0010
,
0000
0000
0000
0100
,
0000
0000
0000
0001
,
0000
0000
0000
1000
,
0001
0000
0000
0100
,
0000
0000
0000
0001
,
0000
0000
0000
0010
,
0000
0000
0100
0100
,
1000
0000
0000
0000
,
0001
0000
0000
0000
,
0100
0000
0000
0000
,
0010
0000
0000
0000
,
1000
0000
0000
0000
,
0100
0000
0000
0000
,
0010
0000
0001
0000
,
0200
0000
0000
0300
,
0010
0000
0010
0000
,
0010
0010
0010
0000
,
0100
0000
0100
0000
,
0100
0100
0100
0000
,
0001
0000
0001
0000
,
0001
0001
0001
1000
,
0001
0000
1000
0000
,
0010
0000
0000
0000
,
1000
0000
1000
0000
,
1000
1000
1000
0000
,
0100
0000
0010
0000
,
0100
0100
0100
0000
,
0010
0000
0001
0000
,
0100
0100
0010
0010
,
1000
0000
0001
0000
,
1000
0000
0000
0000
,
0001
0000
0100
0000
,
0010
0000
1000
0000
,
1001
0000
0000
0000
,
0000
0000
0000
0000
,
1000
0000
0010
0000
,
0100
0000
0001
0000
,
1001
0000
0000
0000
,
0200
0000
0000
0300
,
1001
0000
1000
0000
,
0001
0100
0001
0000
,
1000
0000
0001
0000
,
1000
0010
1000
0000
,
0001
0000
1000
0000
,
0001
0100
0001
0000
,
1000
0000
0001
0000
,
1000
0100
1000
0000
,
0100
1000
0010
0000
,
0100
0001
0010
0000
,
0100
1000
0010
0000
,
0100
0001
0010
0000
,
0100
0010
0001
0000
,
1000
0100
0010
0000
,
0100
1000
0001
0000
,
0100
0100
0100
0100
,
1001
0000
0000
0000
;

//--------------- dance-single - Pandemonium X ----------------
#NOTES:
     dance-single:
     Pandemonium X:
     Easy:
     7:
     0,0,0,0,0:
0000
0000
0000
0000
,
0000
0000
0000
0000
,
0000
0000
0000
0000
,
0000
0000
0000
0000
,
0000
0000
0000
0000
,
0000
0000
0000
0000
,
0000
0000
0000
0000
,
0000
0000
0000
0000
,
0000
0000
0000
0000
,
0002
0000
2003
0000
,
3002
0000
2003
0000
0200
0000
0000
3300
,
2000
0000
3002
0000
,
2003
0000
3002
0000
0020
0000
0000
0033
,
0002
0000
2003
0000
,
3002
0203
0320
2030
,
3200
0000
0000
0320
0000
0000
0200
0000
,
0000
0000
0000
0330
,
1000
0001
0100
0001
,
0010
0001
1000
0010
,
1000
0100
1000
0001
,
0100
0000
0001
0000
0010
0000
0100
1000
,
0100
1000
0001
0100
,
0001
0010
0001
1000
,
0010
1000
0100
0010
,
0001
0000
0100
0000
0010
0000
0100
0001
,
1000
0000
0001
0000
0100
0000
0000
0002
0000
0000
0000
0000
0003
0000
0000
0000
,
0010
0000
0100
0000
1000
0000
0000
0020
0000
0000
0000
0000
0030
0000
0000
0000
,
0100
0000
0001
0000
1000
0000
0000
0002
0000
0000
0000
0000
0003
0000
0000
0000
,
1000
0000
0001
0000
0010
0000
0000
0200
0000
0000
0000
0000
0310
0000
0001
0000
,
0100
0000
0001
0000
0010
0000
0000
0002
0000
0000
0000
0000
0003
0000
0000
0000
,
0010
0000
0100
0000
1000
0000
0000
0020
0000
0000
0000
0000
0030
0000
0000
0000
,
0100
0000
0000
0000
0000
0000
0000
0010
0000
0000
0010
0000
0000
0000
0000
0000
,
0000
0000
0110
1001
,
2000
0000
3002
0000
,
0023
0230
2000
3300
,
0200
0000
2300
0000
,
3020
0230
0002
0303
,
2000
0000
3002
0000
,
2003
3200
0302
0203
,
2300
0000
3002
0000
,
2000
0000
0000
3003
,
0002
0000
0203
0000
,
0320
2030
0200
3300
,
0020
0000
0032
0000
,
0023
0032
0200
0303
,
0020
0000
0230
0000
,
0302
0023
0230
2300
,
3002
0000
2003
0000
,
0002
0000
0000
3003
,
2000
0000
3020
0000
,
0230
0000
0000
0000
0302
0000
0013
0001
,
1000
0000
0000
1000
0000
0000
1000
0000
0001
0000
0000
0001
0000
0000
0001
0000
,
0000
0000
0000
0000
,
2000
0000
3020
0000
,
0230
0000
0000
0000
0302
0000
1003
0100
,
1000
0000
0000
1000
0000
0000
1000
0000
0001
0000
0000
0001
0000
0000
0010
0000
,
0000
0000
0110
1001
,
0001
1000
0100
0100
,
1000
0001
0100
0100
,
0001
1000
0010
0010
,
1000
0000
0001
0000
0010
0000
0010
0001
,
0010
0001
0100
0100
,
0010
1000
0100
0100
,
1000
0001
0010
0010
,
0100
0000
1000
0000
0010
0000
0010
0100
,
0010
0100
0001
0010
,
0100
0010
0001
1000
,
0100
0010
0100
1000
,
0010
0000
0100
0000
0001
0000
0010
0100
,
0010
0001
0100
0010
,
1000
0100
0010
0001
,
0010
0001
0100
0010
,
1000
0000
0000
0000
0001
0000
0000
1000
0000
0000
0000
0000
0010
0000
1000
0000
,
0001
0000
0000
0000
;

//--------------- dance-single - Pandemonium X ----------------
#NOTES:
     dance-single:
     Pandemonium X:
     Medium:
     10:
     0,0,0,0,0:
0000
0000
0000
0000
,
0000
0000
0000
0000
,
0000
0000
0000
0000
,
0000
0000
0000
0000
,
0000
0000
0000
0000
,
0000
0000
0000
0000
,
0000
0000
0000
0000
,
0000
0000
0000
0000
,
0000
0000
0000
0000
,
0020
0000
0000
1030
0020
0000
0000
1030
,
0200
0320
0002
0030
,
0203
0000
0000
0301
0200
0000
0000
0301
,
0020
0000
0230
0000
0020
0000
0000
0030
,
0320
0000
0000
0031
0020
0000
0000
0031
,
0200
0320
2030
3002
,
0023
0000
0000
0230
0000
0000
2300
0000
,
0001
0000
0001
0000
0001
0001
3001
0000
,
1001
0000
0000
0000
0001
0000
0000
1000
0000
0100
0000
0000
0011
0000
0000
0000
,
1000
0000
0000
0000
0001
0000
0000
0100
0000
0001
0000
0000
1100
0000
0000
0000
,
0010
0000
0000
0000
0100
0000
0000
0001
0000
1000
0000
0000
1001
0000
0000
0000
,
1000
0000
0000
0000
0100
0000
0000
1000
0000
0010
0000
0000
0100
0000
0001
0000
,
0010
0000
0000
0000
0100
0000
0000
0010
0000
0001
0000
0000
1100
0000
0000
0000
,
0100
0000
0000
0000
1000
0000
0000
0010
0000
1000
0000
0000
0101
0000
0000
0000
,
0001
0000
0000
0000
1000
0000
0000
0001
0000
0010
0000
0000
1100
0000
0000
0000
,
1000
0000
0000
0000
0001
0000
0000
0000
0100
0001
0000
0001
0010
0000
0100
0000
,
1000
0000
0100
0000
1000
0000
0000
0100
0000
0000
0100
0000
0000
0100
0000
0000
,
0010
0000
0001
0000
0010
0000
0000
0001
0000
0000
0001
0000
0000
0001
0000
0000
,
0100
0000
0001
0000
0100
0000
0000
0001
0000
0000
0001
0000
0000
0001
0000
0000
,
0100
0000
0010
0000
0100
0000
0000
0010
0000
0000
0010
0000
0000
0010
0000
0000
,
0100
0000
0001
0000
0010
0000
0000
0100
0000
0000
0010
0000
0000
0100
0000
0000
,
0010
0000
0001
0000
0100
0000
0000
0010
0000
0000
0100
0000
0000
0010
0000
0000
,
0101
0000
0000
0000
0000
0000
0000
0011
0000
0000
0011
0000
0000
0000
0000
0000
,
2001
0000
0000
0000
3002
0203
0320
2030
,
3200
0000
0000
0310
0002
0000
0000
0103
,
2000
0000
3200
0302
2000
0000
3003
0000
,
2000
0000
0000
3100
0020
0000
0000
0031
,
0020
0230
2000
3300
,
2000
0000
0000
3010
0200
0000
0000
0310
,
2000
3002
0023
0230
,
0302
0000
0203
0000
,
2000
0000
0000
0000
0000
3300
0000
0000
,
0201
0000
0301
0100
0020
0000
0130
0001
,
2000
3200
0020
0330
,
0200
0000
1300
0010
0200
0000
0310
0100
,
0002
0000
2000
3003
0220
0000
0330
0000
,
2001
0000
3001
0010
0200
0000
0310
0001
,
0200
2300
3200
0302
,
0023
0000
0032
0000
,
2000
0000
0000
0000
0000
3003
0000
0000
,
0002
0000
0203
0000
,
2300
0000
0000
0000
3020
0000
0031
1000
,
0001
0000
0000
0001
0000
0000
0001
0000
1000
0000
0000
1000
0000
0000
1000
0000
,
0000
0000
0000
0000
,
2000
0000
3020
0000
,
0032
0000
0000
0000
0203
0000
1300
0001
,
1000
0000
0000
1000
0000
0000
1000
0000
0001
0000
0000
0001
0000
0000
0010
0000
,
0000
0000
0000
0000
0002
0023
0230
2300
,
3001
0100
0010
0000
0100
0000
0101
0000
,
0001
1000
0100
0000
0010
0000
0011
0000
,
0001
1000
0100
0000
0010
0000
0110
0000
,
0100
1000
0010
0000
0100
0000
0101
0001
,
1000
0100
0010
0000
0100
0000
1100
0000
,
1000
0010
0100
0000
0001
0000
0101
0000
,
0001
1000
0100
0000
0010
0000
0011
0000
,
0001
0100
0010
0000
0100
0000
1001
0000
,
0001
0000
1000
0000
0010
0000
0000
0100
0000
0001
0000
0000
0010
0000
0000
0000
,
0100
0000
1000
0000
0100
0000
0000
1000
0000
0001
0000
0000
0100
0000
0000
0000
,
0001
0000
0010
0000
0100
0000
0000
0010
0000
0001
0000
0000
0100
0000
0000
0000
,
0010
0000
0100
0000
0001
0000
0000
1000
0000
0100
0000
0000
1000
0000
0000
0000
,
0100
0000
1000
0000
0010
0000
0000
0100
0000
0001
0000
0000
1000
0000
0001
0000
,
0100
0000
0001
0000
0010
0000
0000
0100
0000
0010
0000
0000
0001
0000
0000
0000
,
0100
0000
0010
0000
1000
0000
0000
0001
0000
1000
0000
0000
0010
0000
0000
0000
,
1000
0000
0000
0000
0001
0000
0000
0100
0000
0000
0000
0000
0001
1000
0001
1000
;

//--------------- dance-single - Pandemonium X ----------------
#NOTES:
     dance-single:
     Pandemonium X:
     Hard:
     14:
     0,0,0,0,0:
0000
0000
0000
0000
,
0000
0000
0000
0000
,
0000
0000
0000
0000
,
0000
0000
0000
0000
,
0000
0000
0000
0000
,
0000
0000
0000
0000
,
0000
0000
0000
0000
,
0000
0000
0000
0000
,
0000
0000
0000
0000
,
0002
0000
1003
0100
2000
0000
3001
0100
,
0010
1000
0100
0010
0002
0000
0000
0003
,
2000
0000
3001
0010
0002
0000
1003
0100
,
1000
0100
0010
0001
0020
0000
0000
0030
,
0002
0000
1003
0010
2000
0000
3010
1000
,
0200
0320
0032
0023
,
0032
0000
0000
0203
0000
0000
0320
0000
,
0001
0000
1000
0000
0130
0010
1001
0000
,
1000
0000
0000
0000
0001
0100
0001
1000
0000
1000
0000
0000
0011
0000
0000
0000
,
0001
0000
0000
0000
1000
0010
1000
0001
0000
0001
0000
0000
0011
0000
0000
0000
,
1000
0000
0000
0000
0100
0010
0100
1000
0000
1000
0000
0000
0101
0000
0000
0000
,
1000
0000
0000
0000
1000
0100
0010
0001
0000
0001
0000
0000
0010
0000
0001
0000
,
1001
0000
0000
0000
0001
0010
0100
0010
0000
0010
0000
0000
0011
0000
0000
0000
,
1000
0000
0000
0000
0010
0100
0001
0100
0000
0100
0000
0000
0011
0000
0000
0000
,
1000
0000
0000
0000
0001
0100
0001
0010
0000
0010
0000
0000
1001
0000
0000
0000
,
1000
0000
0000
0000
1000
0100
0010
0100
0000
0100
0000
0000
1000
0001
1000
0001
,
1000
0000
0010
0000
0100
0001
0000
0010
0000
0100
0010
0000
0010
0100
0000
0000
,
0010
0000
0001
0000
0100
0001
0000
1000
0000
0001
0010
0000
0010
0001
0000
0000
,
1000
0000
0010
0000
0100
0001
0000
1000
0000
0100
0010
0000
0010
0100
0000
0000
,
0010
0001
0010
0000
0001
0100
0000
0010
0000
0100
0001
0000
1000
0000
1000
0000
,
1001
0000
1000
0000
0100
0010
0000
0100
0000
1000
0010
0000
0100
1000
0000
0000
,
0100
0000
0001
0000
0010
0100
0000
0001
0000
0100
1000
0000
0001
0010
0000
0000
,
1001
0000
0000
0000
0000
0000
0000
1010
0000
0000
0101
0000
0000
0000
0000
0000
,
2001
0000
0000
0000
3002
0203
2300
3020
,
0032
0000
0103
0010
2000
0000
3100
0010
,
0001
0010
0100
1000
0001
0000
0101
0000
,
0002
0000
0013
0100
2000
0000
3100
0010
,
0001
1000
0001
0100
0010
0000
1010
1000
,
0200
0000
0310
0100
0020
0000
0130
1000
,
0200
2300
3020
0230
,
2300
0000
3100
0001
0020
0000
1030
0010
,
0002
0000
0000
0000
0010
0000
0000
0000
0013
0000
0000
0000
0100
1000
0100
1000
,
0200
0000
0310
0001
0200
0000
0310
1000
,
0002
0000
0000
0000
2003
0000
0000
0000
3200
0000
0000
0310
0100
0000
1000
0000
,
0002
0000
1003
0100
0020
0000
0130
1000
,
0020
0000
0000
0000
0032
0000
0000
0000
0023
0000
0000
0130
0001
0000
1000
0000
,
0200
0000
0310
0001
0200
0000
0310
1000
,
0200
0302
0203
0320
,
0032
0100
2003
0100
,
0002
0000
0000
0000
0000
0000
0000
0000
0000
0000
3003
0000
1000
0010
1000
0010
,
1000
0000
0000
1000
0010
0000
0000
0000
0010
0000
0000
0010
0100
0000
0000
0000
,
0100
0000
0000
0100
0001
0000
0000
0000
0001
0000
0000
0000
1000
0000
0100
0000
,
0010
0000
0000
0010
0000
0000
0020
0000
0100
0000
0000
0100
0000
0000
0200
0000
,
0330
0000
0000
0000
0000
0000
0000
0000
0000
0000
0000
0000
1000
0001
1000
0001
,
1000
0000
0000
1000
0010
0000
0000
0000
0010
0000
0000
0010
0100
0000
0000
0000
,
0100
0000
0000
0100
0001
0000
0000
0000
1000
0000
0000
0000
0001
0000
0010
0000
,
0100
0000
0000
0100
0000
0000
0200
0000
0010
0000
0000
0010
0000
0000
0020
0000
,
0330
0000
0000
0000
0002
0203
2300
3020
,
0031
0000
0100
0000
0010
0000
0100
0010
0000
0010
0000
0010
1000
0000
0100
0000
,
1000
0000
0001
0000
0100
0000
0001
0010
0000
0010
0000
0010
0100
0000
0010
0000
,
0001
0000
1000
0000
0001
0000
1000
0010
0000
0010
0000
0010
0100
0000
0001
0000
,
1000
0000
0001
0000
1000
0000
0001
0010
0000
0010
0000
0010
0100
0000
1000
0000
,
0001
0000
0100
0000
0010
0000
1000
0100
0000
0010
0000
0100
1000
0000
0001
0000
,
1000
0000
0010
0000
1000
0000
0010
0100
0000
0010
0000
0100
0001
0000
1000
0000
,
0010
0000
0100
0000
0001
0000
1000
0001
0000
0010
0000
0001
1000
0000
0001
0000
,
0100
0000
0001
0000
0010
0000
0001
1000
0000
0010
0000
1000
0100
1000
0100
1000
,
0100
0000
0010
0000
0001
0000
0100
0001
0000
0010
0000
0001
0100
0001
0100
0001
,
1000
0000
0010
0000
0100
0000
0010
1000
0000
0100
0000
1000
0001
0010
0001
0010
,
0001
0000
1000
0000
0100
0000
0010
0100
0000
0010
0000
0001
1000
0010
1000
0010
,
0100
0000
0001
0000
0010
0000
0100
0010
0000
0001
0000
0010
0001
1000
0001
1000
,
0001
0000
0100
0000
0010
0000
1000
0100
0000
0010
0000
0100
1000
0001
1000
0001
,
0100
0001
0010
0000
0100
0000
0010
0001
0000
0100
0000
0010
1000
0001
1000
0001
,
1000
0000
0100
0000
1000
0000
0001
0100
0000
0010
0000
1000
0100
0000
0010
0000
,
0011
0000
1010
0000
1001
0000
1000
0001
0000
0000
0000
0000
1000
0100
0010
0001
,
1000
0000
0000
0000
;
