#TITLE:R5 (SKA-ANA MIX);
#SUBTITLE:;
#ARTIST:tiger YAMATO with ultrabeatbox;
#TITLETRANSLIT:;
#SUBTITLETRANSLIT:;
#ARTISTTRANSLIT:;
#GENRE:;
#CREDIT:;
#MUSIC:R5 (SKA-ANA MIX).ogg;
#BANNER:R5 (SKA-ANA MIX)-bn.png;
#BACKGROUND:R5 (SKA-ANA MIX)-bg.png;
#CDTITLE:;
#SAMPLESTART:33.057;
#SAMPLELENGTH:15.646;
#SELECTABLE:YES;
#OFFSET:0.943;
#BPMS:0.000=180.000;
#STOPS:;
#BGCHANGES:;
#FGCHANGES:;

//--------------- dance-single - Pandemonium X ----------------
#NOTES:
     dance-single:
     Pandemonium X:
     Beginner:
     6:
     0,0,0,0,0:
0000
0000
0000
0000
,
0000
0000
0000
0000
,
0000
0000
0000
0000
,
0000
0000
0000
0000
,
0000
0000
0000
0000
,
0000
0000
0000
0000
,
0000
0000
0000
0001
,
0001
0000
0000
0000
,
0000
1000
1000
0000
,
0000
0000
0000
0010
,
0010
0000
0000
0000
,
0000
0100
0010
0010
,
0010
0010
0010
0000
,
0000
0000
1001
0000
,
0000
0000
0000
0000
,
1000
0001
1000
0001
,
1000
0001
1000
0001
,
1000
0001
1000
0001
,
1000
0001
1000
0001
,
1000
0001
1000
0001
,
1000
0001
1000
0001
,
1000
0001
1000
0001
,
1000
0001
1000
0001
,
1000
0001
1000
0001
,
0000
0000
0000
0000
,
0000
1001
1000
1000
,
0000
0001
0000
0000
0000
0000
0000
0000
,
0010
0000
0000
0000
0000
0000
0000
0100
,
0000
0000
0000
0010
,
0000
0100
0000
0000
0000
0000
0000
0000
,
0000
1000
0000
0000
0000
0000
0000
0000
,
0000
1001
0000
0001
,
0000
0000
0000
0100
0000
0000
0000
0000
,
0000
0010
0000
0000
0000
0000
0000
0100
,
0000
0000
0000
0010
,
0000
1000
0000
0000
0000
0000
0000
0000
,
0000
0001
0000
0000
0000
0000
0000
0000
,
0000
1000
0001
0000
,
0100
0000
0010
0010
,
0000
1000
0000
0100
,
0010
0010
0000
0001
,
0000
1000
0001
0001
,
0000
0100
0000
0001
,
0010
0010
0100
0000
,
0000
0000
0000
1000
,
0010
0000
0000
0000
,
0000
0100
0001
0000
,
0000
0000
0000
0010
,
0100
0000
0000
0000
,
0000
0000
0000
0000
0000
1000
0000
1000
,
0000
1000
0000
0000
0000
0000
1001
0000
,
0000
0001
0000
0001
0000
0001
0000
0000
,
0000
0000
1001
0000
0000
1000
0000
1000
,
0000
1000
0000
0000
0000
0000
1001
0000
,
0000
0001
0000
0001
0000
0001
0000
0000
,
0000
1001
0110
0000
,
0001
0000
0000
0000
,
0000
0000
0000
1000
,
1000
0000
0000
0000
,
0000
0000
0000
0001
,
0000
0100
0000
0000
0001
0000
0001
0000
,
0000
0000
1000
0000
0000
0100
0000
0000
,
1000
1000
0000
0000
,
0010
0010
0010
0100
,
0000
0010
0000
0000
1000
0000
1000
0000
,
0000
0000
0010
0000
0000
0100
0000
0000
,
0001
0001
0000
0000
,
0000
0000
1001
0000
,
0000
0000
0000
0000
0010
0010
0000
0000
,
1001
0000
0000
0000
;

//--------------- dance-single - Pandemonium X ----------------
#NOTES:
     dance-single:
     Pandemonium X:
     Easy:
     9:
     0,0,0,0,0:
0000
0000
0000
0000
,
0000
0000
0000
0000
,
0000
0000
0000
0000
,
0000
0000
0000
0000
,
0000
0000
0000
0000
,
0000
0000
0000
0000
,
0000
0000
0000
0000
,
0000
0000
0001
0000
0000
0100
0000
0000
,
0001
0000
0000
1000
0000
0000
0100
0000
,
0000
1000
0000
0000
0001
0000
0000
1000
,
0000
0000
0010
0000
0000
1000
0000
0000
,
0001
0110
1000
0001
,
1000
0001
1000
0000
,
0000
0000
1001
0000
,
0000
0000
0000
0000
,
1000
0001
1000
0001
1000
0001
1000
0001
,
1000
0001
1000
0001
1000
0001
1000
0001
,
1000
0001
1000
0001
1000
0001
1000
0001
,
1000
0001
1000
0001
1000
0001
1000
0001
,
1000
0001
1000
0001
1000
0001
1000
0001
,
1000
0001
1000
0001
1000
0001
1000
0001
,
1000
0001
1000
0001
1000
0001
1000
0001
,
1000
0001
1000
0001
1000
0001
1000
0001
,
1000
0001
1000
0001
1000
0001
1000
0000
,
0000
0000
0000
0000
,
0000
0100
1001
0000
0001
0000
0100
0000
,
0000
0010
0000
0100
0000
0000
0001
0000
,
0000
0010
0000
0000
0001
0000
0000
1000
,
0000
0010
0000
1000
,
0000
0100
0000
0010
0000
0000
0100
0000
,
0000
1000
0000
0000
0001
0000
0000
0100
,
0000
1001
0000
1000
,
0000
0001
0000
0010
0000
0000
0001
0000
,
0000
0100
0000
0000
0010
0000
0000
1000
,
0000
0001
0000
0010
,
0000
0001
0000
1000
0000
0000
0010
0000
,
0000
1000
0000
0000
0100
0000
0000
0010
,
0000
0110
0001
1000
,
0000
0010
0000
0000
0100
0000
0100
0000
,
0000
0000
0010
0000
0000
1000
0000
0000
,
0100
0100
0000
0010
,
0000
0001
0000
0000
0100
0000
0100
0000
,
0000
0000
0010
0000
0000
1000
0000
0000
,
0100
0100
1000
0010
,
0100
0001
0010
0110
,
1100
0100
1000
0001
,
0100
0101
1001
0001
,
0010
0100
0010
0011
,
1100
0001
1000
0010
,
0100
0000
0000
0000
1001
1000
0000
1000
,
0000
1000
0001
1000
0000
0000
1010
0000
,
0000
0001
0000
0001
0000
0001
1000
0001
,
0000
0000
0011
0000
0000
0100
0000
0100
,
0000
0100
0010
0100
0000
0000
1100
0000
,
0000
0010
0000
0010
0000
0010
0100
0010
,
0000
0000
1001
0000
0101
0000
0001
1000
,
0001
0100
0010
1000
,
0100
0000
0010
0000
0100
0000
1000
0001
,
1000
0001
1000
0100
,
0010
0001
1001
0001
,
0100
0000
0010
0000
1000
0100
1000
0100
,
1000
0001
0100
0010
,
0100
0001
0100
0001
0100
0000
0001
0000
,
0010
0100
1000
0001
,
1000
0000
0100
0000
0010
0001
0010
0001
,
0010
0001
0100
0010
,
1000
0010
1000
0010
1000
0000
1001
0000
,
0001
1000
0110
0000
,
0000
0000
0000
0000
0001
1000
0000
0000
,
0110
0000
0000
0000
;

//--------------- dance-single - Pandemonium X ----------------
#NOTES:
     dance-single:
     Pandemonium X:
     Medium:
     11:
     0,0,0,0,0:
0000
0000
0000
0000
,
0000
0000
0000
0000
,
0000
0000
0000
0000
,
0000
0000
0000
0011
,
1100
0000
0000
0000
,
0000
1010
0101
0000
,
0000
0000
0000
0110
,
1001
0000
0001
0000
0000
0100
0000
0000
,
1000
0000
0000
0100
0000
0000
0001
0000
,
0000
0010
0000
0000
1000
0000
0000
0010
,
0000
0000
0001
0000
0000
0010
0000
0000
,
0100
1000
1001
0110
,
1001
0110
1001
0000
,
0010
0100
1001
0000
,
0000
0000
0000
0000
,
0001
0001
1000
1000
0001
0001
1000
1000
,
0001
0001
1000
1000
0001
0001
1000
1000
,
0001
0001
1000
1000
0001
0001
1000
1000
,
0001
0001
1000
1000
0001
0001
1000
1000
,
0001
0001
1000
1000
0001
0001
1000
1000
,
0001
0001
1000
1000
0001
0001
1000
1000
,
0001
0001
1000
1000
0001
0001
1000
1000
,
0001
0001
1000
1000
0001
0001
1000
1000
,
0001
0001
1000
1000
0001
0001
1000
0000
,
0100
0000
0100
0000
0100
0001
0100
1000
,
0010
0101
1001
1100
,
0000
1000
0000
0001
0000
0000
0011
0000
,
0000
0101
0000
0000
1100
0000
0000
0101
,
0000
1001
0000
0011
,
0000
0001
0000
1000
0000
0000
1100
0000
,
0000
1010
0000
0000
0011
0000
0000
1001
,
0000
0000
1001
0011
,
0000
0010
0000
0100
0000
0000
0011
0000
,
0000
0101
0000
0000
1100
0000
0000
0101
,
0000
1001
0000
0011
,
0000
0010
0000
0100
0000
0000
1100
0000
,
0000
1010
0000
0000
0011
0000
0000
1001
,
0000
0000
1000
0000
0000
0000
0100
1000
,
0000
0100
0010
0000
0100
1000
0010
0100
,
0000
0000
0001
0010
0000
0100
0010
0000
,
0100
0010
0001
0100
0000
0000
0001
0010
,
0000
0001
1000
0000
0001
0010
0001
1000
,
0000
0000
1000
0100
0000
0100
1000
0000
,
1000
0100
0010
0001
0100
0000
0001
0000
,
0010
0100
1000
1100
,
1001
0001
1000
0010
,
0100
0011
1001
0001
,
1000
0100
0010
0101
,
1001
0001
0100
0010
,
1000
0000
0000
0000
1001
0001
0000
0001
,
0000
0001
0100
0010
0000
0000
1001
0000
,
0000
1000
0000
1000
0000
1000
0010
0100
,
0000
0000
1001
0000
0000
0001
0000
0001
,
0000
0001
0100
0010
0000
0000
1001
0000
,
0000
1000
0000
1000
0000
1000
0010
0100
,
0000
0000
1001
0000
0001
0000
0100
0001
,
0010
0100
0010
0000
0001
0000
1000
0000
,
0100
0000
0010
0000
0100
0000
0010
0100
,
1000
0010
0100
0000
0010
0000
0100
0000
,
0001
0000
1000
0001
0010
0000
0001
0001
,
0000
1000
1000
0000
0001
0001
0100
0100
,
0000
0000
0010
0010
0000
1000
1000
0000
,
0100
0100
1000
1000
0100
0000
1000
0000
,
0010
0000
0100
0000
0001
0000
0010
0010
,
0000
0001
0001
0000
0100
0100
0001
0001
,
0000
0000
0100
0100
0000
0010
0010
0000
,
1000
1000
0001
0001
1000
0000
1100
0000
,
0010
0000
0001
0000
1001
0001
0100
0010
,
1000
0001
0100
0010
1010
0101
0000
0000
,
0011
0000
0000
0000
;

//--------------- dance-single - Pandemonium X ----------------
#NOTES:
     dance-single:
     Pandemonium X:
     Hard:
     15:
     0,0,0,0,0:
0000
0000
0000
0000
,
0000
0000
0000
0000
,
0000
0000
0000
0000
,
0000
0000
0000
1100
,
1010
0000
0010
1000
0100
0010
0100
0000
,
1000
0000
0011
0000
0101
0000
0100
0001
,
0010
0100
0010
0000
0001
0100
0110
0000
,
1010
0000
1000
0000
0100
1000
0010
0000
,
0100
0000
1000
0100
0001
0000
0010
0000
,
0100
0010
0001
0000
0010
0000
1000
0010
,
0100
0000
1000
0000
0010
0100
1000
0000
,
0100
1001
1100
0101
,
1100
0101
1100
0000
,
1000
0100
0010
0001
1001
0000
0000
0000
,
0000
0000
0000
0000
,
1000
0001
1000
0001
1000
0001
1000
0001
1000
0001
1000
0001
1000
0001
1000
0001
,
1000
0001
1000
0001
1000
0001
1000
0001
1000
0001
1000
0001
1000
0001
1000
0001
,
1000
0001
1000
0001
1000
0001
1000
0001
1000
0001
1000
0001
1000
0001
1000
0001
,
1000
0001
1000
0001
1000
0001
1000
0001
1000
0001
1000
0001
1000
0001
1000
0001
,
1000
0001
1000
0001
1000
0001
1000
0001
1000
0001
1000
0001
1000
0001
1000
0001
,
1000
0001
1000
0001
1000
0001
1000
0001
1000
0001
1000
0001
1000
0001
1000
0001
,
1000
0001
1000
0001
1000
0001
1000
0001
1000
0001
1000
0001
1000
0001
1000
0001
,
1000
0001
1000
0001
1000
0001
1000
0001
1000
0001
1000
0001
1000
0001
1000
0001
,
1000
0001
1000
0001
1000
0001
1000
0001
1000
0001
1000
0001
1000
0001
1000
0000
,
0010
0000
0010
0000
0010
0001
0010
1000
,
0001
0010
1100
0000
1001
0000
1010
0000
,
0010
1000
0100
0010
0100
0000
1100
0000
,
0001
0100
0001
0010
0001
0100
0001
0010
,
0001
0100
0001
0010
0001
0000
1100
0000
,
0001
0010
0100
0010
0001
0000
1010
0000
,
1000
0010
0100
0010
1000
0010
0100
0010
,
1000
0001
1001
0000
0001
0000
0011
0000
,
0010
0001
0100
0010
0100
0000
1010
0000
,
0001
0010
0100
0010
0001
0010
0100
0010
,
0001
0010
0100
0010
0001
0000
1100
0000
,
0100
1000
0001
0100
0001
0000
1010
0000
,
1000
0100
0010
0100
1000
0100
0010
0100
,
1000
0000
0000
0000
0001
0000
0100
0001
,
0000
0010
0100
0000
0010
1000
0010
0001
,
0000
0000
0010
0100
0000
1000
0010
0000
,
0100
1000
0100
0001
0000
0000
1000
0100
,
0000
0010
0100
0000
1000
0010
0001
0010
,
0000
0000
0100
0001
0000
1000
0010
0000
,
0001
0010
1000
0001
1000
0100
0010
0100
,
1000
0100
0010
0001
0010
0100
0010
0001
,
1000
0010
1000
0100
1000
0010
0100
0001
,
0010
0100
0010
0001
1000
0010
0001
0010
,
0100
0001
1000
0100
0010
0100
1000
0001
,
0100
0010
0001
0010
1000
0100
0010
0100
,
1000
0100
0010
0001
1001
1000
0000
1000
,
0000
1000
0100
0001
0000
0000
1100
0000
,
0000
0001
0000
0001
0000
0001
0100
1000
,
0000
0000
0101
0000
0000
1000
0000
1000
,
0000
1000
0010
0001
0000
0000
1010
0000
,
0000
0001
0000
0001
0000
0001
0010
1000
,
0000
0000
0011
0000
1000
0001
0100
0001
,
0010
1000
0010
0100
0010
0001
0100
0010
,
1000
0001
1000
0100
0010
0100
1000
0010
,
0001
0010
1000
0001
0010
0100
1000
0010
,
0100
0001
0010
0100
0010
0001
1000
1000
,
0001
0100
0100
0001
1000
0100
0001
0100
,
1000
0010
0100
0100
0001
0010
0010
0001
,
0010
1000
0010
0001
1000
0010
0100
0001
,
0010
0100
0010
0001
1000
0010
0100
0100
,
0010
1000
1000
0100
0010
1000
0010
0001
,
1000
0001
0100
0100
0001
1000
1000
0100
,
0010
1000
0010
0001
1000
0010
1010
1000
,
0100
0010
0001
1000
1001
0001
0001
0001
,
0001
0000
0001
0000
0001
0000
0001
0000
0101
0000
1010
0000
0010
0100
0001
1000
,
0001
0000
0000
0000
;
