#TITLE:PIT A PAT;
#SUBTITLE:;
#ARTIST:Zekk;
#TITLETRANSLIT:;
#SUBTITLETRANSLIT:;
#ARTISTTRANSLIT:;
#GENRE:;
#CREDIT:;
#MUSIC:PIT A PAT.ogg;
#BANNER:PIT A PAT-bn.png;
#BACKGROUND:PIT A PAT-bg.png;
#CDTITLE:;
#SAMPLESTART:24.839;
#SAMPLELENGTH:22.353;
#SELECTABLE:YES;
#OFFSET:-0.898;
#BPMS:0.000=170.000;
#STOPS:246.000=0.353
,249.000=0.353
,300.000=0.353
;
#BGCHANGES:;
#FGCHANGES:;

//--------------- dance-single - Pandemonium X ----------------
#NOTES:
     dance-single:
     Pandemonium X:
     Beginner:
     5:
     0,0,0,0,0:
0000
0000
0000
0000
,
0000
0000
0000
0000
,
0000
0000
0000
0000
,
0000
0000
0000
0000
,
0000
0000
0000
0000
,
0000
0000
0000
0000
,
0000
0000
0000
0000
,
0000
0000
0000
0000
,
0000
0000
0000
0000
,
0001
0000
0001
0000
,
0001
0000
0000
1001
,
1000
0000
1000
0000
,
1000
0000
0110
0110
,
0001
0000
0000
0000
,
1000
0000
0000
0000
,
0010
0000
0100
0000
,
0002
0000
0000
0003
,
1000
0000
0001
0000
,
1000
1000
1000
0000
,
0001
0000
0100
0000
,
0010
0000
0100
0001
,
0100
0000
0001
0000
,
0010
0010
0010
0000
,
0100
0000
1000
0000
,
0001
1000
0001
0000
,
1000
0000
0010
0000
,
1000
1000
1000
0000
,
0001
0000
0010
0000
,
0001
0001
0001
0000
,
1000
0000
0100
0000
,
1000
1000
1000
0000
,
0001
0000
0100
0000
,
0002
0000
0003
0000
,
1000
0000
1000
0000
,
1000
0000
0000
0000
,
0001
0000
0001
0000
,
0001
0000
0000
0000
,
0100
0000
0000
0000
,
0010
0000
0000
0001
,
1000
0000
0000
0100
,
0000
0000
0000
0000
,
0010
0000
0000
0001
,
0000
0000
0000
1000
,
0010
0000
0000
0000
,
0100
0000
0000
0000
,
0010
0000
1000
0000
,
0001
0000
0010
0000
,
0100
0000
1000
0000
,
0001
0000
0000
0000
,
1000
0000
0000
0000
,
0000
0000
0000
0000
,
0001
0000
0000
0000
,
0000
0000
0000
0000
,
0100
0000
0000
0000
,
0000
0000
0000
0000
,
0010
0000
0000
0000
,
1000
0000
0001
0000
,
0100
0000
0000
0000
,
0010
0000
0000
0000
,
1000
0000
0001
0000
,
1000
0000
0000
0000
,
0001
0001
0001
1000
,
1000
1000
0010
0010
,
0010
0010
1001
0000
,
0000
0000
2000
0000
,
0000
3000
0001
0000
,
1000
0000
0100
0100
,
0100
0000
0010
0000
,
0001
0000
1000
0000
,
0010
0100
0010
0000
,
0100
0000
0001
0001
,
0001
0000
0010
0000
,
0001
0000
1000
1000
,
1000
0000
0001
0000
,
1000
0000
0010
0010
,
0010
0100
0000
0010
,
0000
1000
1000
1000
,
0000
0001
0000
0000
,
0000
1000
0000
0000
,
0000
0010
0000
0100
,
0000
0010
0010
0010
,
0000
1000
0000
0001
,
0000
1000
0000
0001
,
0000
1000
1000
0001
,
0001
1001
0110
1001
;

//--------------- dance-single - Pandemonium X ----------------
#NOTES:
     dance-single:
     Pandemonium X:
     Easy:
     8:
     0,0,0,0,0:
0000
0000
0000
0000
,
0000
0000
0000
0000
,
0000
0000
0000
0000
,
0000
0000
0000
0000
,
0000
0000
0000
0000
,
0000
0000
0001
0000
1000
0000
0000
0001
,
0000
0010
0100
0000
,
0000
0010
0001
1000
,
0001
0010
0100
2000
0002
3000
0003
0000
,
1000
1000
0010
0010
,
0100
1000
0100
0101
,
0001
0001
0010
0010
,
1000
0010
0011
0011
,
1001
0100
0010
1000
,
1001
0010
0001
1000
,
1001
0010
1001
0100
,
0001
0000
1000
0100
0010
0100
1000
0000
,
0001
1000
0001
0010
,
0100
0100
0100
0010
,
0001
1000
0010
0100
,
0001
1000
1100
0011
,
0001
1000
0100
1000
,
0010
0010
0010
0100
,
0001
0010
0100
1000
,
0011
1100
1001
0000
,
0001
0100
1000
0100
,
0001
1000
1001
0001
,
1000
0100
0001
0100
,
1000
0001
1001
0000
,
0001
0010
1000
0010
,
0001
1000
1001
0001
,
1000
0010
0001
0010
,
2000
0000
3000
0000
,
0001
0000
1000
0000
,
0010
0000
0100
0100
,
0001
0000
1000
0000
,
0220
0000
0000
0000
0000
0300
0030
0000
,
1000
0000
0000
0001
0000
0000
0010
0100
,
0000
0010
0000
0001
0100
0000
1001
0000
,
1000
0000
0001
0000
0100
0000
0001
0010
,
0000
0100
0000
0010
0001
1000
0000
0000
,
0010
0000
0000
1000
0000
0000
0100
1000
,
0000
0010
0000
0100
0001
0000
1001
0000
,
1000
0001
0100
0010
,
1000
0100
0010
0010
,
1100
0000
0011
0000
,
0101
0000
1010
0000
,
0002
0000
0000
0000
,
2000
0000
0000
0000
0000
3000
0003
0000
,
1000
0000
0001
0000
,
0010
0000
0100
0000
,
0010
0000
0001
0000
,
1000
0000
0010
0000
,
1000
0000
0001
0000
,
0100
0000
0010
0000
,
0100
0000
0001
0000
,
1000
0000
0100
0010
0001
0000
0000
0000
,
0010
0001
0100
0001
,
1000
1000
1000
0001
,
1000
0100
0010
0001
,
0100
0010
1000
0100
,
0110
1001
0110
0110
,
1001
0000
0110
0000
0001
1000
0001
1000
,
0001
1000
0001
1000
0001
0000
0000
0000
,
0000
0000
0000
0000
1000
0000
0001
0010
,
0100
0010
0001
0000
1000
0000
0001
0000
,
0010
1000
0010
0010
,
0010
0100
0010
0001
,
0100
1000
0100
0010
,
1010
0101
0001
1000
,
0100
0001
0100
0100
,
0100
0010
0001
1000
,
0010
0100
1000
0100
,
0001
0000
1000
0001
,
0010
1000
0010
0001
,
0100
0010
1000
0100
,
0001
0100
1000
0010
,
0000
0100
1000
0100
,
0001
0010
1000
0010
,
0001
0010
0100
1000
,
0001
1000
1000
1000
,
0000
0001
0100
0001
,
1000
0100
1000
0001
,
0100
0001
1000
0100
,
1000
1001
0110
1001
;

//--------------- dance-single - Pandemonium X ----------------
#NOTES:
     dance-single:
     Pandemonium X:
     Medium:
     12:
     0,0,0,0,0:
0000
0000
0000
0000
,
0000
0000
0000
0000
,
0000
0000
0000
0000
,
0000
0000
0000
0000
,
0000
0000
0000
0000
,
1000
0001
0010
0001
,
1000
0010
1010
0000
,
0000
1000
0001
0100
,
0001
0010
0100
2000
0002
3000
0003
0000
,
1000
0010
0100
1000
,
1100
0101
1001
MMMM
,
0001
0100
0010
0001
,
0011
1010
MMMM
MMMM
,
1100
1100
0101
0101
,
0011
0011
1010
1010
,
1001
0000
0110
0000
,
0001
0000
0000
0000
1000
0000
0100
0010
0100
0000
0010
0000
0001
0000
0000
0000
,
1000
0000
0001
0100
0001
0010
0100
0010
,
0100
1000
0010
0100
1000
0000
0100
0001
,
1000
0100
1000
0100
0010
0001
0010
0001
,
0100
0000
0000
0000
0010
0000
0100
0000
0001
1000
0000
0001
1000
0000
0001
0000
,
0010
0000
0100
0010
0001
0100
0010
0100
,
0010
0100
0010
1000
0010
0000
0100
0010
,
1000
0001
1000
0001
0010
1000
0010
0001
,
0011
0000
1100
0000
1001
0110
1001
0000
,
1100
0000
0101
0000
1100
0000
0001
1000
,
1010
0000
0011
0000
1001
0000
0001
0100
,
0010
1000
1100
0000
0110
0000
0010
0001
,
0101
1010
1001
0000
,
0011
0000
1010
0000
0011
0000
1000
0001
,
0101
0000
1100
0000
1001
0000
1000
0010
,
0100
0001
0011
0000
0110
0000
0100
1000
,
1020
0100
1030
0000
,
0001
1000
0001
0000
1000
0001
1000
0000
,
0001
0010
0100
1000
1001
0000
1001
0000
,
1000
0001
1000
0000
0001
1000
0100
0010
,
0002
0000
0000
0000
0000
1000
1003
0000
,
0001
0010
0100
1000
0001
0010
0100
1000
,
0000
0100
0000
1000
0010
0100
MMMM
0000
,
0100
0001
0010
0010
0001
1000
0010
0200
,
0000
2300
0000
3100
0001
0020
0000
0000
,
0130
0010
0001
0100
0010
1000
0001
0010
,
0000
0100
0000
0010
0001
1000
MMMM
0000
,
0100
0010
1000
0000
0001
0010
0100
0000
,
1000
0200
0001
0301
,
1000
0000
0000
1000
0000
0000
1000
0000
0001
0000
0000
0001
0000
0000
0001
0000
,
0100
0000
0000
0100
0000
0000
0100
0000
0010
0000
0000
1001
0000
0000
0000
0000
,
0001
0100
0010
1000
0001
1000
0100
0010
,
0002
0000
0000
0000
0000
0100
0103
0000
,
1010
0010
0100
0001
,
0010
0100
1000
0000
,
0000
0100
1000
0010
,
0100
0001
0010
0000
,
0001
1000
0100
0010
,
0001
1000
0010
0000
,
0000
0100
0010
1000
,
0001
0010
1000
0020
0002
0030
0003
0000
,
2000
3200
2300
3020
,
0230
0000
2300
0000
3200
0000
0310
0100
,
0002
0023
2030
3020
,
0230
0000
0320
0000
0031
0010
0100
1000
,
0001
0001
0001
0001
0001
0000
1000
1000
,
1000
1000
1000
0000
0010
0010
0010
0010
,
0010
0010
0010
0010
0010
0000
0000
0000
,
0000
0000
0000
0000
0000
0000
0000
0000
1001
0000
0000
0000
0001
0000
0010
0100
,
0010
0100
1000
0000
1001
0000
0001
0010
,
0001
0100
0010
0100
0010
1000
0100
0010
,
1000
0000
0010
0001
1000
0010
1000
0010
,
0100
0001
0100
0001
0010
0000
0100
0010
,
0001
1000
0000
0001
1000
0000
0001
0000
0100
0000
0000
0000
0010
0000
0100
0000
,
0001
0010
0100
0010
0100
0010
0100
1000
,
0100
0000
0010
0100
1000
0001
1000
0001
,
0100
1000
0100
0001
0101
0000
1010
0000
,
1001
0110
1001
0000
1010
0000
0011
0000
,
1010
0000
0001
1000
1100
0000
0101
0000
,
1001
0101
1010
1001
,
1000
0000
0100
0000
0110
0000
0000
0000
0011
0000
0000
0000
1000
0001
0000
1000
,
0001
0100
0010
0000
0001
0000
0010
0000
,
1000
0100
0001
0000
0100
0000
1000
0000
,
0001
0100
0010
1000
0100
0000
0010
0100
,
1000
0001
0100
0000
0020
0000
0200
0030
,
0300
0010
1000
0001
,
0010
0100
0010
0000
0100
0000
1000
0000
,
0001
1000
0100
0010
0001
0000
0010
0100
,
1000
0001
0101
0000
1010
0000
1001
0000
;

//--------------- dance-single - Pandemonium X ----------------
#NOTES:
     dance-single:
     Pandemonium X:
     Hard:
     15:
     0,0,0,0,0:
0000
0000
0000
0000
,
0000
0000
0000
0000
,
0000
0000
0000
0000
,
0000
0000
0000
0000
,
0000
0000
0000
0000
,
0001
1000
0100
0010
0200
0000
0000
1300
,
0000
0100
0010
0001
1000
0000
0000
0000
,
0000
0000
0001
0000
1000
0100
0010
0100
,
1000
0000
0001
1000
0100
0010
0001
1000
0001
0000
0110
0000
2001
0000
0000
0000
,
3020
1000
0100
2030
,
3002
0010
1003
1001
,
2000
0001
0100
3002
,
2003
3010
1001
1001
,
1001
0001
0100
0000
0001
1000
0100
0000
,
1001
0001
0100
0001
1000
0010
1000
0000
,
1010
0000
0010
0000
0100
0000
0001
0000
1000
0001
1000
0001
1000
0001
1000
0001
,
0200
0000
0000
0000
0310
0000
0001
0010
0200
0000
0302
0000
2000
0000
3003
0000
,
0201
0000
0000
0000
0000
0000
0000
0000
0310
0000
0000
0000
0100
0000
0000
0000
0001
0000
0000
0000
0020
0030
0000
0000
0020
0030
0000
0000
1000
0000
0000
0000
,
0020
0030
0000
0000
0020
0030
0000
0000
0001
0000
0000
0000
1000
0000
0000
0000
0001
0000
0000
0000
0000
0000
0000
0000
1000
0000
0100
0000
0010
0000
0001
0000
,
0020
0030
0000
0000
0020
0030
0000
0000
1000
0000
0000
0000
0001
0000
0000
0000
0010
0000
0000
0000
0100
0000
0000
0000
1000
0000
0000
0000
0001
0000
0000
0000
,
1000
0000
0000
0000
0001
0010
0100
1000
0100
1000
0000
0100
1000
0000
0001
0000
,
2000
0000
0000
0000
0000
0000
0000
0000
3100
0000
0000
0000
0010
0000
0000
0000
0001
0000
0000
0000
0200
0300
0000
0000
0200
0300
0000
0000
1000
0000
0000
0000
,
0200
0300
0000
0000
0200
0300
0000
0000
0001
0000
0000
0000
1000
0000
0000
0000
0001
0000
0000
0000
0000
0000
0000
0000
1000
0000
0100
0000
0010
0000
0001
0000
,
0200
0300
0000
0000
0200
0300
0000
0000
1000
0000
0000
0000
0001
0000
0000
0000
0010
0000
0000
0000
0001
0000
0010
0000
0100
0000
0000
0000
1000
0000
0000
0000
,
0001
0100
0001
0100
0010
1000
0010
1000
0001
0000
1000
0000
2010
0000
0000
0000
,
3001
0000
0000
0001
0010
0000
0000
0010
0100
0000
0000
0100
1000
0000
0010
0000
,
0100
0000
0000
0001
0100
0000
0000
0010
1000
0000
0000
0000
0001
0000
1000
0000
,
0001
1000
1100
0000
1000
0001
0101
0001
,
1001
0000
0000
0000
0110
0000
0000
0000
0001
1000
0000
0001
1000
0000
0001
0000
,
1001
0000
0000
1000
0100
0000
0000
0100
0010
0000
0000
0010
0001
0000
0100
0000
,
0010
0000
0000
0100
0001
0000
0000
1000
0010
0000
0000
0000
0100
0000
0001
0000
,
1000
0100
0011
0000
0001
0100
1010
0010
,
0100
0000
0010
0100
0001
0000
1000
0100
0020
0000
0000
0000
0030
0000
0000
0000
,
0001
0100
1000
0000
0100
0010
1000
0100
,
0010
0001
1000
0001
0100
0000
0100
0000
,
0001
0100
1000
0000
0100
0010
1000
0010
,
0200
0000
0000
0000
0000
0000
0000
0000
0000
0000
0040
0030
0040
0000
0330
0000
,
1001
0000
1000
0000
0001
0100
0001
0000
1000
0000
0100
1000
0100
0000
0010
0000
,
0001
0100
0001
0000
1000
0000
0100
1000
0100
0000
1000
0000
1001
0000
0000
0000
,
0001
0000
1000
0000
0010
1000
0100
1000
0010
0000
1000
0000
0001
0000
0020
0000
,
0000
0031
1000
0001
0200
0020
0000
0330
,
1001
0000
0001
0000
1000
0010
1000
0000
0001
0000
0010
0001
0010
0000
0100
0000
,
1000
0010
1000
0000
0001
0000
0010
0001
0010
0000
0001
0000
1001
0000
0000
0000
,
1000
0000
0001
0000
0100
0001
0010
0001
0100
0000
0001
0000
1000
0000
0100
0000
,
0020
0001
0100
0130
,
1200
0000
0000
0310
0000
0000
0001
0000
0201
0000
0000
0310
0000
0000
1000
0000
,
1200
0000
0000
0310
0000
0000
0001
0000
0101
0000
0000
4004
3003
0000
0000
0000
,
1000
0000
1000
0000
0010
0000
0010
0000
0100
0001
0100
0001
1000
0100
0010
0001
,
2000
0000
0000
0000
0000
0000
0000
0000
0000
0000
0004
0003
0004
0000
3003
0000
,
0100
0001
0010
0100
,
0010
0001
1100
0000
,
1000
0010
0100
0010
,
1000
0100
0011
0000
,
0001
0000
1000
0000
0100
1000
0100
0000
,
1000
0000
0001
0100
1001
0000
0000
0000
,
0000
0000
1000
0000
0010
0100
0001
0010
,
0100
0000
1000
0100
0010
0001
1000
0010
0100
0000
0110
0000
1002
0000
0000
0000
,
0103
0000
0000
0000
0000
0000
0000
0000
0001
0000
0000
0000
0010
0000
0000
0000
0001
0000
0000
0000
0200
0300
0000
0000
0200
0300
0000
0000
1000
0000
0000
0000
,
0200
0300
0000
0000
0200
0300
0000
0000
0001
0000
0000
0000
1000
0000
0000
0000
0010
0000
0000
0000
0000
0000
0000
0000
1000
0000
0100
0000
0010
0000
0001
0000
,
0200
0300
0000
0000
0200
0300
0000
0000
1000
0000
0000
0000
0001
0000
0000
0000
0100
0000
0000
0000
0010
0000
0000
0000
1000
0000
0000
0000
0100
0000
0000
0000
,
0010
0000
0000
0000
0100
1000
0100
0000
0010
0000
0100
0000
1000
0000
0001
0000
,
1000
0000
0200
0300
0000
0000
0200
0300
0001
0000
0000
0000
1000
0000
0000
0000
1001
0000
0000
0000
0000
0000
0000
0000
0001
0000
0020
0030
0000
0000
0020
0030
,
1000
0000
0001
0000
1001
0000
0000
0000
0010
0100
0010
0100
0010
0100
0010
0100
,
0010
0100
0010
0100
0010
0100
0010
0100
0020
0000
0000
0000
0000
0000
0000
0000
,
0000
0000
0000
0000
0030
0000
0000
0000
1020
0000
0000
0000
0130
0000
1000
0100
,
0020
2030
0002
3003
1001
0000
0001
0100
,
0001
0000
0000
0000
0200
0300
0000
0000
0200
0300
0000
0000
1000
0000
0000
0000
0020
0030
0000
0000
0020
0030
0000
0000
0001
0000
0000
0000
1000
0000
0000
0000
,
0001
0000
0000
0000
0000
0000
0000
0000
1000
0000
0100
0000
0010
0000
0001
0000
0200
0300
0000
0000
0200
0300
0000
0000
1000
0000
0000
0000
0001
0000
0000
0000
,
0100
0000
0001
0000
0010
0000
0100
0000
1000
0000
0000
0000
0100
0010
0001
0000
,
0100
0001
0000
0100
0001
0000
1000
0000
0001
0000
0000
0000
1000
0000
0100
0000
,
1000
0000
0000
0000
0020
0030
0000
0000
0020
0030
0000
0000
0001
0000
0000
0000
0200
0300
0000
0000
0200
0300
0000
0000
1000
0000
0000
0000
0001
0000
0000
0000
,
1000
0000
0000
0000
0000
0000
0000
0000
1000
0000
0100
0000
0010
0000
0001
0000
0200
0300
0000
0000
0200
0300
0000
0000
1000
0000
0000
0000
0100
0000
0000
0000
,
1000
0000
0010
0100
0001
0000
0010
0000
0100
1000
0100
1000
0001
0010
0001
0010
,
0001
0000
0011
0000
1002
0000
0000
0000
1003
0000
0000
0010
0100
0000
0000
0100
,
0001
0000
0000
0001
0010
0000
0100
0000
1000
0000
0000
0100
0010
0000
0000
0001
,
0100
1001
0110
1001
,
0110
0000
1000
0000
1001
0000
0001
0000
0011
0000
0001
0000
1000
0001
0000
1000
,
0001
1000
2100
0000
0001
0000
3010
0000
,
0100
0010
0100
0010
0200
0000
0000
0000
0010
0000
0000
0000
0301
0000
0000
0000
,
1000
0100
1000
0100
0010
0000
0001
0000
0100
0000
0010
0000
1000
0001
1000
0001
,
1000
0001
1000
0001
0100
0000
0000
0000
0100
0000
0000
0000
0100
0000
0110
0000
,
1001
0001
0100
0010
,
1000
0100
0010
0000
0100
0000
1000
0000
,
0001
0100
0001
0010
0100
0000
1000
0100
,
0010
0001
1001
0000
0110
0000
1001
0000
;
