#TITLE:New Solution;
#SUBTITLE:;
#ARTIST:KARUT;
#TITLETRANSLIT:;
#SUBTITLETRANSLIT:;
#ARTISTTRANSLIT:;
#GENRE:;
#CREDIT:;
#MUSIC:New Solution.ogg;
#BANNER:New Solution-bn.png;
#BACKGROUND:New Solution-bg.png;
#CDTITLE:;
#SAMPLESTART:13.706;
#SAMPLELENGTH:15.273;
#SELECTABLE:YES;
#OFFSET:-0.615;
#BPMS:0.000=110.000;
#STOPS:;
#ORIGIN:;
#PREVIEWVID:;
#JACKET:;
#CDIMAGE:;
#DISCIMAGE:;
#BGCHANGES:;
#FGCHANGES:;

//--------------- dance-single - Pandemonium X ----------------
#NOTES:
     dance-single:
     Pandemonium X:
     Beginner:
     4:
     0,0,0,0,0:
0000
0000
0000
0000
,
0000
0000
0000
0000
,
0001
0000
0000
0000
,
1000
0000
0000
0010
,
1000
0000
0000
0000
,
0001
0001
1000
0110
,
0001
0000
0010
0000
,
0001
0001
1000
0000
,
0100
0000
1000
0000
,
0010
0010
0100
0000
,
0001
0000
0010
0000
,
0100
0100
1000
0000
,
0001
0001
1000
1000
,
0001
0100
0010
1000
,
0200
0000
0000
0300
,
0020
0000
0000
0030
,
0001
0001
0001
0000
,
1000
1000
1000
0000
,
0020
0000
0000
0030
,
0200
0000
0000
0300
,
1001
0000
0000
0000
,
1000
0100
0010
0001
,
0110
0000
0000
0000
,
0001
0000
0001
0000
,
0001
0000
0000
0000
,
1000
0000
1000
0000
,
1000
0000
0000
0110
,
0010
0000
0010
0000
,
0010
0000
0000
0000
,
0100
0000
0100
0000
,
0100
0000
0000
0000
,
1002
0000
0000
0003
,
2000
0000
0000
3000
,
0020
0000
0000
0030
,
0200
0000
0000
0300
,
2002
0000
0000
0000
,
0000
0000
0000
3003
,
0110
0000
0000
0000
,
0001
1000
0100
0010
,
0001
1000
0000
0001
,
0100
0010
0000
0100
,
0010
1000
0000
0100
,
0010
0100
1000
0001
,
1000
0001
0000
0100
,
0010
1000
0000
0100
,
0010
0010
0001
0001
,
1000
0010
0100
0001
,
2002
0000
0000
3003
;

//--------------- dance-single - Pandemonium X ----------------
#NOTES:
     dance-single:
     Pandemonium X:
     Easy:
     7:
     0,0,0,0,0:
0000
0000
0000
0000
,
1001
0000
1001
0000
1001
0000
0001
1000
,
0001
0000
0010
0000
0100
1000
0100
0000
,
1000
0010
0100
1010
,
1001
0000
0001
0000
0010
0100
0010
0000
,
0011
1100
0011
1002
,
0103
0001
0010
1000
,
0010
0001
1000
0110
,
1000
0001
0010
0001
,
1000
0100
0001
0000
,
0100
1000
0010
0001
,
0010
0100
0001
1001
,
0001
0001
1000
1000
,
1001
0000
0110
0000
1001
0000
0010
2000
,
0000
0000
0000
3001
0000
0000
0010
0200
,
0000
0000
0000
1300
0000
0000
0000
0000
,
0100
0100
1000
0000
,
0001
0000
0001
0000
0100
0000
0010
2000
,
0000
0000
0000
3001
0000
0000
0010
0200
,
0000
0000
0000
0310
0000
0000
0000
0000
,
0001
0001
0000
0000
0000
0000
0000
0000
,
1001
0110
1001
0110
,
1001
0000
0000
0000
,
0001
0100
0001
0000
0001
0100
0001
0000
,
0001
0100
0001
0000
0100
0000
0010
0000
,
1000
0010
1000
0000
1000
0010
1000
0000
,
1000
0010
1000
0000
0001
0000
0110
0000
,
1000
0001
1000
0000
1000
0001
1000
0000
,
1000
0001
1000
0000
0001
0000
0010
0000
,
0001
1000
0001
0000
0001
1000
0001
0000
,
0200
0000
0000
0300
,
0010
1000
0200
0000
,
0310
0001
0200
0000
,
0310
1000
0200
0000
,
0310
0001
0200
0000
,
0310
0100
0001
1000
,
0100
0010
0001
0000
,
1000
1000
0000
0000
0000
0000
0000
0000
,
1001
0110
1001
0110
,
0001
0000
1000
0000
0100
1000
0100
0000
,
1000
0000
0010
0000
0100
0100
0010
0000
,
0100
0000
0001
0000
0010
0001
0010
0000
,
0001
0000
1000
0020
0000
0130
0002
0000
,
0013
0000
0100
0000
1000
0100
1000
0000
,
0100
0000
1000
0000
0001
0001
0100
0000
,
1001
1001
0110
0110
,
1001
0110
1001
0110
,
2002
3003
0000
0100
;

//--------------- dance-single - Pandemonium X ----------------
#NOTES:
     dance-single:
     Pandemonium X:
     Medium:
     9:
     0,0,0,0,0:
0000
0000
0000
0000
,
1001
0000
0110
0000
1001
0010
1001
0100
,
1001
0000
0001
0000
1000
1000
0100
0000
,
0010
0000
0001
0000
0100
0000
0000
0010
0000
0010
0100
0000
1001
0000
0000
0000
,
1000
0000
1100
0000
0100
0100
0010
0000
,
0110
1100
0011
2001
,
3010
0000
0100
0000
0001
0000
0010
1000
,
0000
0010
0001
0100
0001
1000
0200
0000
,
0310
0000
0011
0000
0110
0000
0100
1000
,
0000
0100
0010
0000
0100
1000
0010
0000
,
0101
0000
1001
0000
1100
0000
0100
1000
,
0000
0100
0001
0100
1000
0010
0200
0000
,
0301
0101
1010
1100
,
1001
0010
1001
0100
1001
0110
0001
0020
,
0000
0000
0000
0200
0000
0330
0010
0002
,
0000
0000
0000
2000
0000
0000
3003
0000
,
0001
0100
0010
1000
0001
0000
1000
0100
,
0001
0100
1000
0010
0100
0000
0010
2000
,
0000
0000
0000
0002
3003
0000
0010
0200
,
0000
0000
0000
0020
0000
0000
0330
0000
,
1001
1001
0000
0000
0000
0000
0000
0000
,
1001
0010
1001
0100
0101
1000
0011
0000
,
0220
0000
0000
0330
,
1000
0100
0001
0000
1000
0100
0001
0000
,
1000
0100
0001
0100
1000
0010
0100
0000
,
0001
0100
1000
0000
0001
0100
1000
0000
,
0001
0100
1000
0100
0010
1000
1001
0000
,
0001
0010
1000
0000
0001
0010
1000
0000
,
0001
0010
1000
0010
0001
0100
0010
0000
,
1000
0010
0001
0000
1000
0010
0001
0000
,
0220
0000
0000
0330
,
2000
3200
0020
0330
,
0200
2300
0020
3030
,
0200
0302
0020
0033
,
0200
2300
0002
3003
,
1000
0001
0000
0010
0000
0001
0000
0100
0000
0010
0000
1000
0000
0100
0000
0001
,
0000
0100
0000
1000
0000
0010
0000
0200
0000
0000
0000
0000
0300
0000
0000
0000
,
1001
1001
0000
0000
0000
0000
0000
0000
,
1001
0010
1001
0100
0101
0100
0110
0000
,
1000
0000
0100
1000
0000
0100
0110
0000
,
0100
0000
1000
0010
0000
0100
0101
0000
,
0001
0000
0010
0100
0000
0010
0011
0000
,
0001
0100
1000
0100
0000
0010
1000
0000
,
0010
0000
1000
0100
0000
0010
0110
0000
,
0100
0000
1000
0010
0000
0100
0101
0000
,
1001
1001
0110
0110
,
1001
0010
1001
0100
0101
0101
1100
1100
,
1001
0000
0000
0010
;

//--------------- dance-single - Pandemonium X ----------------
#NOTES:
     dance-single:
     Pandemonium X:
     Hard:
     13:
     0.485416,0.584101,0.49836,0.199344,0.389627,375,320,55,22,0,0,0,0,0,0.485416,0.584101,0.49836,0.199344,0.389627,375,320,55,22,0,0,0,0,0:
0000
0000
0000
0000
,
0110
0000
0000
1000
0001
1000
0001
0000
0000
0001
1000
0001
1000
0000
0000
1000
0000
0000
0001
1000
0001
1000
0000
0000
,
0101
0000
0000
0000
0000
0000
1000
0000
0000
0000
0000
0010
0100
0000
0000
0100
0000
0000
0010
0000
0000
0000
0000
0000
,
0100
0000
0100
0000
0010
0000
0100
0010
0000
0010
0100
0000
1002
0000
0000
0000
,
1003
0000
0000
0000
0000
0000
0001
0000
0000
0000
0000
0100
0010
0000
0000
0010
0000
0000
0100
0000
0000
0000
0000
0000
,
1001
0000
0000
0000
0000
0000
0100
0000
0010
0000
0100
0000
0010
0000
0000
0000
0000
0000
0010
0000
0100
0000
0010
0000
0100
0000
0000
0000
0000
0000
0100
0000
0010
0000
0100
0000
0020
0000
0000
0000
0000
0000
0000
0000
0000
0030
0000
0000
,
1001
0000
0000
0000
0000
0000
0001
0000
0000
0000
0000
0010
0100
0000
0000
0100
0000
0000
1001
0000
0000
0000
0000
0000
,
0001
0001
1000
0100
1000
0100
0021
0000
,
0031
0000
0000
0000
0000
0000
1000
0000
0000
0000
0000
1000
0010
0000
0000
0010
0000
0000
1010
0000
0000
0000
0000
0000
,
1000
0010
0100
0000
0001
1000
0000
0000
,
0001
0000
0000
0000
0000
0000
1000
0000
0000
0000
0000
0100
1000
0000
0000
1000
0000
0000
0011
0000
0000
0000
0000
0000
,
0001
0001
0100
0000
0010
1000
0220
0330
,
1001
0110
1001
0110
,
1001
0000
0000
0010
0100
0010
0100
0000
0000
0010
0100
0010
0100
0000
0000
0100
0000
0000
0100
0000
0000
0100
0000
0000
,
1002
0000
0000
0200
0000
0303
1010
2100
,
0000
0000
0000
0002
0000
3003
0110
0000
,
1000
0100
0001
0010
1000
0000
0001
1000
,
0001
0100
1000
0010
0001
0000
1000
0001
,
0200
0000
0000
0020
0000
0330
0110
2010
,
0000
0000
0000
0200
0000
3300
0110
0000
,
1001
1001
0000
0000
0000
0000
0000
0000
,
0110
0000
0000
1000
0001
1000
0001
0000
0000
0001
1000
0001
1000
0000
0000
1000
0001
1000
0001
0000
0000
0000
0000
0000
,
1000
0000
0000
0000
0100
0000
0000
0000
0000
0000
0100
0000
0000
0000
0000
0000
0100
0000
0010
0000
0000
0001
0000
0000
1000
0000
0000
0001
0000
0000
1000
0000
0000
0001
0000
0000
0100
0000
0000
0000
0000
0000
0000
0000
0000
0000
0000
0000
,
1010
0100
0001
0000
1010
0100
0001
0000
,
1010
0000
0100
0000
0001
0000
1000
0010
0100
0010
1000
0000
0001
0000
0000
0000
,
1100
0010
0001
0000
1100
0010
0001
0000
,
1100
0000
0010
0000
0001
0000
1000
0001
1000
0001
1000
0000
2200
0000
3300
0000
,
0011
0100
1000
0000
0011
0100
1000
0000
,
0011
0000
0100
0000
1000
0000
0001
0010
0001
0100
0001
0000
1000
0000
0000
0000
,
0101
1000
0010
0000
0101
1000
0010
0000
,
0101
0000
1000
0000
0010
0000
0100
0001
0100
0001
1000
0000
0100
0000
0000
0000
,
2000
0010
0002
3003
,
0002
0010
2000
3003
,
2000
0100
0002
3003
,
0002
0100
2000
3003
,
0001
0100
0000
0100
0000
0100
0000
0010
0000
0010
0000
0100
0000
0010
0000
1000
,
0000
1000
0000
1000
0000
1000
0000
0002
0000
0000
0000
0000
0003
0000
0000
0000
,
0110
0110
0000
0000
0000
0000
0000
0000
,
1001
0000
0000
0001
1000
0001
1000
0000
0000
1000
0001
1000
0001
0000
0000
0001
1000
0001
1000
0000
0000
0000
0000
0000
,
0110
0000
0000
0000
0000
1000
0001
0000
0010
0001
0000
0000
0000
0000
0001
0100
0000
0000
1010
0000
0000
0000
0000
0000
,
1100
0000
0000
0000
0000
0010
0001
0000
0100
0001
0000
0000
0000
0000
0001
1000
0000
0000
1010
0000
0000
0000
0000
0000
,
1100
0000
0000
0000
0000
0001
0010
0000
0100
0010
0000
0000
0000
0000
0100
1000
0000
0000
0001
0000
0000
0000
0000
0000
,
1010
1000
0001
0020
0000
0100
0130
0000
,
1001
0000
0000
0000
0000
1000
0010
0000
0100
0001
0000
0000
0000
0000
0001
0010
0000
0000
0110
0000
0000
0000
0000
0000
,
0100
0000
0000
0000
0000
1000
0100
0000
0010
0001
0000
0000
0000
0000
1000
0010
0000
0000
0101
0000
0000
0000
0000
0000
,
1001
0110
1001
0110
,
1001
0000
0000
0001
1000
0001
1000
0000
0000
0010
0100
0010
0100
0000
0000
0001
1000
0001
1000
0000
0000
0010
0100
0010
,
0200
0000
0000
0000
0000
0000
0000
0000
0000
0000
0000
0000
0000
0000
0000
0000
0000
0000
0000
0000
0000
0000
0000
0000
0000
0000
0000
0000
0000
0000
0000
0000
0000
0000
0000
0000
0000
0000
0000
0000
0000
0000
0000
0000
0000
0000
0000
0000
0300
0000
0000
0000
0000
0000
0000
0000
0000
0000
0000
0000
0000
0000
0000
0000
0000
0000
0000
0000
0000
0000
0000
0000
0000
0000
0000
0000
0000
0000
0000
0000
0000
0000
0000
0000
0000
0000
0000
0000
0000
0000
0000
0000
0000
0000
0000
0000
0000
0000
0000
0000
0000
0000
0000
0000
0000
0000
0000
0000
0000
0000
0000
0000
0000
0000
0000
0000
0000
0000
0000
0000
0000
0000
0000
0000
0000
0000
0000
0000
0000
0000
0000
0000
0000
0000
0000
0000
0000
0000
0000
0000
0000
0000
0000
0000
0002
0003
0000
0000
0000
0000
0000
0000
0000
0000
0000
0000
0000
0000
0000
0000
0000
0000
0000
0000
0000
0000
0000
0000
0000
0000
0000
0000
0000
0000
0000
0000
0000
0000
0000
0000
0000
0000
0000
0000
0000
0000
0000
0000
0000
0000
0000
0000
;
