#TITLE:Neonlights;
#SUBTITLE:;
#ARTIST:DJ Noriken;
#TITLETRANSLIT:;
#SUBTITLETRANSLIT:;
#ARTISTTRANSLIT:;
#GENRE:;
#CREDIT:;
#MUSIC:Neonlights.ogg;
#BANNER:Neonlights.png;
#BACKGROUND:Neonlights-bg.png;
#CDTITLE:;
#SAMPLESTART:71.503;
#SAMPLELENGTH:13.241;
#SELECTABLE:YES;
#OFFSET:1.325;
#BPMS:0.000=145.000;
#STOPS:;
#BGCHANGES:;
#FGCHANGES:;

//--------------- dance-single - Pandemonium X ----------------
#NOTES:
     dance-single:
     Pandemonium X:
     Beginner:
     3:
     0,0,0,0,0:
0000
0000
0000
0000
,
0000
0000
0000
0000
,
0000
0000
0000
0000
,
0000
0000
0000
0000
,
0000
0000
0000
0000
,
0000
0000
0000
0000
,
0001
0000
0000
0000
,
1000
0000
0000
0000
,
0001
0000
0000
0000
,
0200
0000
0000
0300
,
0010
0000
0000
0000
,
1000
0000
0000
0000
,
0100
0000
0000
0000
,
0010
0000
0000
0001
,
1000
0000
0000
0000
,
0001
0000
0000
0000
,
0100
0000
0001
0000
,
1000
0010
1000
0100
,
0010
0000
0000
0000
,
0001
0000
0000
0000
,
0100
0000
0000
0000
,
0010
0000
0000
0000
,
1000
0000
0000
0000
,
0001
0000
0000
0000
,
0010
0000
0000
0000
,
0100
0000
0000
0000
,
1001
0000
0000
0000
,
0000
0000
0000
0000
,
1000
0000
0000
0000
,
0000
0000
0000
0000
,
0001
0000
0000
0000
,
0000
0000
0000
0000
,
0100
0000
0000
0000
,
0000
0000
0000
0000
,
0020
0000
0000
0000
,
0000
0000
0000
0030
,
1001
0000
0000
0000
,
0000
0000
0000
0000
,
0001
0000
0000
0000
,
0000
0000
0000
0000
,
1000
0000
1000
0000
,
0001
0000
0001
0000
,
0100
0000
0010
0000
,
1001
0000
0000
0000
,
1000
0000
0100
0000
,
0010
0000
0100
0000
,
1000
0000
0001
0000
,
0100
0000
0001
0010
,
0001
0000
1000
0000
,
0010
0000
1000
0000
,
1001
0000
0110
0000
,
0001
0010
0001
0100
,
0010
1001
0000
0000
,
1000
0000
0000
0000
,
0001
0000
0000
0000
,
0010
0000
0100
0100
,
1000
0000
0000
0000
,
0010
0000
0000
0000
,
0110
0000
1001
0000
,
0002
0000
0000
0003
,
1001
0000
0000
0000
,
1000
0000
0000
0000
,
0001
0000
0000
0000
,
1000
0000
0000
0000
,
0001
0000
0000
0000
,
1000
0000
0000
0000
,
0001
0000
0000
0000
,
1000
0000
0000
0000
;

//--------------- dance-single - Pandemonium X ----------------
#NOTES:
     dance-single:
     Pandemonium X:
     Easy:
     6:
     0,0,0,0,0:
0000
0000
0000
0000
,
0000
0000
0000
0000
,
0000
0000
0000
0000
,
0000
0000
0000
0000
,
0000
0000
0000
0000
,
0000
0000
0000
0000
,
0001
0000
0000
0000
,
1000
0000
0000
0000
,
0001
0000
0000
0000
,
2002
0000
0000
3003
,
1000
0010
1000
0000
,
0001
0100
0001
0000
,
0010
0001
0010
0000
,
0100
1000
0100
0000
,
1000
0001
1000
0000
,
0001
0100
0001
0000
,
0100
0000
0010
0000
,
1000
0010
1000
0100
,
0010
0001
1000
1001
,
0001
0010
0011
0110
,
0010
0001
0100
0110
,
0010
0100
1001
1100
,
1000
0000
0000
1000
0000
0000
0000
0000
0001
0000
0000
0001
0000
0000
0000
0000
,
0100
0000
0000
0100
0000
0000
0000
0000
0010
0000
0000
0010
0000
0000
0000
0000
,
1000
0001
0010
0100
,
2000
0000
0000
3000
,
1001
0000
0000
0000
,
0001
0000
0000
0000
,
1000
0000
0000
0000
,
0010
0000
0000
0000
,
0100
0000
0000
0000
,
0001
0000
0000
0000
,
1000
0000
0000
0000
,
0100
0000
0000
0000
,
0000
0000
0000
0000
,
0000
0000
0000
0000
,
0010
0000
0000
0000
0000
0001
0000
0000
,
0000
1000
0000
0000
0010
0000
0000
1000
,
0100
0000
0000
0000
0000
0010
0000
0000
,
0000
0001
0000
0000
0100
0000
0010
0000
,
1000
1000
0001
0001
,
1000
1000
0001
0001
,
1000
0001
0100
0010
,
2002
0000
0000
3003
,
1000
0001
0010
0001
,
0010
0100
1000
0100
,
1000
0010
1000
0001
,
0100
0001
0010
0100
,
1000
0001
0100
0001
,
0010
0100
1000
0001
,
1001
0000
0110
0000
,
1000
0010
1000
0100
,
0020
0031
0100
0110
,
0010
1000
1001
1010
,
1000
0001
0010
0011
,
0001
1000
1100
1010
,
0010
0100
0001
1001
,
1000
0100
0110
1100
,
2000
3000
0002
0003
,
0220
0000
0000
0330
,
1001
0000
0000
0000
,
0001
0000
0000
0000
,
1000
0000
0000
0000
,
0001
0000
0000
0000
,
1001
0000
0000
0000
,
1000
0000
0000
0000
,
0001
0000
0000
0000
,
1000
0000
0000
0000
;

//--------------- dance-single - Pandemonium X ----------------
#NOTES:
     dance-single:
     Pandemonium X:
     Medium:
     12:
     0,0,0,0,0:
0000
0000
0000
0000
,
0000
0000
0000
0000
,
0000
0000
0000
0000
,
0000
0000
0000
0000
,
0000
0000
0000
0000
,
0000
0000
0000
0000
,
0001
0100
0000
0000
0000
0000
0000
0010
,
1000
0100
0000
0000
0000
0000
0000
0000
,
0010
0001
0000
0000
0000
0000
0000
1000
,
0010
0000
0200
0000
0000
0000
0000
0000
0000
0310
1000
0010
1000
0000
0000
0000
,
0001
0000
1000
0000
0100
0000
0010
0000
0100
0000
0000
0100
0000
0000
0100
0000
,
0010
0000
0001
0000
0100
0000
0010
0000
1000
0000
0000
1000
0000
0000
1000
0000
,
0001
0000
0010
0000
0001
0000
0100
0000
0010
0000
0000
0010
0000
0000
0010
0000
,
0100
0000
0001
0000
0010
0000
0100
0000
0010
0000
0000
0010
0000
0000
0010
0000
,
0001
0000
0010
0000
0001
0000
1000
0000
0010
0000
0000
0010
0000
0000
0010
0000
,
0100
0000
0001
0000
0010
0000
0100
0000
0010
0000
0000
0010
0000
0000
0010
0000
,
0100
0010
0100
0010
0000
0000
0000
0000
1001
0000
0000
0102
0000
0000
0000
0000
,
1003
0100
0000
1000
0010
0000
0000
0000
0100
0001
0100
0000
0100
0000
0000
0000
,
0010
0000
0000
0010
0100
0000
0000
0100
0001
0000
0000
0001
0010
0000
0100
0000
,
0010
0000
0000
0100
1000
0000
0000
1000
0010
0000
0000
0100
0010
0000
1000
0000
,
0001
0000
0000
1000
0100
0000
0000
0100
0010
0000
0000
0010
0100
0000
1000
0000
,
0010
0000
0000
0010
0100
0000
0000
0100
0001
0000
0010
0000
0100
0000
0000
0000
,
0010
0001
0100
0010
1000
0100
0020
0130
,
1000
0001
0100
0001
2000
3200
0320
0030
,
0010
0100
0010
0001
0100
1000
0200
0301
,
1000
0000
0200
0000
0000
0000
0310
0000
0100
0000
1000
0001
1000
0000
0000
0000
,
0101
0000
0000
0000
0000
0001
0010
0001
,
0000
0010
0000
0001
0000
1000
0100
1000
,
0000
0000
0001
0000
0100
0000
0001
1000
,
0000
0100
0000
1000
0000
0001
1000
0000
,
0001
0000
0010
0000
0001
0000
0010
0001
,
0000
0100
0000
0001
0010
0000
0001
0000
,
1000
0000
0000
0000
0000
0001
0000
0100
,
0000
0001
0000
0010
0000
0000
0000
0000
,
0000
0000
0000
0000
,
0000
0000
0000
0000
,
1200
0000
0000
0000
0000
2300
0000
0000
,
0000
3020
0000
0000
0230
0000
0000
0302
,
2003
0000
0000
0000
0000
3002
0000
0000
,
0000
0023
0000
0000
0230
0000
0000
1300
,
0100
0000
0000
0100
0000
0000
0100
0000
0010
0000
0000
0010
0000
0000
0010
0000
,
0001
0000
0000
0001
0000
0000
0001
0000
1000
0000
0000
1000
0000
0000
1000
0000
,
0001
0100
0010
1000
0100
0010
0001
0010
,
0100
0000
2000
0000
0000
0000
3010
0000
0100
0001
1000
0001
1000
0000
0000
0000
,
0001
0000
0000
0001
0010
0000
0000
0010
0100
0000
0000
0100
1000
0000
0000
1000
,
0010
0000
0000
0010
0100
0000
0000
0100
0001
0000
0000
0001
1000
0000
0100
0000
,
0010
0000
0000
0100
1000
0000
0000
1000
0001
0000
0000
0001
0100
0000
0000
0001
,
0010
0000
0000
0010
0100
0000
0000
0100
1000
0000
0010
0000
1000
0000
0001
0000
,
0100
0000
0000
0001
0010
0000
0000
0010
0001
0000
0000
0001
0100
0000
0000
0100
,
0010
0000
0000
0010
1000
0000
0000
1000
0100
0000
0000
0100
1000
0000
0001
0000
,
0100
0001
0100
0001
0000
0000
0000
0000
1000
0010
1000
0010
0000
0000
0000
0000
,
0001
0100
0000
0001
0010
0000
0000
0000
0100
0010
0100
0000
0100
0000
0000
0000
,
0010
0000
1001
0001
1000
0001
0020
0031
,
1000
0001
1000
0001
0200
0320
2030
3020
,
1030
0001
1000
0001
1000
0001
0200
0301
,
1000
0001
1000
0001
0010
0200
0000
0000
,
1300
0100
0001
0100
1000
0001
0200
1300
,
0100
0001
0010
1000
0020
0032
0023
0230
,
1300
0100
1000
0000
1001
0000
0000
0000
0001
0100
0001
0000
1001
0000
0000
0000
,
0001
0000
0200
0000
0000
0000
0310
0000
0100
0001
1000
0001
1000
0000
0000
0000
,
1001
0000
0000
0000
0000
1000
0010
1000
,
0000
0001
0000
0010
0000
0001
0100
0001
,
0000
0000
0010
0000
0100
0000
0010
0100
,
0000
0010
0000
0001
0000
0010
0001
0000
,
1000
0000
0010
0000
1000
0000
0100
1000
,
0000
0010
0000
0010
1000
0000
0001
0000
,
1000
0000
0000
0000
0000
0001
0000
1000
,
0000
0010
0000
2000
0000
0000
0000
0000
,
3000
0000
0000
0000
;

//--------------- dance-single - Pandemonium X ----------------
#NOTES:
     dance-single:
     Pandemonium X:
     Hard:
     15:
     0,0,0,0,0:
0000
0000
0000
0000
,
0000
0000
0000
0000
,
0000
0000
0000
0000
,
0000
0000
0000
0000
,
0000
0000
0000
0000
,
0000
0000
0000
0000
0000
0000
0000
0000
0000
0000
0000
0000
0000
0000
0000
1000
,
0100
0000
0000
0100
0010
0000
0000
0010
0001
0000
0100
0000
0010
0000
1000
0000
,
0001
0000
0000
0001
0010
0000
0000
0010
0100
0000
0010
0001
0010
0000
0001
0000
,
2000
3200
0320
0030
,
0001
0100
0001
0100
0001
0100
0001
0100
0010
1000
0001
0010
0100
0000
0000
0000
,
0010
0000
0001
0000
0100
0000
0001
0000
1000
0000
0001
0010
0000
0001
0100
0000
,
0010
0000
1000
0000
0100
0000
1000
0000
0010
0000
1000
0001
0000
1000
0100
0000
,
0010
0000
0001
0000
0100
0000
0010
0000
0100
0000
0001
0010
0000
0010
0100
0000
,
1000
0000
0100
0000
1000
0010
1000
0100
0010
0000
0100
1000
0000
1000
0010
0000
,
0100
0000
0010
0000
1000
0000
0100
0000
0010
0000
0000
0010
0000
0000
0010
0000
,
0001
0000
0100
0000
0001
0000
1000
0000
0100
0000
0000
0100
0000
0000
0100
0000
,
0010
0001
0100
0010
0000
0000
0000
0000
0100
0000
0010
1000
0000
0000
0000
0000
,
1000
0000
0000
0020
0030
0000
0000
0000
0000
0020
0030
0000
0001
0000
0000
0000
0000
0000
0000
0000
0000
0000
0000
0000
1000
0000
0000
0010
0000
0000
1000
0000
0000
0000
0000
0000
0100
0000
0000
0000
0000
0000
0000
0000
0000
0000
0000
0000
,
1000
0000
0010
0100
0010
0000
0100
0000
0001
0000
0010
0000
0100
0000
1000
0000
,
0001
0000
0100
0010
0100
0000
0010
0000
1000
0000
0100
0000
0010
0000
0001
0000
,
1000
0000
0100
0010
0100
0000
0010
0000
0001
0000
0100
0000
0010
0000
1000
0000
,
0001
0000
0010
0100
0010
0000
0001
0000
1000
0000
0100
0010
0002
0000
1003
0000
,
1001
0000
0010
0100
0000
0000
0010
0000
1001
0000
0100
0010
0000
0000
0100
0000
,
1001
0000
1000
0100
1000
0100
1000
0100
1000
0000
0100
0010
0002
0000
0000
0000
,
0103
0000
0000
0000
0000
0000
0001
0000
0000
1000
0000
0000
0010
0000
0000
1000
0000
0000
0001
0000
0000
0010
0000
0000
0001
0000
0000
0000
0000
0000
1000
0000
0000
0001
0000
0000
0100
0000
0001
0000
0100
0000
0001
0000
0000
0000
0000
0000
,
1000
0000
0010
0100
0010
0100
0010
0100
0001
0000
0001
0010
0200
0000
0000
0000
,
1300
0000
0000
0000
0000
0001
0100
0001
,
0000
0100
0000
0001
0000
1000
0100
1000
,
0000
0000
0100
0000
1000
0000
0001
0100
,
0000
0001
0000
0010
0000
0001
1000
0000
,
0001
0000
1000
0000
0001
0000
0100
0001
,
0000
0010
0000
0001
1000
0000
0001
0000
,
1000
0000
0000
0000
0000
0001
0000
1000
,
0000
0001
0000
0010
0000
0000
0000
0000
,
0000
0000
0000
0000
,
0000
0000
0000
0000
,
0100
1000
0100
1000
0100
0010
0100
0010
,
0100
1000
0010
1000
0010
0100
0010
0100
,
0001
0010
0001
0010
0001
0010
0100
0010
,
0100
1000
0001
1000
0001
0010
0001
0010
,
0100
0000
0000
1000
0010
0000
0100
0000
0101
0000
0000
0001
0010
0000
0100
0000
,
1100
0000
0000
1000
0001
0000
0010
0000
0011
0000
0000
1000
0001
0000
1000
0000
,
0100
0000
0000
0010
0000
0000
0001
0000
0000
0100
0000
0000
0010
0000
0000
0100
0000
0000
0001
0000
0000
1000
0000
0000
0001
0000
0000
0010
0000
0000
0001
0000
0000
1000
0000
0000
0010
0000
0100
0000
0010
0000
0100
0000
0000
0010
0000
0000
,
2000
0000
0000
0000
0000
0000
0000
0000
3000
0001
0100
0001
0020
0000
0000
0000
,
0031
1000
0001
1000
0001
1000
0001
1000
0001
1000
0010
1000
0010
1000
0010
1000
,
0010
0100
0001
0100
0001
0100
0001
0100
0001
1000
0001
1000
0001
0000
1001
0000
,
1000
0001
1000
0001
1000
0001
1000
0001
1000
0001
0100
0001
0100
0001
0100
0001
,
0100
0010
1000
0010
1000
0010
1000
0010
1000
0001
1000
0001
1000
0010
0100
0001
,
1000
0010
1000
0010
1000
0010
1000
0010
1000
0001
0010
0001
0010
0001
0010
0001
,
0010
0100
1000
0100
1000
0100
1000
0100
1000
0001
0100
0001
0100
0001
1000
0001
,
1000
0100
1000
0100
2000
0000
0000
0000
3010
0000
0010
0200
0000
0000
0000
0000
,
0301
0000
0000
0020
0030
0000
0000
0000
0000
0020
0030
0000
1000
0000
0000
0000
0000
0000
0000
0000
0000
0000
0000
0000
0001
0000
0000
1000
0000
0000
0001
0000
0000
0000
0000
0000
0100
0000
0000
0000
0000
0000
0000
0000
0000
0000
0000
0000
,
0110
0000
0000
0000
1000
0001
1000
0001
1000
0000
0001
0100
0002
0000
0013
0000
,
0100
0000
0010
0001
0010
0001
0010
0001
0020
0000
0130
1000
0001
0000
1000
0000
,
0010
0000
0100
0010
0100
0010
0100
0010
0100
0000
0010
1000
0020
0000
1030
0000
,
0100
0000
0010
0001
0010
0001
0010
0001
0020
0000
0130
1000
0001
0000
1000
0000
,
0010
0000
0100
0001
0100
0001
0100
0001
0100
0000
0001
1000
0200
0000
0310
0000
,
0001
0000
1000
0010
1000
0010
1000
0010
2000
0000
3001
1000
0200
0000
0310
0000
,
0001
0000
0000
0010
0000
0000
0100
0000
0000
1000
0000
0000
0001
0000
0000
0000
0000
0000
0000
0000
0000
0000
0000
0000
0100
0000
0001
0000
0100
0000
0001
0000
0000
0100
0000
0000
0020
0000
0000
0000
0000
0000
0000
0000
0000
0000
0000
0000
,
0130
0000
0001
1000
0001
1000
0001
1000
0001
0100
0001
1000
0020
0000
0000
0000
,
0130
0000
0000
0000
0000
0010
1000
0001
,
0000
1000
0000
0001
0000
1000
0001
0010
,
0000
0000
0001
0000
1000
0000
0001
1000
,
0000
0100
0000
1000
0000
0001
0010
0000
,
1001
0000
1000
0000
0001
0000
1000
0100
,
0000
1000
0000
0001
0100
0000
0001
0000
,
1000
0000
0000
0000
0000
0001
0000
1000
,
0000
0001
0000
0200
0000
0000
0000
0000
,
0300
0000
0000
0000
;
