#TITLE:Narcissus At Oasis;
#SUBTITLE:;
#ARTIST:Ryu☆;
#TITLETRANSLIT:;
#SUBTITLETRANSLIT:;
#ARTISTTRANSLIT:;
#GENRE:;
#CREDIT:;
#MUSIC:Narcissus At Oasis.mp3;
#BANNER:Narcissus At Oasis.png;
#BACKGROUND:Narcissus At Oasis-bg.png;
#CDTITLE:;
#SAMPLESTART:82.362;
#SAMPLELENGTH:11.353;
#SELECTABLE:YES;
#OFFSET:0.896;
#BPMS:0.000=170.000
,85.000=176.000
,88.000=170.000
;
#STOPS:;
#DISPLAYBPM:170.000;
#BGCHANGES:4.000=Narcissus At Oasis.mp4=1.000=0=0=1,
99999.000=-nosongbg-=1.000=0=0=0=StretchNoLoop====
;
#FGCHANGES:;

//--------------- dance-single - Pandemonium X ----------------
#NOTES:
     dance-single:
     Pandemonium X:
     Beginner:
     2:
     0,0,0,0,0:
0000
0000
0000
0000
,
0000
0000
0000
0000
,
0000
0000
0000
0000
,
0000
0000
0000
0000
,
0000
0000
0000
0000
,
0000
0000
0000
0000
,
0000
0000
0000
0000
,
0000
0000
0000
0000
,
0000
0000
0000
0000
,
0000
0000
0000
0000
,
0000
0000
0000
0000
,
0000
0000
0000
0000
,
0001
0000
0000
0000
,
0000
0000
0000
0000
,
1000
0000
0000
0000
,
0000
0000
0000
0000
,
0010
0000
0000
0000
,
0100
0000
0000
0000
,
0001
0000
0000
0000
,
2000
0000
0000
0000
,
0000
0000
0000
0000
,
0000
3000
0000
0000
,
0020
0000
0000
0000
,
0030
0000
0000
0000
,
0200
0000
0000
0000
,
0300
0000
0000
0000
,
0002
0000
0000
0000
,
0003
0000
0000
0000
,
2000
0000
0000
0000
,
3000
0000
0000
0000
,
0001
0000
0000
0000
,
0100
0000
0000
0000
,
0010
0000
0000
0000
,
1000
0000
0000
0000
,
0100
0000
0000
0000
,
0010
0000
0000
0000
,
0001
0000
0000
0000
,
1000
0000
0000
0000
,
0010
1001
0000
0000
,
0000
0000
0000
0000
,
0000
0000
0000
0000
,
0000
0000
0000
0000
,
0000
0000
0000
0000
,
0001
0000
0000
0000
,
1000
0000
0000
0000
,
0010
0000
0000
0000
,
0100
0000
0000
0000
,
0010
0000
0000
0000
,
1000
0000
0000
0000
,
0100
0000
0000
0000
,
0010
0000
0000
0000
,
0001
0000
0000
0000
,
1000
0000
0000
0000
,
0010
0000
0000
0000
,
0100
0000
0000
0000
,
0001
0000
0000
0000
,
1000
0000
0001
0000
,
1000
0000
0000
0000
,
0010
0000
0000
0000
,
0100
0000
0000
0000
,
0001
0000
0001
0000
,
1000
0000
0000
0000
,
0100
0000
0000
0000
,
0010
0000
0000
0000
,
0001
0000
0000
0000
,
1000
0000
0000
0000
,
0010
0000
1000
0000
,
0100
0000
0000
0000
,
1000
0000
0000
0000
,
0001
0000
0000
0000
,
0100
0000
0000
0000
,
0010
0000
0000
0000
,
0100
0000
0001
0000
,
1000
0000
0000
0000
,
0001
0000
0000
0100
,
1001
0000
0000
0000
,
1000
0000
0000
0000
,
0001
0000
0000
0000
,
0100
0000
0000
0000
,
0010
0000
0000
0000
,
0010
0000
0000
0000
,
0010
0000
0000
0000
;

//--------------- dance-single - Pandemonium X ----------------
#NOTES:
     dance-single:
     Pandemonium X:
     Easy:
     5:
     0,0,0,0,0:
0000
0000
0000
0000
,
0000
0000
0000
0000
,
0000
0000
0000
0000
,
0000
0000
0000
0000
,
0000
0000
0000
0000
,
0000
0000
0000
0000
,
0000
0000
0000
0000
,
0000
0000
0000
0000
,
0000
0000
0000
0000
,
0000
0000
0000
0000
,
0000
0000
0000
0000
,
0000
0000
0000
0001
,
1000
0000
0000
0001
0000
0000
1000
0000
,
0100
0000
1000
0000
,
0001
0000
0000
1000
0000
0000
1000
0000
,
0001
0000
0000
0010
0000
0000
0010
0000
,
0001
0000
0000
0010
,
0100
0100
1000
0100
,
0100
0000
0000
0000
,
0020
0000
0000
0000
,
0000
0000
0000
0000
,
0000
0030
0000
0000
,
0002
0000
0000
0000
,
1003
0000
0000
0000
,
0200
0000
0000
0000
,
0310
1001
0000
0000
,
2000
0000
0000
0000
,
3010
0000
0000
0000
,
0200
0000
0000
0000
,
0301
0000
0001
0000
0000
0001
0000
0000
,
1000
0000
0001
0000
0000
0010
0000
0000
,
0001
1000
0000
0010
,
1000
0000
0001
0000
0000
0010
0000
0000
,
0100
1000
0000
0100
,
1000
0000
1000
0000
0000
0001
0000
0000
,
0100
0001
0000
0010
,
0100
0000
0010
0000
0000
0010
0000
0000
,
0001
0001
0000
1000
,
0010
0000
1001
0000
0000
0001
0000
0000
,
1000
0000
0010
0000
0000
0100
0100
0000
,
0000
0000
0000
0000
,
0000
0000
0000
0000
,
0000
0000
0000
0000
,
0002
0000
0000
0003
,
2000
0000
0000
3000
,
0200
0000
0000
0300
,
0020
0000
0000
0030
,
0002
0000
0000
0003
,
2000
0000
0000
3000
,
0020
0000
0000
0030
,
0200
0000
0000
0310
,
1001
0000
0001
0000
,
1000
0000
0100
0000
,
1000
0000
0010
0000
,
0100
0000
0001
0000
,
1001
0000
0000
0001
,
0100
0001
0010
0001
,
2000
0000
0000
0000
,
0002
0000
0000
3003
,
1000
0000
0000
1000
0000
0000
1000
0000
,
1000
0000
1000
0000
,
0001
0000
0000
0001
0000
0000
0001
0000
,
0100
0000
0000
0100
0000
0000
0100
0000
,
0010
0000
0000
0010
0000
0000
0010
0000
,
0100
0000
0001
0000
,
1000
0000
0000
1000
0000
0000
1000
0000
,
0100
0000
0010
0001
,
0100
0000
0000
0100
0000
0000
0001
0000
,
1000
0000
0100
0000
,
0010
0000
0000
0010
0000
0000
0010
0000
,
0100
0000
0000
0100
0000
0000
0100
0000
,
1100
0000
0000
0100
,
1000
0001
0100
0001
,
2000
0000
0000
0000
,
0002
0000
0000
3003
,
0110
0000
0000
0000
,
1000
0000
0000
0000
,
0001
0000
0000
0000
,
0010
0000
0000
0000
,
0200
0000
0000
0000
,
0320
0000
0000
0000
,
0200
0000
0000
0000
,
0000
0000
0000
0000
,
0330
0000
0000
0000
;

//--------------- dance-single - Pandemonium X ----------------
#NOTES:
     dance-single:
     Pandemonium X:
     Medium:
     8:
     0.285404,0.530623,0.199783,0.375591,0,250,225,25,47,0,0,0.285404,0.530623,0.199783,0.375591,0,250,225,25,47,0,0:
0000
0000
0000
0000
,
0000
0000
0000
0000
,
0000
0000
0000
0000
,
0000
0000
0000
0000
,
0000
0000
0000
0000
,
0000
0000
0000
0000
,
0000
0000
0000
0000
,
0000
0000
0000
0000
,
0000
0000
0000
0000
,
0000
0000
0000
0000
,
0000
0000
0000
0000
,
0000
0000
0000
1000
,
0001
0000
0000
0010
0000
0000
0001
0000
,
1000
0000
0000
0010
0010
0000
0000
1000
,
0001
0000
0000
1000
0000
0000
0100
0000
,
1000
0000
0000
0001
0000
0000
0100
0000
,
0001
0000
0000
0000
0000
0000
0010
0100
,
0010
0010
0100
1000
,
1000
0000
0000
0000
,
0002
0000
0000
0000
,
0000
0000
0000
0000
,
0000
0000
0000
0000
,
2003
0000
0000
0000
,
3100
0000
1000
0000
0000
0010
1000
0000
,
0002
0000
0000
0000
,
0013
0000
0110
0000
0100
1000
0001
0000
,
0200
0000
0000
0000
,
0310
0000
1000
0000
0000
0001
0010
0000
,
0002
0100
0000
0000
,
1003
0000
1000
0000
1000
0100
0010
0000
,
0100
0000
1000
0000
0000
0010
0000
0000
,
0100
0000
0001
0000
0000
0010
0010
0000
,
0001
0000
1000
0000
0000
0100
0000
0000
,
1000
1000
0000
1000
0000
1000
1000
0001
,
1000
0010
0100
0001
,
0011
0100
0010
0001
,
1010
0010
0101
0001
,
1001
0000
1001
0000
1000
0100
0010
0001
,
1000
0000
1002
0000
0000
1000
0000
0000
,
1000
0000
1000
0000
0000
1000
2000
0000
,
0000
0000
0000
0000
,
0000
0000
0000
0000
,
0000
0000
0000
0003
,
3001
0000
0000
1000
0000
0000
0001
0000
,
0200
0000
0000
0010
0010
0000
0000
0310
,
0100
0000
0000
0001
0000
0000
0100
0000
,
0010
0000
0000
1000
0000
0000
0100
0000
,
1000
0000
0000
0100
0000
0000
0010
0000
,
0200
0000
0000
1000
1000
0000
0000
1300
,
0001
0000
0000
1000
0000
0000
0010
0000
,
0200
0000
0000
0010
0010
0000
0301
0000
,
1001
0000
0000
0001
0000
0000
1000
0000
,
1100
0000
0000
0100
0100
0000
0000
0010
,
0001
0000
0000
0100
0000
0000
0010
0000
,
1000
0000
0000
0001
0000
0000
0010
0000
,
0011
0000
0001
0000
0100
0000
0010
1000
,
1010
0101
1010
0101
,
1001
0001
0010
0100
,
2100
0000
0000
0000
0000
0000
3100
0010
,
0002
0000
0000
2003
0000
0000
3020
0000
,
2030
0000
0000
0100
0100
0000
0000
0100
,
3200
0000
0000
0320
0000
0000
0031
0000
,
0200
0000
0000
0320
0000
0000
1030
0000
,
0002
0000
0000
0023
0000
0000
0230
0000
,
0320
0000
0000
0001
0031
0000
0000
0001
,
2000
0000
0000
3020
0000
0000
1030
0000
,
0002
0000
0000
0100
0103
0000
0101
0000
,
1002
0000
0000
0023
0000
0000
0032
0000
,
2003
0000
0000
0010
0010
0000
0000
3010
,
0200
0000
0000
2300
0000
0000
3200
0000
,
0302
0000
0000
0023
0000
0000
1030
0000
,
1010
0000
0010
0000
0001
0000
0100
0001
,
0010
1000
0010
0100
,
1100
0100
0010
0001
,
0201
0000
0000
0000
0310
0100
0001
1000
,
2001
0000
0000
3002
0000
0000
2003
0000
,
3020
0000
0000
1000
1000
0000
0000
1030
,
0200
0000
0000
0320
0000
0000
0032
0000
,
0203
0000
0000
0320
0000
0000
1030
0000
,
0101
0001
1000
0100
,
0110
0010
0001
1000
,
1002
0100
2000
0000
,
0000
0000
0000
0000
,
3003
0000
0000
0000
;

//--------------- dance-single - Pandemonium X ----------------
#NOTES:
     dance-single:
     Pandemonium X:
     Hard:
     12:
     0.410981,0.696442,0.103887,0.663278,0.067926,360,347,13,83,0,0,0.410981,0.696442,0.103887,0.663278,0.067926,360,347,13,83,0,0:
0000
0000
0000
0000
,
0000
0000
0000
0000
,
0000
0000
0000
0000
,
0000
0000
0000
0000
,
0001
0000
0000
1000
0000
0000
0001
0000
,
1000
0000
0000
0100
0000
0000
0000
0010
,
0100
0000
0000
1000
0000
0000
0001
0000
,
0100
0000
0000
0001
0000
0000
1000
0000
,
0100
0000
0000
0010
0000
0000
0100
0000
,
1000
0000
0000
0001
0001
0000
0000
1000
,
0001
0000
0000
0100
0000
0000
0001
0000
,
0010
0000
0000
0100
0100
0000
0010
0000
,
0001
0000
0000
0100
0000
0000
0010
0000
,
1000
0000
0000
0010
0010
0000
0000
1000
,
0001
0000
0000
0010
0000
0000
0100
0000
,
0010
0000
0000
0100
0000
0000
0010
0000
,
0001
0000
0000
0000
0000
0000
1000
0100
,
0010
0100
1000
0001
,
2000
0000
0000
0000
,
0002
0000
0000
0000
,
0000
0000
0000
0000
,
0000
3000
0003
0000
0000
0000
0000
0000
,
2000
0000
0010
0000
0000
0100
3200
0000
,
0310
0000
0000
0000
0100
0000
0000
0100
0010
0000
0001
0000
1000
0000
0000
0000
,
0002
0000
0100
0000
0000
1000
2003
0000
,
3100
0000
0000
0000
0011
0000
0000
0001
0100
0000
0001
0000
1000
0000
0000
0000
,
0002
0000
1000
0000
0000
0010
0023
0000
,
0130
0000
0000
0000
0010
0000
0000
0010
0100
0000
1000
0000
0100
0000
0000
0000
,
0020
0000
0001
0000
0000
0100
0130
0000
,
1100
0000
0011
0000
0000
1001
0000
0000
,
1020
0000
0100
0000
0000
1000
0000
0000
,
0230
0000
0001
0000
0000
0010
0310
0000
,
0201
0000
0010
0000
0000
0001
0000
0000
,
0320
1000
0000
1000
0000
1000
1030
0001
,
0010
0100
0010
0100
1000
0100
1000
0100
,
0010
0001
0010
0001
1000
0001
1000
0001
,
0100
0010
1000
0001
0010
0100
0010
0001
,
0100
0000
0010
0000
1000
0000
0100
0000
0010
0001
0010
0001
0010
0100
1000
0010
,
0100
0000
1002
0000
0000
1000
0000
0000
,
1000
0000
1000
0000
0000
1000
2000
0000
,
0000
0000
0000
0000
,
0000
0000
0000
0000
,
0000
0000
0000
3003
,
0002
0000
0000
0203
0000
0000
2300
0000
,
3200
0000
0000
0010
0320
0000
0000
0130
,
0002
0000
0000
0023
0000
0000
2030
0000
,
3020
0000
0000
0230
0000
0000
0302
0000
,
0203
0000
0000
2300
0000
0000
3002
0000
,
0203
0000
0000
0010
0320
0000
0000
1030
,
0002
0000
0000
0023
0000
0000
2030
0000
,
3020
0000
0000
0100
0130
0000
0110
0000
,
1100
0000
0000
1000
0000
0000
0010
0000
,
0200
0000
0000
0001
0301
0000
0000
1000
,
0001
0000
0001
1000
0000
0100
0020
0000
,
0130
0000
0010
0100
0000
0100
2000
0000
,
3001
0100
0001
1000
0001
1000
0100
0010
,
0001
0010
0001
0100
0001
0100
0010
1000
,
0100
0000
1000
0000
0001
0000
1000
0000
0010
0100
0010
0100
0010
0100
0001
1000
,
0000
0000
0000
0000
0000
0001
0100
0001
,
0020
0000
0130
0020
0000
0031
0200
0000
,
0320
0000
2030
0001
0002
0000
3003
1000
,
0200
0000
0310
0002
0000
1003
0020
0000
,
0230
0000
0301
0020
0000
0130
0020
0000
,
0032
0000
0103
0020
0000
1030
0200
0000
,
0320
0000
0230
1000
2300
0000
0000
3100
,
0020
0000
0031
0200
0000
0301
2000
0000
,
3200
0000
0320
0100
0130
0000
0011
0000
,
2001
0000
3001
0200
0000
0301
0020
0000
,
0230
0000
0310
0001
0200
0000
0000
0310
,
2000
0000
3001
0020
0000
0130
0020
0000
,
0032
0000
1003
0200
0000
0301
0200
0000
,
1300
0100
1000
0100
1000
0100
1000
0100
,
0010
0001
0010
0001
0010
0001
0010
0001
,
0100
0010
1000
0001
0010
0100
0010
0001
,
1000
0000
0010
0000
0100
0000
0001
0000
1000
0100
1000
0100
0010
0001
0100
0010
,
2000
0000
0000
3020
0000
0000
0230
0000
,
0302
0000
0000
0010
0023
0000
0000
0130
,
0020
0000
0000
0032
0000
0000
0203
0000
,
0320
0000
0000
2030
0000
0000
3001
0000
,
1001
0100
0010
0100
,
1001
0010
0100
0010
,
1001
0002
2000
0000
,
0000
0000
0000
0000
,
3003
0000
0000
0000
;
