#TITLE:Narcissus At Oasis -影虎。Style-;
#SUBTITLE:;
#ARTIST:影虎。;
#TITLETRANSLIT:Narcissus At Oasis -Kagetora. style-;
#SUBTITLETRANSLIT:;
#ARTISTTRANSLIT:;
#GENRE:;
#CREDIT:;
#MUSIC:Narcissus At Oasis -Kagetora. style-.ogg;
#BANNER:Narcissus At Oasis -Kagetora. style--bn.png;
#BACKGROUND:Narcissus At Oasis -Kagetora. style--bg.png;
#CDTITLE:;
#SAMPLESTART:92.091;
#SAMPLELENGTH:16.764;
#SELECTABLE:YES;
#OFFSET:-0.091;
#BPMS:0.000=180.000
,148.000=90.000
,164.000=180.000
,324.000=90.000
;
#STOPS:;
#BGCHANGES:;
#FGCHANGES:;

//--------------- dance-single - Pandemonium X ----------------
#NOTES:
     dance-single:
     Pandemonium X:
     Beginner:
     4:
     0,0,0,0,0:
0000
0000
0000
0000
,
0000
0000
0000
0000
,
0000
0000
0000
0000
,
0000
0000
0000
0000
,
0000
0000
0000
0000
,
0000
0000
0000
0000
,
0000
0000
0000
0000
,
0000
0000
0000
0000
,
0000
0000
0000
0000
,
0001
0000
0000
0000
,
1000
0000
0000
0000
,
0001
0000
0000
0000
,
0010
0000
0000
0000
,
0001
0000
0000
0000
,
0100
0000
0000
0000
,
0001
0000
0000
0000
0000
0000
0000
0100
,
0000
0000
0000
0000
,
0010
0000
0000
0000
,
1000
0000
0000
0000
,
0100
0000
0000
0000
,
0010
0000
0100
0000
,
1000
0000
0000
0000
,
0001
0000
0000
0000
,
1000
0000
0000
0000
,
0100
0000
0000
0000
,
1000
0000
0000
0001
0000
0001
0000
0001
,
0000
0000
0000
0000
,
0000
0000
1000
0000
0000
0001
0000
0001
,
0000
0000
0000
0100
0000
0000
0000
0000
,
0010
0000
0000
0000
,
0100
0000
0000
0000
,
0001
0000
1000
0000
,
0110
0000
0000
0000
,
1000
0000
0000
0000
,
0000
0000
0000
0000
,
0000
0000
0000
0000
,
0000
0000
0000
0000
,
0001
0000
1000
0000
,
0100
0000
1000
0000
,
0010
0000
0100
0000
,
0001
0000
1000
0000
,
0001
0000
0000
0000
,
1000
0000
0000
0000
,
0010
0000
0000
0000
,
0100
0000
0000
0000
,
0010
0000
0000
0000
,
1000
0000
0001
0000
,
1000
0000
0000
0000
,
1001
1001
0110
0000
,
0001
0000
0000
0000
,
1000
0000
0000
0000
,
0010
0000
0000
0000
,
0100
0100
0100
0000
,
0010
0000
0000
0000
,
1000
0000
0000
0000
,
0100
0000
1000
0000
,
0001
0001
0001
0000
,
0100
0000
0000
0000
,
0010
0000
0000
0000
,
1000
0000
0000
0000
,
0001
0000
1000
0000
,
0100
0000
0000
0000
,
0010
0000
0000
0000
,
0001
0000
0000
0000
,
1000
0000
0001
0000
,
0100
0000
0000
0010
0000
0010
0000
0010
,
0000
0000
0000
0000
,
0100
0000
0000
0000
,
0010
0000
0000
0000
,
1000
0000
0000
0000
,
0001
0000
0000
0000
,
1000
0000
0000
0000
,
0001
0000
0000
0000
,
0010
0000
0000
0000
,
0100
0000
0000
0000
,
1000
0000
0000
0000
,
0010
0000
0000
0000
,
0100
0000
0000
0000
,
0010
0000
0100
0000
,
1001
0000
0000
0000
,
0000
0000
0000
0000
,
0001
0000
0000
0000
,
0000
0000
0200
0000
,
0300
0000
0000
0000
;

//--------------- dance-single - Pandemonium X ----------------
#NOTES:
     dance-single:
     Pandemonium X:
     Easy:
     7:
     0,0,0,0,0:
0000
0000
0000
0000
,
0000
0000
0000
0000
,
0000
0000
0000
0000
,
0000
0000
0000
0000
,
0000
0000
0000
0000
,
0001
0000
0000
1000
,
0100
1000
0010
0100
,
0020
0000
0000
0000
,
0200
0000
0000
0030
,
0310
0000
0000
1001
0000
0000
0000
0000
,
0001
0000
0000
1000
0000
0000
0100
0000
,
1000
0000
0000
0101
0000
0000
0000
0000
,
0001
0010
0001
0000
,
1000
0000
0000
1010
0000
0000
0000
0000
,
0010
0000
0000
0100
0000
0000
0001
0000
,
1000
0000
0000
1001
0000
0000
0000
0110
,
0000
0000
0000
0000
0000
0000
0000
1000
,
0001
0000
0000
0000
0000
0000
0010
0001
,
0000
0100
0000
0001
0000
0000
1000
0000
,
1100
0000
0100
1000
,
0020
0000
0230
0000
,
0301
0000
0000
0000
0010
0000
0000
0001
,
0000
0100
0000
0001
0000
0000
1000
0000
,
0100
0000
1000
0001
,
0200
0000
0310
0000
,
0110
0000
0000
1000
0000
0001
0000
1000
,
0000
0100
0000
0020
0000
0000
0002
0000
,
0033
0000
1100
0000
0000
1000
0000
0001
,
0000
0000
0000
0200
0000
0000
0000
0000
,
0310
0000
0000
0010
0000
0000
1000
0000
,
0001
0000
0001
0000
,
0010
0000
0100
0000
,
1000
0100
0020
0000
,
0130
0000
0000
0000
,
0000
0000
0000
0000
,
0000
0000
0000
0000
,
0000
0000
0000
0000
,
0010
0000
0001
0000
1000
0001
1000
0000
,
0001
0000
0100
0000
0010
1000
0010
0000
,
0100
0000
0001
0000
0010
0100
0010
0000
,
0100
0000
1000
0000
0001
1000
0001
0000
,
1000
0000
0010
0000
,
0100
0001
0010
0000
,
0100
0000
0010
0000
,
0100
1000
0010
0000
,
1001
0000
0000
0001
,
0100
1000
0100
0001
,
2000
0000
0000
0000
,
0002
0000
3003
0000
,
1000
0100
1000
0010
,
0000
0000
0000
0100
0000
0000
0010
0000
,
0000
0100
0001
0010
,
0000
0100
0000
0000
0010
0000
0000
0000
,
0001
1000
0001
0000
,
1000
0010
1000
0000
,
0001
0100
0001
0010
,
0001
1000
0200
0000
,
1300
0100
1000
0000
,
0001
0100
0001
0000
,
0010
0001
0010
0000
,
0100
0000
1000
0000
,
0001
0000
0000
1000
0000
0000
0001
0000
,
0000
0100
0000
0000
0010
0000
1000
0000
,
0001
0010
0100
0000
,
0010
0100
1000
0000
,
1001
0000
0000
0001
0000
1000
0000
0100
,
0000
1000
1000
0000
0020
0000
0000
0000
,
0130
0000
0000
0100
0000
0000
0100
0000
,
0010
0000
0000
0010
0000
0000
0010
0000
,
1000
0000
0000
1000
0000
0000
1000
0000
,
0001
0000
0000
1000
1000
0000
0000
0000
,
0001
0000
0000
1000
0000
0000
0100
0000
,
1000
0000
0000
0010
0010
0000
0000
0000
,
0100
0000
0000
0001
0000
0000
0010
0000
,
0100
0000
0000
1000
1000
0000
0000
0000
,
0100
0000
0000
1000
0000
0000
0010
0000
,
0100
0000
0000
0001
0000
0000
1000
0000
,
1001
0000
0000
0000
0000
0000
0001
0010
,
0001
0010
0100
2000
,
0002
0000
0000
0000
,
0000
0000
0000
3003
,
0001
1000
0100
1000
,
0001
0000
0000
0000
0010
0000
0000
0000
0200
0000
0000
0000
0000
0000
0000
0300
;

//--------------- dance-single - Pandemonium X ----------------
#NOTES:
     dance-single:
     Pandemonium X:
     Medium:
     12:
     0,0,0,0,0:
0000
0000
0000
0000
,
0000
0000
0000
0000
,
0000
0000
0000
0000
,
0000
0000
0000
0000
,
0000
0000
0000
0000
,
0201
0000
0010
0000
0001
0000
0310
1000
,
1100
0110
1100
0011
,
0010
0100
1000
0001
0100
1000
0100
0001
,
0020
0000
0000
0000
,
0130
1000
0001
0100
0000
0001
1000
0100
,
0020
0000
0000
0100
0000
0000
0031
0000
,
0100
0001
0010
0100
0000
0010
0001
0100
,
0010
0000
0000
1000
0000
0000
0002
0000
0000
0000
1003
0000
0100
0000
0010
0000
,
0001
1000
0100
1000
0000
0100
1000
0001
,
2000
0000
0000
0100
0000
0000
3010
0000
,
0100
0000
0010
0100
0000
0001
1000
1001
,
0000
0000
0000
0000
0000
0000
0000
0000
0000
0000
0000
0000
0000
0000
1000
0100
,
1000
0000
0000
0000
0000
0000
0001
0100
,
0000
0001
0000
0010
0000
0000
0100
0000
,
0010
0000
0000
0000
0001
0010
0200
0000
,
2300
0000
0010
0000
3001
0010
0100
1000
,
0001
0000
0000
0000
0100
0001
1000
0100
,
0000
1000
0000
0001
0000
0000
0100
0000
,
0001
0000
0000
0010
0100
0010
0001
1000
,
0010
0001
0010
0100
0001
1000
0100
0000
,
2100
0000
0000
0000
3001
0100
1000
0200
,
0000
0302
0000
2003
0000
0000
0200
0000
,
3300
0000
0011
0010
0100
1000
0001
0200
,
0000
0000
0000
0020
0000
0000
0330
0000
,
2000
0000
0000
3020
0000
0000
0230
0000
,
0302
0010
0203
0010
,
0302
1000
0203
0010
,
0302
0000
0000
2003
0000
0000
3020
0000
0230
0000
0000
0000
0000
0000
0000
0000
,
0301
0000
0000
0000
,
0000
0000
0000
0000
,
0000
0000
0000
0000
,
0000
0000
0000
1000
,
0001
0010
0100
0000
0010
0001
1000
0000
,
0010
1000
0100
0000
0010
0100
1000
0000
,
0001
0000
0010
0000
0100
0000
0000
0000
0010
0000
0000
0001
0001
0000
0000
0000
,
1000
0000
0001
0000
0100
0000
0000
0000
0010
0000
0000
1000
1000
0000
0000
0000
,
0001
0000
1000
0100
0010
0000
0100
0000
,
1000
0000
0001
0010
0100
0000
0010
0000
,
0001
0000
1000
0001
0100
0000
0001
0000
,
1000
0000
0001
1000
0010
0000
1000
0000
,
1100
0000
0100
0000
0010
0000
0001
0010
,
0011
0110
0011
1100
,
1002
0103
2001
3100
,
1000
0001
1000
0001
1000
0001
0100
0000
0000
0000
0000
0000
,
0010
1000
0010
0100
0010
1000
0010
0100
,
0000
0001
0010
0001
0000
0010
0100
0000
,
0010
0001
0100
0001
0010
0001
0100
0001
,
0000
0000
1000
0000
0000
0001
0000
0000
0100
0000
0000
0001
0000
0000
1000
0000
,
0001
0010
0100
1000
0100
0010
0000
0100
,
0010
0001
0100
0002
0000
0013
0100
0010
,
0002
0000
0103
0000
0010
1000
0100
0010
,
0000
1001
0000
0001
0010
0001
0100
0010
,
0100
0001
1000
0100
1000
0001
0100
0001
,
0000
0010
0100
0010
0000
0100
1000
0100
,
0000
1000
0010
1000
0001
0010
0100
0010
,
0000
0000
0001
0000
0000
0001
0000
0000
1000
0000
0000
0010
0000
0000
0100
0000
,
0001
1000
0010
1000
0001
0010
0001
1000
,
0010
1000
0001
0010
0100
1000
0001
1000
,
0001
0000
0000
0000
0100
0000
0000
0000
1000
0000
0000
0100
0000
0000
0001
0000
,
0000
0000
0010
0000
0000
0100
0000
0000
0010
0000
0000
0001
0000
0000
1000
0000
,
1001
0000
0000
0101
0000
1010
0000
1100
,
0000
0110
0110
0000
0002
0000
0000
0000
,
2003
0000
0000
3200
0000
0000
2300
0000
,
3020
0000
0000
0230
0000
0000
2300
0000
,
3200
0000
0000
0302
0000
0000
0023
0000
,
0230
0000
0000
0010
0320
0000
0000
0130
,
0020
0000
0000
0032
0000
0000
0203
0000
,
0320
0000
0000
0100
0230
0000
0320
0000
,
0230
0000
0000
0302
0000
0000
0023
0000
,
0230
0000
0000
0010
0020
0000
0300
0130
,
2000
0000
0000
3002
0000
0000
0203
0000
,
0302
0000
0000
2003
0000
0000
3200
0000
,
1300
0000
0100
0000
1000
0000
0010
0100
,
0101
0110
0101
1001
,
1000
0100
1000
0000
0001
0010
0001
0000
,
1000
0001
0100
0010
1000
0100
0010
0001
,
1000
0001
0100
0001
1000
0100
1000
0001
,
0100
0000
0000
0001
0000
0000
1000
0000
0000
0100
0000
0000
0010
0100
1000
0010
0100
0001
1000
0100
0010
0001
1000
0010
;

//--------------- dance-single - Pandemonium X ----------------
#NOTES:
     dance-single:
     Pandemonium X:
     Hard:
     16:
     0,0,0,0,0:
0000
0000
0000
0000
,
0000
0000
0000
0000
,
0000
0000
0000
0000
,
0000
0000
0000
0000
,
0000
0000
0000
0000
,
1000
0000
0100
0000
1100
0000
0100
1000
0100
0000
0010
0000
0001
0000
0100
0000
,
0010
0000
0000
0010
1000
0000
0000
1000
0001
0000
0000
0001
1000
0000
0000
1000
,
0100
0010
0100
1000
0001
0100
0001
1000
,
0020
0000
0000
0000
,
1030
0100
0010
1100
0000
0001
0100
0001
,
2000
0000
3100
0002
0000
0103
0020
0000
,
0031
0100
0010
0101
0000
0001
1000
0100
,
0010
0000
0001
0010
0000
0001
0100
0000
0010
0000
1000
0001
1000
0000
0001
0000
,
1000
0010
0100
1010
0000
1000
0001
1000
,
0020
0000
0031
0020
0000
1030
0002
0000
,
1003
0100
0010
1100
0000
1000
0001
0110
,
1000
0000
1000
0000
0001
0000
1000
0001
0000
0100
0010
0000
1000
0010
1000
0001
,
1000
0000
0001
0100
0000
0001
0010
0100
,
0000
0000
0011
0000
0000
0000
0101
0000
0000
0000
0100
0000
0010
0000
1000
0001
,
1000
0000
0001
1000
0010
0100
2000
0000
,
3200
0000
0000
0000
0310
0000
1000
0000
0001
0010
0100
1000
0001
0010
0100
1000
,
0001
0000
1000
0100
0010
0100
1000
0010
,
0000
1010
0000
0011
0000
0100
1001
0000
,
1100
0000
0010
0001
0100
0010
0002
0000
,
0013
0100
0010
1000
0100
0010
0100
0010
0100
0010
0001
1000
0001
0000
1000
0001
,
2000
0000
3000
1001
0001
1001
1000
2100
,
0000
0000
3001
0010
0001
0100
0001
1000
0100
1000
0000
1000
0001
0000
0100
0000
,
0000
0000
1001
0001
1000
1001
1000
1002
,
0000
0000
0013
0100
0010
0100
1000
0100
1000
0100
0010
0001
1000
0100
0010
0001
,
1000
0000
0010
0100
0010
1000
0100
0010
0100
1000
0000
1000
0001
0000
0001
0000
,
0100
0000
0010
0100
0001
0010
0001
0100
0001
0010
0000
0010
0100
0000
1000
0000
,
2100
0100
3001
0000
0102
0100
1003
0000
,
0101
0000
0000
1010
0000
0000
1100
0000
0021
0000
0000
0000
0000
0000
0000
0000
,
0130
0000
0000
1000
0000
0000
0001
0000
,
0000
0100
0000
0000
0001
0000
1000
0000
,
0001
0000
0000
0010
0000
0000
0100
0000
,
0000
1000
0000
0000
0100
0000
1100
0000
,
1010
0000
0000
0010
0000
0000
0100
0000
0001
0000
0000
1000
1000
0000
0000
0001
,
0010
0000
0000
1000
0000
0000
0010
0000
0100
0000
0000
0001
0000
0000
0100
0000
,
1000
0000
0000
0010
0000
0000
0001
0000
0010
0000
0000
0100
0100
0000
0000
0010
,
0010
0000
0000
0100
0000
0000
0001
0000
1000
0000
0000
0001
0001
0000
1000
0000
,
1001
0000
0001
0100
0000
0001
1000
0000
,
0100
0000
0010
0100
0100
0000
0000
0010
,
0001
0000
0100
0001
0000
1000
0100
0000
,
0010
0000
0100
1000
0000
0001
1000
0000
,
0201
0000
0010
0000
0301
0000
1000
0100
,
0110
0011
0110
1100
,
0001
0100
0010
1000
0001
0010
0100
0010
,
0001
0001
0001
1000
1000
1000
1001
0000
0000
0000
0000
0000
,
0101
0000
0100
0000
1000
0000
0100
0000
0001
0010
0001
0100
0001
0000
1000
0000
,
0000
0001
1000
1100
0000
1000
0001
0101
,
0000
0000
0001
0010
0100
0010
0001
0000
1000
0100
0010
0100
1000
0000
0001
0000
,
0000
0000
1000
0000
0001
0100
0000
0001
1000
0000
0001
0010
0000
0001
1000
0000
,
0100
0000
0100
0010
0001
0000
1000
0000
0001
0000
0001
0000
0000
0000
0001
0000
,
0100
0010
0001
0020
0000
0130
0001
1000
,
1100
0000
1010
0000
0010
0001
0010
1000
,
0000
0000
1001
0000
0000
0000
1000
0000
0001
0010
0100
1000
0001
0010
0100
1000
,
0001
0000
0010
0000
1000
0000
0010
0000
0100
0010
0100
1000
0010
0000
0100
0000
,
0000
0010
0100
0101
0000
0001
1000
1100
,
0000
0000
0100
0010
0100
0000
1000
0000
0001
0100
0001
0000
1000
0000
1001
0000
,
0000
1000
0010
0000
1000
0001
0000
1000
0100
0000
1000
0001
0000
1000
0010
0000
,
0100
0001
0010
0100
1000
0000
0100
1000
0100
0010
0001
0000
0010
0001
0010
0100
,
1000
0000
0010
1000
0100
0010
0001
0000
1000
0000
0100
0000
0010
0000
0100
0000
,
1000
0010
1000
0000
0010
0000
0100
0001
0100
0000
0001
0010
0000
0000
1001
0000
,
0000
0000
0001
0000
0001
0010
0000
0010
0100
0000
0100
0010
0001
0000
1000
0000
,
1001
0000
0100
0010
0100
0000
1001
0000
0100
0010
0100
0000
1001
0000
0001
0000
,
1000
0011
0012
1000
2000
0000
0003
0000
,
3002
0000
0013
0002
0000
0103
2000
0000
,
3200
0000
0310
2000
0000
3001
0020
0000
,
0230
0000
0301
0200
0000
0310
0002
0000
,
0203
0000
0302
0010
0020
0000
0033
0010
,
0200
0000
0310
0002
0000
0013
2000
0000
,
3020
0000
0230
1000
2300
0000
3002
0000
,
2003
3010
0100
0002
1003
0100
0020
0130
,
2000
3001
0100
0001
0002
0000
0000
2003
,
3002
0013
0001
0200
0310
1000
0002
0013
,
0200
1300
0100
0020
0031
0010
0200
1300
,
0001
0100
0001
0100
0001
0000
1000
0100
1000
0100
1000
0000
0001
0100
0001
0100
,
0001
0000
1000
0010
1000
0010
1000
0000
0001
1000
0001
1000
0001
0000
1000
0000
,
0100
0010
0001
0100
0010
1000
0001
0010
,
0100
0000
1000
0000
1000
0100
0000
0100
0010
0000
0010
0001
0100
0010
0100
0010
,
0100
0100
0010
0010
0100
0001
0010
0100
1000
1000
0100
0010
0001
0100
0010
0010
,
0100
0000
0000
0000
0000
0000
0001
0000
0000
0000
0000
0000
1000
0000
0000
0000
0000
0000
0100
0000
0000
0000
0000
0000
0010
0000
0000
0000
0000
0000
0010
0000
0000
0000
0000
0000
0001
0000
0000
0000
0000
0000
1000
0000
0000
0000
0000
0000
1000
0000
0000
0000
0100
0000
0000
0000
0010
0000
0000
0000
0001
0000
0000
0000
1000
0000
0000
0000
0100
0000
0000
0000
0010
0000
0000
0001
0000
0000
1000
0000
0000
0100
0000
0000
0010
0000
0000
0001
0000
0000
1000
0000
0000
0100
0000
0000
;
