#TITLE:NEWALONE;
#SUBTITLE:;
#ARTIST:Masayoshi Iimori;
#TITLETRANSLIT:;
#SUBTITLETRANSLIT:;
#ARTISTTRANSLIT:;
#GENRE:;
#CREDIT:;
#MUSIC:NEWALONE.ogg;
#BANNER:;
#BACKGROUND:NEWALONE-bg.png;
#CDTITLE:;
#SAMPLESTART:37.752;
#SAMPLELENGTH:13.102;
#SELECTABLE:YES;
#OFFSET:3.702;
#BPMS:0.000=110.000;
#STOPS:74.000=0.545
,153.000=0.545
;
#BGCHANGES:7.000=NEWALONE.mp4=1.000=0=0=1,
99999.000=-nosongbg-=1.000=0=0=0=StretchNoLoop====
;
#FGCHANGES:;

//--------------- dance-single - Pandemonium X ----------------
#NOTES:
     dance-single:
     Pandemonium X:
     Beginner:
     3:
     0,0,0,0,0:
0000
0000
0000
0000
,
0000
0000
0000
0000
,
0000
0000
0000
0000
,
0000
0000
0000
0000
,
0000
0000
0000
0000
,
0000
0000
0000
0000
,
0000
0000
0000
0000
,
0000
0001
0000
0000
,
0000
1000
0000
0000
,
0000
0001
0000
0000
,
0000
1000
0000
0000
,
0110
0000
0000
0000
,
0000
0000
0000
0000
,
0000
0000
0000
0000
,
0000
0000
0000
0110
,
0001
0000
1000
0000
,
0001
0000
1000
0000
,
0010
0000
0100
0000
,
0001
0000
0000
1001
,
0001
0000
0000
0100
,
0000
0000
0000
0010
,
0000
0000
0000
1000
,
0000
0000
0000
0000
,
1001
0000
0000
0001
,
0000
0000
0000
0010
,
0000
0000
0000
0100
,
0000
0100
0000
0000
,
2000
0000
0000
3000
,
0002
0000
0000
0003
,
0200
0000
0000
0300
,
0020
0000
0000
0030
,
0000
0000
0000
0000
,
0000
0000
0000
0000
,
0000
0000
0000
0000
,
0000
0000
1001
0001
,
0000
0001
0000
1000
,
0000
1000
0000
0010
,
0000
0100
0000
0001
,
0000
0000
0001
1000
,
0100
0000
1000
1000
,
1000
0000
0001
0000
,
0100
0000
0010
0110
,
0000
0000
1000
0001
,
0010
0100
0010
0000
,
0010
0000
0100
0000
,
1000
0000
0001
0001
,
0001
0000
0000
1000
,
0001
1000
0010
0010
,
0010
0010
0100
0000
,
0010
0000
0000
1001
,
0000
0000
0001
1000
,
0100
0010
0100
0100
,
0100
0000
1000
0000
,
0001
0000
0110
0000
,
0000
2000
0000
3000
;

//--------------- dance-single - Pandemonium X ----------------
#NOTES:
     dance-single:
     Pandemonium X:
     Easy:
     5:
     0,0,0,0,0:
0000
0000
0000
0000
,
0000
0000
0000
0000
,
0000
0000
0000
0000
,
0000
0000
0000
0000
,
0000
0000
0000
0000
,
0000
0000
0000
0000
,
0000
0000
0000
0000
,
0000
0001
0100
0001
,
0000
1000
0010
1000
,
0000
0001
1000
0001
,
0000
1000
0010
1000
,
1001
0001
0010
0001
,
0100
0010
1000
1000
,
0100
0010
0100
0100
,
0010
0001
0100
1001
,
0001
0001
1000
1000
,
0010
0010
0100
0100
,
0001
0100
0010
1000
,
0100
0010
0000
0002
,
0103
0010
2000
3001
,
0010
0001
1000
0200
,
0310
0100
1000
0001
,
0220
0000
0330
2000
,
3100
0010
0100
2000
,
3010
0100
0001
0020
,
0031
0100
0001
1000
,
0001
0100
0010
0000
,
2000
0000
0000
0000
0000
3000
0000
0000
,
0020
0000
0000
0000
0000
0030
0000
0000
,
0200
0000
0000
0000
0000
0300
0000
0000
,
0001
0001
0001
1001
,
1000
0000
1000
0000
,
1000
0000
1000
0000
,
0001
0000
0001
0000
,
0001
0000
0110
1000
,
1000
0001
0001
0100
,
0100
0010
0010
0100
,
0001
0010
0100
0010
,
0001
0000
2000
3020
,
0230
0301
0110
1001
,
0110
1001
0002
0103
,
0020
0030
0100
2002
,
0000
0000
3003
0000
2000
0000
3020
0030
,
0200
0300
0001
0000
1001
0000
0110
0000
,
1001
0110
0002
1003
,
0100
0010
0100
0100
,
0100
0100
0020
0031
,
0100
1000
0110
1001
,
0110
1001
2000
3100
,
0020
0130
1000
0220
,
0000
0330
0010
0100
,
0001
1000
1001
0110
,
1001
0110
0002
0013
,
0100
1000
0001
0000
,
0000
0200
0000
0300
;

//--------------- dance-single - Pandemonium X ----------------
#NOTES:
     dance-single:
     Pandemonium X:
     Medium:
     8:
     0,0,0,0,0:
0000
0000
0000
0000
,
0000
0000
0000
0000
,
0000
0000
0000
0000
,
0000
0000
0000
0000
,
0000
0000
0000
0000
,
0000
0000
0000
0000
,
0000
0000
0000
0000
,
0000
0001
1000
0200
,
0300
1000
0001
0020
,
0030
0100
0010
0002
,
0003
0100
0010
2000
,
3001
0000
0100
0000
0001
0001
0001
0000
,
1000
0000
0010
0000
0100
0100
0100
0000
,
0010
0000
1000
0000
0001
0001
0001
0000
,
0010
0000
0100
0000
1000
1000
1200
0000
,
0310
0010
0001
0001
,
1000
1000
0010
0010
,
0100
1000
0100
0001
,
1000
0100
0010
0001
0000
0000
2000
0000
,
3001
0000
0010
0100
0020
0000
0130
0100
,
0010
0100
1000
0010
0100
0000
0002
0000
,
1003
0000
1000
0100
1000
0000
0100
0000
,
0010
0000
0000
0010
0000
0000
0010
0000
0100
0000
1000
0000
0002
0000
0000
0000
,
0103
0000
0001
0100
0010
0000
2000
0000
,
3100
1000
0010
1000
0001
0000
0200
0000
,
0310
0000
0100
0001
1000
0000
0002
0000
,
0103
0020
1030
1001
,
2000
3200
0020
0330
,
0200
0320
0002
0033
,
0002
0203
0020
0330
,
0010
1000
0010
0100
0001
1000
0002
0000
,
1000
0000
1000
0000
,
0100
0000
0100
0000
,
0010
0000
0010
0000
,
1000
0000
0203
0310
,
0010
0100
0100
0001
,
0001
1000
1000
0001
,
0100
0000
0010
0000
1000
0000
0001
0010
,
0100
1000
0000
0000
0001
0001
0002
0000
,
2003
0000
3020
0000
0130
1000
0100
0001
,
0100
1000
0100
0001
0020
0000
0230
0000
,
2300
0000
0000
0000
3000
0000
0000
0000
0001
0000
0000
0000
0100
0000
0000
0100
,
0000
0100
0010
1000
0200
0000
0320
0030
,
0002
0003
1000
0000
0010
0001
0010
1000
,
0010
0001
0010
1000
0100
0000
0020
0000
,
0031
1000
0001
0000
0100
0010
0100
0001
,
1000
0100
0010
0000
0200
0000
2300
3000
,
0002
0003
0100
0000
0010
1000
0010
0001
,
0010
1000
0100
0010
0002
0000
2003
3000
,
0020
0000
0030
0000
1001
0000
0000
0000
0001
0000
0000
0000
0100
0000
0000
0100
,
0000
0100
0010
0010
2000
0000
3100
0000
,
0010
0000
0002
0000
0013
1000
0010
0001
,
0100
1000
0100
0010
1000
0000
0110
0000
,
0100
1001
0020
0000
,
0000
0200
0030
0300
;

//--------------- dance-single - Pandemonium X ----------------
#NOTES:
     dance-single:
     Pandemonium X:
     Hard:
     13:
     0,0,0,0,0:
0000
0000
0000
0000
,
0000
0000
0000
0000
,
0000
0000
0000
0000
,
0000
0000
0000
0000
,
0000
0000
0000
0000
,
0000
0000
0000
0000
,
0000
0000
0000
0000
,
0000
0001
1000
0200
,
0300
0000
1000
0000
0001
0000
0200
0302
,
0013
0001
1000
0020
,
0030
1000
0001
0020
,
0130
0000
0000
0000
1100
0000
1000
0010
1000
0010
1000
0010
1000
0010
0000
0000
,
0000
0000
0000
0000
0000
0000
0100
0001
0100
0001
0100
0001
0100
0001
0000
0000
,
0000
0000
0000
0000
0000
0000
0010
0001
0010
0001
0010
0001
0010
0001
0000
0000
,
0000
0000
0000
0000
0000
0000
1000
0100
1000
0100
1000
0100
0020
0000
0000
0000
,
0130
0100
1000
1000
0010
0010
0100
0100
,
1000
1000
0100
0100
0001
0001
0010
0010
,
0100
0010
0001
0010
1000
0010
0001
0100
,
1000
0100
0001
0010
1000
0010
0001
1000
0000
0000
0000
0000
0001
0200
0000
0000
,
0310
0000
1000
0001
0000
0100
0001
0010
0002
0000
0000
0000
1003
0001
1000
0001
,
0100
0000
0010
1000
0100
0000
0010
0100
1000
0000
2001
0000
3001
0200
0000
0000
,
0310
0000
0000
0000
0000
0000
1000
0000
0000
0001
0000
0000
0000
0000
0000
0100
0000
0000
0001
0000
0000
0010
0000
0000
0002
0000
0000
0000
0000
0000
0000
0000
0000
0000
0000
0000
0103
0000
0000
0000
0100
0000
0000
0000
0100
0000
0000
0000
,
0001
0000
1000
0001
0000
1000
0001
0000
1000
0100
1000
0100
1000
0020
0000
0000
,
0130
0000
0000
0000
0000
0000
0000
0000
0000
0000
0000
0000
0000
0000
0000
0000
0000
0000
0000
0000
0000
0000
0000
0000
0001
0000
0000
0000
0000
0000
0000
0000
0000
0000
0000
0000
1000
0000
0000
0000
0000
0000
0000
0000
0000
0000
0000
0000
0000
0000
0000
0000
0000
0000
0000
0000
0000
0000
0000
0000
0010
0000
0000
0000
0000
0000
0000
0000
0000
0000
0000
0000
1000
0000
0000
0000
0000
0000
0000
0000
0000
0000
0000
0000
0100
0000
0000
0000
0000
0000
0000
0000
0000
0000
0000
0000
2000
0000
0000
0000
0000
0000
0000
0000
0000
0000
0000
0000
0000
0000
0000
0000
0000
0000
0000
0000
0000
0000
0000
0000
0000
0000
0000
0000
0000
0000
0000
0000
0000
0000
0000
0000
0000
0000
0000
0000
0000
0000
0000
0000
0000
0000
0000
0000
3001
0000
0000
0000
0000
0000
0000
0000
0000
0000
0100
0000
0000
0000
0000
0000
0000
0000
0000
0001
0000
0000
0000
0000
0000
0000
0000
0000
0000
0010
0000
0000
0000
0000
0000
0000
0000
0000
0001
0000
0000
0000
0000
0000
0000
0000
0000
0000
,
2000
0000
3001
0010
0001
0000
1000
0100
0020
0000
0000
0000
0230
0000
0000
0000
,
0310
0000
0001
1000
0000
0010
1000
0100
2000
0000
0000
0000
3001
0000
0100
0000
,
0010
1000
0100
0001
0100
1000
2001
0000
,
3001
0100
0010
0100
0001
0100
0010
0100
0001
0100
0010
0100
0000
0000
0000
0000
,
0010
1000
0100
1000
0010
1000
0100
1000
0010
1000
0100
1000
0000
0000
0000
0000
,
0001
1000
0010
1000
0001
0010
0001
1000
0010
1000
0001
0010
0000
0000
0000
0000
,
1100
0000
1100
0000
1100
0000
1100
0000
1000
0100
0010
0001
2000
0000
0000
0000
,
3010
0200
0301
0020
,
0130
2000
3010
0200
,
0301
0020
0130
2000
,
3010
0000
0200
0000
0302
0000
0013
0010
,
0100
0100
1000
1000
0010
0010
0100
0100
,
0001
0001
0100
0100
0010
0010
1000
0010
,
0100
0000
0001
0000
0010
0000
1000
0000
0010
0000
0001
0000
0100
1000
0100
0001
,
0010
1000
0010
0001
1000
0000
0000
0000
0001
0010
0001
0010
0200
0000
0000
0000
,
1300
0020
0000
0000
0130
0000
0000
0000
2001
0000
3010
0000
1002
0000
0013
0000
,
2001
0000
3010
0000
1002
0000
0203
0000
0310
1000
0010
1000
0200
0000
0000
0000
,
0310
0000
0000
0000
0000
0000
0000
0000
0000
0000
0001
0000
0000
0000
0000
0000
0000
0000
0000
0010
0000
0000
0000
0000
0000
0000
0000
0000
0000
0001
0000
0000
0000
0000
0000
0000
0000
0000
0010
0000
0000
0000
0000
0000
0000
0000
0000
0000
0002
0000
0000
0000
0000
0000
0000
0000
0000
0000
0000
0000
0000
0000
0000
0000
0000
0000
0000
0000
0000
0000
0000
0000
0000
0000
0000
0000
0000
0000
0000
0000
0000
0000
0000
0000
0000
0000
0000
0000
0000
0000
0000
0000
0000
0000
0000
0000
0103
0000
0000
0000
0000
0000
0000
0000
0000
0000
0000
0000
0000
0000
0000
0000
0100
0000
0000
0000
0000
0000
0000
0000
0000
0000
0000
0000
0000
0000
0000
0000
0100
0000
0000
0000
0000
0000
0000
0000
0000
0000
0000
0000
0000
0000
0000
0000
0001
0000
0000
0000
0000
0000
0000
0000
0000
0000
0000
0000
0000
0000
0000
0000
0000
0000
0000
0000
0000
0000
0000
0000
1000
0000
0000
0000
0000
0000
0000
0000
0000
0000
0000
0000
0001
0000
0000
0000
0000
0000
0000
0000
0000
0000
0000
0000
,
0000
1000
0001
0000
1000
0010
1000
0010
0100
0001
0100
0001
2000
0000
3000
0000
,
0200
0000
0300
0000
0012
0000
0000
0003
2001
0000
3100
0000
1002
0000
0103
0000
,
2001
0000
3100
0000
1002
0000
0023
0000
0230
0000
0000
0300
2020
0000
0000
3030
,
0001
0000
0001
0000
0001
0000
1000
0000
0000
0000
0000
0000
0101
0000
0000
0101
0000
0000
0101
0000
0000
0101
0000
0000
,
0001
0100
0010
1000
0001
0000
0000
0000
0010
0001
0010
0001
0200
0000
0300
0000
,
0020
0030
1001
0000
0201
0310
1020
0130
,
0201
0000
0310
0000
1020
0000
0230
0000
0301
0010
0001
0010
0200
0000
0000
0000
,
1300
0000
0000
0000
0000
0000
0000
0000
0000
0000
0000
0000
0001
0000
0000
0000
0000
0000
0000
0000
0000
0000
0000
0000
0100
0000
0000
0000
0000
0001
0000
0000
0000
0000
0000
0000
0000
0000
0100
0000
0000
0000
0000
0000
0000
0000
0000
0000
0001
0000
0000
0000
0000
0000
0000
0000
0000
0000
0000
0000
0000
0000
0000
0000
0000
0000
0000
0000
0000
0000
0000
0000
0000
0000
0000
0000
0000
0000
0000
0000
0000
0000
0000
0000
0000
0000
0000
0000
0000
0000
0000
0000
0000
0000
0000
0000
0100
0000
0000
0000
0000
0000
0000
0000
0000
0000
0000
0000
0000
0000
0000
0000
0100
0000
0000
0000
0000
0000
0000
0000
0000
0000
0000
0000
0000
0000
0000
0000
0100
0000
0000
0000
0000
0000
0000
0000
0000
0000
0000
0000
0000
0000
0000
0000
0001
0000
0000
0000
0000
0000
0000
0000
0000
0000
0000
0000
0000
0000
0000
0000
0000
0000
0000
0000
0000
0000
0000
0000
1000
0000
0000
0000
0000
0000
0000
0000
0000
0000
0000
0000
0001
0000
0000
0000
0000
0000
0000
0000
0000
0000
0000
0000
,
0000
1000
0001
0000
1000
0100
1000
0100
0010
0001
0010
0001
0200
0000
0000
0000
,
0320
0000
0000
0000
2030
0000
0000
3000
1200
0000
0310
0000
0021
0000
0130
0000
,
1200
0310
0021
0230
1300
0010
0200
0000
,
0301
0000
0000
0000
0001
0000
0000
0000
0001
0000
0000
0000
1001
0000
0000
0000
0000
0000
0000
0000
0000
0000
0000
0000
1000
0000
0000
0000
0000
0000
0000
0000
0000
0000
0000
0000
0100
0000
0000
0010
0000
0000
0000
0000
0000
0001
0000
0000
,
0000
0010
0000
0100
2000
0000
0020
0000
0030
0000
0000
0000
0000
3000
0000
0000
;
