#TITLE:魅惑のYUMMYスイーツ;
#SUBTITLE:;
#ARTIST:BEMANI Sound Team "TATSUYA";
#TITLETRANSLIT:;
#SUBTITLETRANSLIT:;
#ARTISTTRANSLIT:;
#GENRE:;
#CREDIT:;
#MUSIC:Miwaku no YUMMY sweets.ogg;
#BANNER:Miwaku no YUMMY sweets-bn.png;
#BACKGROUND:Miwaku no YUMMY sweets-bg.png;
#CDTITLE:;
#SAMPLESTART:35.990;
#SAMPLELENGTH:18.492;
#SELECTABLE:YES;
#OFFSET:-0.221;
#BPMS:0.000=208.000;
#STOPS:236.000=2.236
,237.000=1.806
;
#BGCHANGES:;
#FGCHANGES:;

//--------------- dance-single - Pandemonium X ----------------
#NOTES:
     dance-single:
     Pandemonium X:
     Beginner:
     6:
     0,0,0,0,0:
0000
0000
0000
0000
,
0000
0000
0000
0000
,
0000
0000
0000
0000
,
0000
0000
0000
0000
,
0000
0000
0000
0000
,
0000
0000
0000
0000
,
0000
0000
0000
0000
,
0001
0000
0000
0000
,
1000
0000
0000
0000
,
0001
0000
0000
0000
,
1000
0000
0000
0000
,
0010
0000
0000
0000
,
0100
0000
0000
0000
,
0010
0000
0100
0000
,
0001
0001
0001
0000
,
1000
0000
0000
0000
,
0100
0000
0000
0000
,
0010
0000
0000
0000
,
0001
0000
1000
1000
,
0001
0000
0000
0000
,
0100
0000
0000
0000
,
0010
0000
0100
0000
,
0001
0001
0001
0000
,
2000
0000
0000
3000
,
0002
0000
0000
0003
,
2000
0000
0000
3000
,
0002
0000
1003
0110
,
0020
0000
0000
0030
,
0200
0000
0000
0300
,
1001
0000
0110
0000
,
1001
1001
1001
1001
,
0001
0000
0000
1000
0000
0000
0200
0000
,
0000
0000
0300
0010
,
0100
0000
0000
2000
0000
0000
0000
0000
,
0000
0000
3000
0001
,
1000
0000
0000
0010
0000
0000
0200
0000
,
0000
0000
0300
0001
,
0010
0000
0001
0000
,
1000
0001
0100
0010
,
1000
0000
0000
0000
,
0110
0000
0000
0000
,
0001
0000
0000
0000
,
1001
0000
0110
0000
,
1000
0000
0000
0000
,
0110
0000
0000
0000
,
1001
0000
0110
0000
,
1001
0001
0100
0010
,
1000
0000
0000
0000
,
0100
0000
0000
0000
,
0010
0000
0000
0000
,
0001
0001
0000
0000
,
0100
0000
0000
0000
,
0010
0000
0000
0000
,
1000
0000
0000
0000
,
0100
0100
0000
0000
,
0010
0010
0000
0000
,
0001
0001
0000
0000
,
1000
1000
0000
0000
,
0010
0010
0000
0000
,
1001
0000
0001
0000
,
1000
0000
0010
0000
,
1000
0000
0000
0001
,
0000
0001
0000
0001
,
0001
0001
1000
0000
,
0001
0000
0100
0000
,
0010
0000
0000
0100
,
0000
0100
0000
0100
,
0100
0100
0010
0000
,
1000
0000
0001
0000
,
0010
0000
0000
0100
,
0000
0100
0000
0100
,
0100
0100
1000
0000
,
0001
0000
1000
0000
,
0010
0000
1000
1000
,
0001
0000
0000
1000
0000
0000
0001
0000
,
1001
0000
0001
0000
,
0100
0000
0010
0000
,
1000
0000
0000
0100
,
0000
0010
0000
0001
,
0100
0010
0100
0000
,
0001
0000
1000
0000
,
0010
0000
0000
1000
,
0000
1000
0000
0001
,
1000
0001
0010
0000
,
0001
0000
1000
0000
,
0100
0000
0010
0100
,
0000
0100
0000
0100
,
1000
0010
0100
0000
,
0010
0000
1000
0000
,
0001
0000
1000
0001
,
1000
0000
0000
0001
0000
0000
1000
0000
,
1001
0000
0001
1000
,
0001
0000
0000
1000
0000
0000
0001
0000
,
1001
0000
0010
0100
,
0010
0000
0000
0100
0000
0000
0010
0000
,
0110
0000
0100
0010
,
0100
0000
0000
0010
0000
0000
0110
0000
,
1001
0000
0000
0000
;

//--------------- dance-single - Pandemonium X ----------------
#NOTES:
     dance-single:
     Pandemonium X:
     Easy:
     11:
     0,0,0,0,0:
0000
0000
0000
0000
,
0000
0000
0000
0000
,
0000
0000
0000
0000
,
0000
0000
0000
0000
,
0000
0000
0000
0000
,
0000
0000
0000
0000
,
0000
0000
0000
0000
,
1000
0000
0000
1000
0000
0000
0000
0000
,
0001
0010
0000
0001
0000
0000
0000
0000
,
1000
0000
0000
1000
0000
0000
0000
0000
,
0001
0010
0000
0001
0200
0000
0000
0000
,
0301
0000
0000
0100
0000
0000
0000
0000
,
0010
1000
0000
0001
0000
0000
0000
0000
,
2000
0000
3002
0000
,
2003
3020
0230
0302
,
0013
0100
0010
0001
,
0100
0010
0001
0010
,
1000
0100
0010
0100
,
1000
0010
0100
1000
,
0100
0010
1000
0100
,
0010
0100
1000
0001
,
0020
0031
0002
0103
,
0200
0320
0230
0302
,
2003
3200
0320
0032
,
0023
0230
2300
3200
,
0320
0032
0023
0230
,
2300
3200
0310
1001
,
0002
0023
0230
2300
,
3200
0320
0032
0023
,
0230
0300
2000
3000
,
0020
0230
0302
2003
,
3001
0100
0010
0100
,
0001
0010
0100
1000
,
0000
0100
1000
0010
,
0100
0010
1000
0001
,
0000
0010
0001
1000
,
0100
0010
0100
1000
,
0002
0003
2000
3000
,
0002
0203
0320
2030
,
3001
0100
0010
1000
,
1100
0100
0010
0001
,
0100
0010
1000
0001
,
0011
0001
0101
0100
,
0010
0100
0001
1000
,
1001
0001
1000
0100
,
1100
0000
0011
0000
,
0001
0100
0010
1000
,
1001
0000
0000
0000
,
0002
0000
0000
0000
,
0200
0000
0000
0003
,
0020
0000
0000
0300
,
2000
0000
0000
0030
,
0200
0000
0000
3000
,
0020
0000
0000
0300
,
0002
0000
0000
0030
,
2000
0000
0000
0003
,
0020
0000
0000
3000
,
0200
0000
0000
0030
,
0002
0000
0000
0000
,
0303
0000
1000
0001
,
0010
0001
1000
0010
,
0100
0001
0000
1001
,
0000
1001
0000
1001
,
1001
1001
1000
0001
,
0100
0010
1000
0100
,
0010
0001
0010
0110
,
0000
0110
0000
0110
,
0110
0110
1000
0001
,
0100
0001
0010
0001
,
0100
0010
1000
1001
,
0001
1001
1000
1001
,
1001
1001
0001
0100
,
0010
1000
0100
0010
,
0001
1000
0001
1000
,
0001
1000
0000
0001
0000
1000
0001
0000
,
0110
0000
1000
0010
,
0100
0001
0010
0100
,
1000
0100
0010
0011
,
0001
0101
0100
0110
,
0110
0110
0010
0100
,
0001
1000
0100
0010
,
0100
1000
0010
1010
,
1000
1010
0010
1010
,
0101
1010
0001
1000
,
0100
0010
0100
1000
,
0001
0100
0010
0110
,
0100
1001
0100
1001
,
0110
1001
0001
1000
,
0010
0100
0001
0010
,
0100
1000
0001
1000
,
0001
1000
0000
0110
0000
1000
0001
0000
,
1001
0000
0001
1000
,
0001
1000
0000
0110
0000
1000
0001
0000
,
1001
0000
0001
1000
,
0001
1000
0000
0110
0000
1000
0001
0000
,
1001
0000
1001
1001
,
1001
1001
0000
1001
0000
1001
1001
0000
,
1001
0000
0000
0000
;

//--------------- dance-single - Pandemonium X ----------------
#NOTES:
     dance-single:
     Pandemonium X:
     Medium:
     14:
     0,0,0,0,0:
0000
0000
0000
0000
,
0000
0000
0000
0000
,
0000
0000
0000
0000
,
0000
0000
0000
0000
,
0000
0000
0000
0000
,
0000
0000
0000
0000
,
0000
0000
0000
0000
,
1010
0000
0000
1100
0000
0000
0000
0000
,
0100
0010
0000
0011
0000
0000
0000
0000
,
1001
0000
0000
0101
0000
0000
0000
0000
,
0001
0100
0000
1010
2000
0000
0000
0000
,
3100
0000
0000
0011
0000
0000
0000
0000
,
0010
0100
0000
1100
0000
0000
0000
0000
,
2000
3010
0200
0301
,
2000
3200
0320
0032
,
0003
1000
0010
0100
0010
1000
0100
1000
,
0010
0100
0010
1000
0100
1000
0010
0100
,
0000
0001
0100
0010
0100
0001
0010
0001
,
0100
0010
0100
0001
0010
0001
0100
0010
,
0000
1000
0001
0100
0001
1000
0100
1000
,
0001
0100
0001
1000
0100
1000
0001
1000
,
0002
0013
0200
1300
,
1200
0310
0201
0310
,
1000
0100
0010
0001
0010
0100
1000
0100
,
0010
0001
0010
0100
1000
0100
0010
0001
,
0010
0100
1000
0100
0010
0001
0010
0100
,
1000
0100
0010
0001
0011
0000
0011
0000
,
0001
0010
0100
1000
0100
0010
0001
0010
,
0100
1000
0100
0010
0001
0010
0100
1000
,
0200
0310
0020
0031
,
0021
0130
1020
0130
,
0000
0010
1000
0100
1000
0010
1000
0100
,
1000
0010
1000
0100
1000
0010
1000
0100
,
0000
0010
0001
0100
0001
0010
0001
0100
,
0001
0010
0001
0100
0001
0010
0001
0100
,
0000
0001
0010
0001
1000
0010
1000
0001
,
0010
0001
1000
0010
1000
0001
0010
0001
,
0020
0130
2000
3010
,
0102
0013
2100
3010
,
0100
0010
1000
0100
,
0011
0001
0100
0010
,
1000
0010
0100
0001
,
1001
0100
1001
0010
,
1000
0001
0010
0100
,
1100
0100
1000
0010
,
0110
0001
0110
1000
,
1001
0110
1001
0110
,
1001
0000
0000
0000
0000
0000
0000
0000
0000
0000
0000
0000
0000
0000
0001
0100
,
0020
0000
0000
0000
0000
0000
0000
0000
0000
0000
0000
0000
0000
0000
0130
0001
,
2000
0000
0000
0000
0000
0000
0000
0000
0000
0000
0000
0000
0000
0000
3100
0010
,
0002
0000
0000
0000
0000
0000
0000
0000
0000
0000
0000
0000
0000
0000
0013
0100
,
2000
0000
0000
0000
0000
0000
0000
0000
0000
0000
0000
0000
0000
0000
3001
0100
,
0020
0000
0000
0000
0000
0000
0000
0000
0000
0000
0000
0000
0000
0000
0130
0001
,
2000
0000
0000
0000
0001
0000
0000
0000
0001
0000
0000
0000
0001
0000
3001
1000
,
0200
0000
0000
0000
0000
0000
0000
0000
0000
0000
0000
0000
0000
0000
0000
0000
0010
0000
0000
0000
0000
0000
0000
0000
0000
0000
0000
0000
0000
0000
0000
0000
0000
0000
0000
0000
0000
0000
0000
0000
0000
0000
0310
0000
0000
0001
0000
0000
,
0200
0000
0000
0000
0000
0000
0000
0000
0000
0000
0000
0000
0000
0000
0000
0000
0010
0000
0000
0000
0000
0000
0000
0000
0000
0000
0000
0000
0000
0000
0000
0000
0000
0000
0000
0000
0000
0000
0000
0000
0000
0000
0310
0000
0000
1000
0000
0000
,
0002
0000
0000
0000
0000
0000
0000
0000
0000
0000
0000
0000
0000
0000
0000
0000
1000
0000
0000
0000
0000
0000
0000
0000
0000
0000
0000
0000
0000
0000
0000
0000
0000
0000
0000
0000
0000
0000
0000
0003
0000
0000
1000
0000
0000
0100
0000
0000
,
0020
0000
0000
0000
0100
0000
0000
0000
0000
0000
0000
0000
,
0230
0000
1000
0000
1000
0000
1300
0000
0000
0000
0000
0000
,
2002
3000
0003
0000
1000
0010
0100
0001
,
0010
0100
0000
0100
0000
0100
0010
0000
,
0100
0010
0001
1000
0001
0100
0101
0000
,
1000
0100
1100
0000
0001
0100
0101
0000
,
1010
0000
0101
0000
0001
1000
0100
1000
,
0100
1000
0000
0010
0000
0100
0010
0100
,
0010
1000
0001
0010
0100
1000
1100
0000
,
0100
0010
0011
0000
0010
0100
1100
0000
,
0011
0000
1100
0000
0001
0100
0001
0010
,
0100
0010
0000
0001
0000
0100
0010
0100
,
0001
0010
0100
1000
0001
0100
0101
0000
,
1000
0100
1100
0000
0001
0100
0101
0000
,
0011
0000
1001
0000
1000
0001
0100
0001
,
0010
0100
0000
0010
0000
0001
0000
0100
,
0010
0100
0001
1000
1100
0000
0011
0000
,
0101
0101
0000
1010
0000
1001
1001
0000
,
0110
0000
0000
0000
0001
0100
0010
0000
,
1000
0010
0100
0000
0001
0010
0100
0000
,
0010
0001
1000
0100
0010
0001
0101
0000
,
0010
1000
1100
0000
1000
0010
1010
0000
,
0101
0000
1010
0000
0001
1000
0010
1000
,
0001
0010
0000
0100
0000
0100
0010
0001
,
0010
0100
1000
0001
0100
0010
1010
0000
,
0010
0100
0101
0000
0001
0010
0110
0000
,
1100
0000
0110
0000
1000
0001
0100
0001
,
0010
0100
0000
0010
0000
0100
0010
0001
,
1000
0010
0100
0001
1000
0001
0101
0000
,
0001
1000
1100
0000
1000
0001
0011
0000
,
1010
0000
1001
0000
0001
1000
0010
1000
,
0001
0010
0100
0010
0001
0100
0010
1000
,
0001
0010
0100
1000
1100
0000
0011
0000
,
0101
0101
0000
1010
0000
1001
1001
0000
,
1100
0000
0011
0101
,
1010
1010
0000
0101
0000
1001
1001
0000
,
1100
0000
0011
1100
,
0101
0101
0000
1010
0000
1001
1001
0000
,
0011
0000
0011
1100
,
0101
1010
0000
1100
0000
0011
1100
0000
,
1001
0000
0000
0000
;

//--------------- dance-single - Pandemonium X ----------------
#NOTES:
     dance-single:
     Pandemonium X:
     Hard:
     17:
     0,0,0,0,0:
0000
0000
0000
0000
,
0000
0000
0000
0000
,
0000
0000
0000
0000
,
MMMM
0000
0000
0000
,
MMMM
MMMM
0000
0000
,
MMMM
0000
0000
0000
,
0000
0000
0000
0000
,
0201
0000
0000
0000
0000
0000
0310
0000
0000
0000
1000
0001
1000
0001
1000
0000
,
1200
0310
0000
0011
0000
0000
1000
0001
,
0201
0000
0000
0000
0000
0000
0310
0000
0000
0000
1000
0001
1000
0001
1000
0000
,
0001
0021
0000
0130
2000
0000
0000
3000
,
0201
0000
0000
0000
0000
0000
0310
0000
0000
0000
1000
0001
1000
0001
1000
0000
,
0001
2001
0000
3010
0000
0000
0100
0001
,
1000
0100
1000
0100
1000
0000
0100
0000
0010
0001
0010
0001
0010
0000
0001
0000
,
1000
0001
1000
0001
0100
0010
0100
0010
1000
0010
1000
0010
0100
0001
0100
0001
,
1000
0000
0001
0000
0010
0000
0100
1000
0100
0000
0100
0010
0100
0000
0100
1000
,
0100
0000
0100
0010
0100
0000
0100
1000
0100
0000
0100
0010
0100
0000
0010
0000
,
0000
0000
0100
0000
0010
0000
0001
0100
0001
0000
0001
0010
0001
0000
0001
0100
,
0001
0000
0001
0010
0001
0000
0001
1000
0001
0000
0001
0010
0001
0000
1000
0000
,
0000
0000
1000
0000
0100
0000
0010
0001
0010
0000
0010
0100
0010
0000
0010
0001
,
0010
0000
0010
0100
0010
0000
0010
0001
0010
0000
0010
0100
0010
0000
0100
0000
,
1000
0100
1000
0100
1000
0000
0001
0000
0100
0001
0100
0001
0100
0000
0010
0000
,
1000
0000
0001
1000
0001
0000
1000
0001
1000
0001
0100
0010
1000
0001
0100
0010
,
1000
0001
1000
0001
1000
0001
1000
0100
0010
0001
0010
0100
,
1000
0001
1000
0001
1000
0001
1000
0100
0010
0001
0010
0100
,
1000
0001
1000
0001
1000
0001
1000
0100
0010
0001
0010
0100
,
1000
0001
1000
0001
1000
0001
1001
0000
0000
1001
0000
0000
,
0001
1000
0001
1000
0001
1000
0001
0010
0100
1000
0100
0010
,
0001
1000
0001
1000
0001
1000
0001
0010
0100
1000
0100
0010
,
0001
0001
0100
0100
0010
0010
1000
1000
,
0100
0000
0010
0001
0010
0000
0100
1000
0100
0010
0001
0100
0010
1000
0001
0010
,
0100
0000
1000
0000
0001
0000
0100
0001
0100
0000
0010
1000
0010
0000
0100
0001
,
0100
0000
0010
1000
0010
0000
0100
0001
0100
0000
0010
1000
0010
0000
0100
0000
,
0000
0000
0001
0000
0010
0000
0100
1000
0100
0000
0010
0001
0010
0000
0100
1000
,
0100
0000
0010
0001
0010
0000
0100
1000
0100
0000
0010
0001
0010
0000
0001
0000
,
0000
0000
0001
0000
1000
0000
0010
1000
0010
0000
0100
0001
0100
0000
0010
1000
,
0010
0000
0100
0001
0100
0000
0010
1000
0010
0000
0100
0001
0100
0000
0010
0000
,
1000
0001
1000
0001
1000
0000
0010
0000
0100
0001
0100
0001
0100
0000
0010
0000
,
1000
0100
1000
0100
0010
0001
0010
0001
0100
0001
0100
0001
1000
0010
1000
0010
,
1000
0010
0100
0001
0010
0100
1000
0001
,
MMMM
0010
0100
0001
1000
0100
0010
0001
,
0010
0001
0100
0010
1000
0100
0010
0001
,
MMMM
0000
0100
0000
0010
0000
1000
0000
MMMM
0000
0000
0000
1001
0000
0000
1000
,
0100
0010
0100
1000
0001
0100
0001
0010
,
MMMM
0000
0010
0000
0001
0000
0100
0000
0010
0000
1000
0000
0001
0000
0010
0100
,
1000
0000
0001
0000
0100
0000
0001
0010
0100
0000
0010
0000
0001
0000
1000
0001
,
MMMM
0000
0001
0100
0001
0000
1000
0010
1000
0000
0010
0100
0010
0000
0100
0000
,
1001
0000
0000
0000
0000
0000
0000
0000
0000
0000
0000
0000
0000
0000
0001
0100
,
20M0
0000
0000
0000
0000
0000
0000
0000
0000
0000
0000
0000
0000
0000
3100
0001
,
0020
0000
0000
0000
0000
0000
0000
0000
0000
0000
0000
0000
0000
0000
1030
0010
,
0M02
0000
0000
0000
0000
0M00
0000
0000
0000
0000
0000
0000
0103
0010
2000
0000
,
0000
0000
0000
0000
0000
0000
0000
0000
0000
0000
0000
0000
0000
0000
3001
0010
,
M200
0000
0000
0000
0000
0000
0000
0000
0000
0000
0000
0000
0000
0000
0310
0100
,
2000
0000
0000
0000
0001
0000
0000
0000
0001
0000
0000
0000
3001
0000
1000
0001
,
M2M0
00M0
00M0
00M0
00M0
M0M0
00M0
00M0
00M0
00M0
00M0
00M0
00M0
00M0
03M1
10M0
,
02M0
00M0
00M0
00M0
M0M0
00M0
00M0
00M0
00M0
00M0
00M0
00M0
00M0
00M0
13M0
01M0
,
10M0
0001
1000
0001
1000
0001
1000
00M1
1000
0000
0000
0000
0000
0000
0000
0000
,
10M0
0001
1000
0001
1000
00M1
1000
0001
1000
0001
1000
0001
1000
0001
1000
0001
,
10M0
0000
0000
0000
0000
0000
0000
0000
1001
0000
0000
0000
0000
0000
0000
00M0
0101
0000
0000
0000
0000
0000
0000
0000
1010
0000
0000
0000
0000
0000
0000
0000
0000
0000
0000
0000
0000
0000
0000
0000
0000
0000
0000
0000
0000
0000
0000
0000
,
2002
0003
0000
0000
3000
0000
0000
0000
0001
0000
0100
0000
0010
0000
1000
0000
,
0100
0010
0000
0100
0000
0100
0010
0001
,
1000
0010
1000
0100
1000
0001
0010
0001
1000
0000
0100
0000
1100
0000
0000
0000
,
0001
0100
0101
0000
1000
0100
1100
0000
,
1001
0000
0101
0000
1000
0001
0010
0001
,
0100
0010
0000
0100
0000
0010
1000
0100
,
0010
0100
0010
0001
1000
0010
1010
0000
,
0001
0010
0011
0000
0001
1000
1010
0000
,
1100
0000
1001
0000
1000
0100
1000
0001
,
0100
0001
0000
0010
0000
0001
0100
0010
,
0100
0001
0010
0001
0100
0010
1000
0010
0100
0001
0100
0000
0101
0000
0000
0000
,
1000
0010
1000
0000
1010
0000
0000
0000
0001
1000
0001
0000
1001
0000
0000
0000
,
0110
0000
1001
0000
1000
0100
1000
0001
,
0100
0001
0000
0010
0000
0010
0000
0010
,
0100
1000
0100
0010
0100
1000
0010
0000
0110
0000
0000
0000
1010
0000
0000
0000
,
0101
0011
0000
0110
0000
1100
1010
0000
,
1001
0000
0000
0000
0001
1000
0100
0010
,
0100
1000
0010
0100
0001
0010
0100
1000
0001
0000
1000
0000
0100
0000
1000
0000
,
0001
0100
0001
0010
0100
0010
0001
1000
0001
0000
1000
0000
1001
0000
0000
0000
,
1000
0001
1001
0000
0001
1000
1001
0000
,
0101
0000
1010
0000
1000
0100
1000
0001
,
0100
0010
1000
0001
0010
0001
1000
0001
0100
0000
0001
0000
0010
0000
0100
0000
,
0010
0001
1000
0001
1000
0100
0010
0100
1000
0000
0100
0000
0011
0000
0000
0000
,
0001
0100
1010
0000
0001
1000
1010
0000
,
0110
0000
0101
0000
0001
0010
0001
0100
,
0010
1000
0001
1000
0001
0010
0100
0010
,
0001
1000
0100
1000
0010
0000
1000
0000
0001
0010
0100
0000
1100
0000
0000
0000
,
1000
0100
0010
0000
0011
0000
0000
0000
0001
0010
0100
0000
1100
0000
0000
0000
,
0110
0000
0011
0000
1000
0001
0100
0001
,
0010
0001
1000
0010
1000
0100
0010
0100
,
1000
0001
1000
0001
1000
0000
0001
0000
1001
0000
0000
0000
1100
0000
0000
0000
,
0110
0011
0000
0101
0000
0110
1010
0000
,
1001
0000
1001
0011
,
0110
1100
0000
1010
0000
0110
0101
0000
,
1001
0000
0101
0110
,
1010
0101
0000
0011
0000
0110
1100
0000
,
1001
0000
1010
1001
,
0011
1100
0000
0110
0000
0011
1100
0000
,
1001
0000
0000
0000
;
