#TITLE:Last Dance;
#SUBTITLE:;
#ARTIST:dj TAKA;
#TITLETRANSLIT:;
#SUBTITLETRANSLIT:;
#ARTISTTRANSLIT:;
#GENRE:;
#CREDIT:;
#MUSIC:Last Dance.ogg;
#BANNER:Last Dance-bn.png;
#BACKGROUND:Last Dance-bg.png;
#CDTITLE:;
#SAMPLESTART:69.648;
#SAMPLELENGTH:14.000;
#SELECTABLE:YES;
#OFFSET:-0.456;
#BPMS:0.000=150.000;
#STOPS:239.750=2.400;
#BGCHANGES:;
#FGCHANGES:;

//--------------- dance-single - Pandemonium X ----------------
#NOTES:
     dance-single:
     Pandemonium X:
     Beginner:
     3:
     0,0,0,0,0:
0000
0000
0000
0000
,
0000
0000
0000
0000
,
0000
0000
0000
0000
,
0000
0000
0000
0000
,
0000
0000
0000
0000
,
0020
0000
0000
0000
,
0000
0000
0000
0000
,
0000
0000
0000
0000
,
0030
0000
0000
0000
,
1001
0000
0000
0000
0000
0000
0000
0001
0000
0000
0000
0000
0000
0000
0000
0000
,
0000
0000
0000
0000
0000
0000
0000
0001
0000
0000
0000
0000
0000
0000
0000
0000
,
0000
0000
0000
0000
0000
0000
0000
0001
0000
0000
0000
0000
0000
0000
0000
0000
,
0000
0000
0000
0000
0000
0000
0000
0001
0000
0000
0000
0000
0000
0000
0000
0000
,
0000
0000
0000
0000
0000
0000
0000
1000
0000
0000
0000
0000
0000
0000
0000
0000
,
0000
0000
0000
0000
0000
0000
0000
1000
0000
0000
0000
0000
0000
0000
0000
0000
,
0000
0000
0000
0000
0000
0000
0000
1000
0000
0000
0000
0000
0000
0000
0000
0000
,
0100
0000
0000
0000
,
0010
0000
0000
0000
0000
0000
0000
0100
0000
0000
0000
0000
0000
0000
0000
0000
,
0000
0000
0000
0000
0000
0000
0000
1000
0000
0000
0000
0000
0000
0000
0000
0000
,
0000
0000
0000
0000
0000
0000
0000
0010
0000
0000
0000
0000
0000
0000
0000
0000
,
0000
0000
0000
0000
0000
0000
0000
0100
0000
0000
0000
0000
0000
0000
0000
0000
,
0000
0000
0000
0000
0000
0000
0000
0001
0000
0000
0000
0000
0000
0000
0000
0000
,
0000
0000
0000
0000
0000
0000
0000
1000
0000
0000
0000
0000
0000
0000
0000
0000
,
0000
0000
0000
0000
0000
0000
0000
0010
0000
0000
0000
0000
0000
0000
0000
0000
,
0000
0000
0000
0000
0000
0000
0000
0100
0000
0000
0000
0000
0000
0000
0000
0000
,
0002
0000
0000
0000
,
0000
0000
0000
0000
,
0003
0000
0000
0000
,
1001
0000
0000
0000
,
0000
0000
0001
0000
,
0000
1000
0000
0001
,
0001
0000
0100
0000
,
0000
0010
0000
0100
,
0100
0000
0010
0000
,
1000
1000
0000
0001
,
0001
0000
1000
0000
,
0001
0000
0100
0000
,
0010
0000
1000
0000
,
0100
0000
0010
0000
,
0001
0000
1000
0000
,
0001
0000
1000
0000
,
0010
0000
1000
0000
,
0001
0000
0100
0000
,
1001
0000
0000
0000
,
0001
0100
0000
0000
,
0000
0000
0010
0000
,
0000
0100
0100
0001
,
1000
0000
0001
0000
,
0000
0010
0000
0100
,
0100
0000
1000
0000
,
0001
1000
0001
0010
,
0100
0000
1000
0000
,
0001
0000
1000
0000
,
0010
0000
0100
0000
,
0001
0000
0010
0000
,
0100
0000
1000
0000
,
1001
0000
0001
0000
,
1001
0000
1000
0000
,
1001
0000
0110
0000
,
0001
0100
0010
1000
,
0000
0000
0000
0000
0000
0000
0000
0000
1001
0000
0000
0000
0000
0000
0000
1000
,
0000
0000
0000
0000
0000
0000
0000
0000
0000
0000
0000
0000
0000
0000
0000
0001
,
0000
0000
0000
0000
0000
0000
0000
0000
0000
0000
0000
0000
0000
0000
0000
0100
,
0000
0000
0000
0000
0000
0000
0000
0000
0000
0000
0000
0000
0000
0000
0000
0010
,
0000
0000
0000
0000
0000
0000
0000
0000
0000
0000
0000
0000
0000
0000
0000
0100
,
0000
0000
0000
0000
0000
0000
0000
0000
0000
0000
0000
0000
0000
0000
0000
0010
,
0000
0000
0000
0000
0000
0000
0000
0000
0000
0000
0000
0000
0000
0000
0000
1000
,
0000
0000
0000
0000
0000
0000
0000
0000
0000
0000
0000
0000
0000
0000
0000
0001
,
0000
0000
0000
0000
0000
0000
0000
0000
0000
0000
0000
0000
0000
0000
0000
0100
,
0000
0000
0000
0000
0000
0000
0000
0000
0000
0000
0000
0000
0000
0000
0000
0100
;

//--------------- dance-single - Pandemonium X ----------------
#NOTES:
     dance-single:
     Pandemonium X:
     Easy:
     6:
     0,0,0,0,0:
0000
0000
0000
0000
,
0000
0000
0000
0000
,
0000
0000
0000
0000
,
0000
0000
0000
0000
,
0000
0000
0000
0000
,
0020
0000
0000
0000
,
0000
0000
0000
0000
,
0000
0000
0000
0000
,
0030
0000
0000
0000
,
1000
0001
0010
0000
,
0001
1000
0010
0000
,
1000
0001
0100
0000
,
0001
1000
0100
0000
,
1001
1000
0100
0000
,
0010
0001
0100
0000
,
0001
1000
0100
0000
,
0020
0000
0000
0000
,
0130
1000
0110
0100
,
0001
0010
0110
0100
,
1000
0010
0110
0100
,
0001
0010
0110
0100
,
1000
0001
0101
0001
,
1000
0001
0011
0001
,
1001
1000
1001
0001
,
1001
0110
1001
0110
,
2000
0000
0000
0000
,
0000
0000
0000
0000
,
3000
0002
0023
0230
,
2300
0000
3200
0000
,
0320
0000
0230
0000
,
2300
0000
3002
0000
,
0203
0000
0320
0000
,
0230
0000
0302
0000
,
2003
0000
3200
0000
,
2300
0000
3002
0000
,
2000
3003
1001
0110
,
0001
0100
0001
0100
,
0010
1000
0010
1000
,
0100
1000
0100
1000
,
0100
0010
0100
0010
,
0001
1000
0001
1000
,
0010
0100
0010
0100
,
0001
0100
0010
1000
,
1001
0002
2003
3002
,
2003
3020
2030
3100
,
0010
0100
0020
0032
,
0103
0020
0230
0302
,
0023
0130
0020
0031
,
1100
0200
1300
2000
,
3020
0130
0002
0013
,
0200
0310
0200
1300
,
0002
0000
2000
3003
,
0002
0103
0002
0103
,
0002
1003
0002
1003
,
0002
0013
0002
0013
,
0002
1003
0002
1003
,
1001
2000
3010
2000
,
3001
2000
3100
2000
,
3001
2000
3010
2000
,
3001
0000
0000
0000
2000
0000
0000
0000
3100
0000
0000
0000
2000
0000
0000
3000
,
0000
0000
0001
0100
,
0020
0000
0000
0030
0000
0000
0000
0000
0100
0000
0000
0000
0001
0000
0000
0000
,
2000
0000
0000
3000
0000
0000
0000
0000
0100
0000
0000
0000
0010
0000
0000
0000
,
0200
0000
0000
0300
0000
0000
0000
0000
0010
0000
0000
0000
0001
0000
0000
0000
,
2000
0000
0000
3000
0000
0000
0000
0000
1001
0000
0000
0000
0001
0000
0000
0000
,
0020
0000
0000
0030
0000
0000
0000
0000
1100
0000
0000
0000
1000
0000
0000
0000
,
0002
0000
0000
0003
0000
0000
0000
0000
1001
0000
0000
0000
0010
0000
0000
0000
,
1001
0100
1001
0110
,
1001
0000
0000
0000
0110
0000
0000
0000
0000
0000
0000
0000
0000
0000
0000
0002
,
0000
0000
0003
0000
0000
0000
0000
0000
0000
0000
0000
0000
0000
0000
0000
0002
,
0000
0003
0000
0000
0000
0000
0000
0000
;

//--------------- dance-single - Pandemonium X ----------------
#NOTES:
     dance-single:
     Pandemonium X:
     Medium:
     10:
     0,0,0,0,0:
0000
0000
0000
0000
,
0000
0000
0000
0000
,
0000
0000
0000
0000
,
0000
0000
0000
0000
,
0000
0000
0000
0000
,
0201
0001
0010
0010
,
0001
0001
0010
0010
,
0001
0001
0010
0010
,
0301
0000
0000
0000
0000
0000
0000
0000
1000
0100
0000
0100
0010
0000
0001
0000
,
1000
0000
0001
0000
0100
0000
0000
0001
0000
0000
0001
0000
0000
0000
0000
0000
,
0010
0000
0001
0000
0100
0000
0000
0010
0000
0000
0010
0000
0000
0000
0000
0000
,
0100
0000
0010
0000
1000
0000
0000
0001
0000
0000
0001
0000
0000
0000
0000
0000
,
0010
0000
0001
0000
0100
0000
0000
0010
0000
0000
0010
0000
0000
0000
0000
0000
,
0010
0000
0100
0000
0010
0000
0000
1000
0000
0000
1000
0000
0000
0000
0000
0000
,
0010
0000
0100
0000
0010
0000
0000
0100
0000
0000
0100
0000
0000
0000
0000
0000
,
0010
0000
1000
0000
0001
0000
0000
0100
0000
0000
0100
0000
0000
0000
0000
0000
,
0002
0023
0230
2300
,
3002
0000
0000
0000
0100
0000
0000
1000
0000
0000
1003
0000
0000
0000
0000
0000
,
2000
0000
0000
0000
0100
0000
0000
0001
0000
0000
3001
0000
0000
0000
0000
0000
,
0200
0000
0000
0000
0010
0000
0000
0001
0000
0000
0301
0000
0000
0000
0000
0000
,
0020
0000
0000
0000
0100
0000
0000
0001
0000
0000
0031
0000
1000
0000
0001
0000
,
0100
0000
0001
0000
0200
0000
0000
0010
0000
0000
0310
0000
0000
0000
0000
0000
,
0010
0000
1000
0000
0020
0000
0000
1000
0000
0000
1030
0000
0000
0000
0000
0000
,
1100
0100
0010
0000
0011
0001
0100
0000
,
0001
0000
0001
0000
1000
0000
1000
0000
0001
0100
0000
0010
1000
0000
0100
0000
,
0020
0000
0000
0000
,
0000
0000
0000
0000
,
0030
0200
2300
3002
,
2003
3002
0000
0000
,
0000
0000
0203
0000
,
0000
0302
0023
0230
,
0320
0000
0200
0000
,
0030
2300
0000
3200
,
2300
0000
3002
0000
,
0203
0302
0000
0023
,
0032
0023
0130
1001
,
2000
3010
2000
3001
,
2000
3100
1000
1001
,
0002
0103
0002
1003
,
0002
0013
0001
1001
,
0001
0100
0002
0000
0103
0010
0200
0000
,
0310
1000
0020
0000
1030
0100
2000
0000
,
3100
0100
0010
0010
0001
0001
1000
1000
,
1001
0002
0203
0320
,
1030
0010
1000
0000
0010
0100
0010
0000
,
0100
0001
0100
0000
0001
0010
0001
0000
,
0010
0100
0010
0000
0100
1000
0100
0000
,
1000
0001
1000
0000
0001
0100
0001
0000
,
0010
0001
0010
0000
0100
1000
0100
0000
,
1000
0010
1000
0000
0001
0100
0001
0000
,
1000
0001
1000
0000
0001
0010
0001
0000
,
2000
0000
0000
0000
0000
0000
0000
0000
3001
0010
0000
0010
0001
0000
1000
0000
,
0010
0100
0002
0000
0013
0100
2000
0000
,
3100
1000
0002
0000
0013
0100
2000
0000
,
3100
1000
0020
0000
0130
0001
2000
0000
,
3100
0010
0002
0000
0013
0100
2000
0000
,
3001
0100
0020
0000
0130
0001
2000
0000
,
3100
0010
0200
0000
0310
0001
0200
0000
,
0301
0100
0020
0000
0130
0010
2000
0000
,
3001
0010
2000
3010
0001
0100
0002
1003
,
0000
0000
0000
0000
0000
0000
0000
0000
0001
0000
0100
0000
0010
0000
0000
1000
,
0000
0000
1100
0000
0000
0000
0000
0000
1000
0000
0100
0000
0010
0000
0000
0001
,
0000
0000
0101
0000
0000
0000
0000
0000
0001
0000
1000
0000
0010
0000
0000
1000
,
0000
0000
1100
0000
0000
0000
0000
0000
1000
0000
0100
0000
0010
0000
0000
0001
,
0000
0000
0101
0000
0000
0000
0000
0000
0001
0000
0100
0000
0010
0000
0000
1010
,
0000
0000
1001
0000
0000
0000
0000
0000
1000
0000
0100
0000
0010
0000
0000
0011
,
0000
0101
0000
0000
0001
0100
0010
0000
,
0100
0001
1000
0000
0001
0100
0010
1000
,
0100
0010
0000
0010
0001
0000
1000
0000
0000
0000
0000
0000
0000
0000
0000
0010
,
0000
0000
1001
0000
0000
0000
0000
0000
0000
0000
0000
0000
0000
0000
0000
0010
,
0000
1001
0000
0000
0000
0000
0000
0000
;

//--------------- dance-single - Pandemonium X ----------------
#NOTES:
     dance-single:
     Pandemonium X:
     Hard:
     16:
     0,0,0,0,0:
0000
0000
0000
0000
,
0000
0000
0000
0000
,
0000
0000
0000
0000
,
0000
0000
0000
0000
,
0000
0000
0000
0000
,
0004
4000
0000
0000
0000
0000
0000
0000
,
0000
0000
0000
0000
,
0000
0000
0000
0000
,
3003
0000
0000
0000
0000
0000
0000
0000
0000
0000
0000
0000
0000
0000
0000
0000
0001
0000
0200
0300
0000
0000
0200
0300
1000
0000
0001
0000
1000
0000
0000
0000
,
1001
0000
0001
0000
0010
0000
0100
0010
0000
0010
0001
0000
1000
0000
0001
0000
,
0010
0000
0100
0000
1000
0000
0010
1000
0000
1000
0100
0000
0010
0000
0100
0000
,
1000
0000
0001
0000
0100
0000
0001
0010
0000
0010
0100
0000
0010
0000
0001
0000
,
0100
0000
0001
0000
1000
0000
0010
0100
0000
0100
0001
0000
0001
1000
0001
1000
,
0100
0000
0010
0000
0001
0000
0100
1000
0000
0100
0001
0000
1000
0000
0001
0000
,
0010
0000
0001
0000
1000
0000
0100
0001
0000
0100
1000
0000
0010
0000
1000
0000
,
0001
0000
0100
0000
0001
0000
0100
1000
0000
0100
0001
0000
0010
0000
0100
0000
,
4000
0004
0000
0000
0000
0000
0000
3003
,
0110
0000
0001
0000
1000
0000
0100
0010
0000
0010
0001
0000
0100
0010
0100
0000
,
0001
0000
1000
0000
0010
0000
1000
0100
0000
0100
0010
0000
0100
1000
0100
0000
,
1000
0000
0001
0000
0100
0000
0010
1000
0000
1000
0001
0000
0010
0100
0010
0000
,
0100
0000
1000
0000
0001
0000
0100
0001
0000
0001
1000
0000
0100
0010
0100
1000
,
0001
0010
0100
0000
1000
0100
0010
0001
0000
0000
1100
0000
1000
0010
1000
0001
,
1000
0100
0010
0000
0001
0010
0100
1000
0000
0000
0011
0000
0001
0100
0010
1000
,
0001
0100
0001
0000
1000
0010
1000
0000
0100
1000
0100
0000
0010
0001
0010
0000
,
1100
0000
0011
0000
1100
0000
0011
0000
0001
0100
0010
1000
0001
0010
0100
1000
,
0004
4000
0000
0000
0000
0000
0000
0000
,
0000
0000
0000
0000
,
3003
2000
3200
0320
,
0032
0010
0203
0010
,
0001
0010
0302
1000
,
0023
0230
2300
3020
,
0230
1000
0302
1000
,
0100
2003
0100
3020
,
0230
0302
0023
0100
,
0032
0203
0320
2030
,
3002
0000
0000
0000
0000
0000
0000
0000
0000
0000
0000
0000
0000
0000
0000
0000
1003
0000
0000
0000
0000
0000
0000
0000
0000
0000
0000
0000
0000
0000
0000
0000
1000
0000
0000
0000
0200
0300
0000
0000
0000
0000
0000
0000
0200
0300
0000
0000
0001
0000
0000
0000
1000
0000
0000
0000
0001
0000
0000
0000
0000
0000
0000
0000
,
1000
0010
0100
0010
1000
0100
0010
0001
,
0010
0001
0100
0010
1000
0100
0010
0001
,
1000
0010
0100
1000
0100
0010
1000
0001
,
0100
1000
0100
0010
0100
1000
0100
0001
,
1000
0100
1000
0000
0001
0100
0001
0000
0010
0001
0010
0000
0100
1000
0100
0000
,
1000
0001
1000
0000
0001
0100
0001
0000
1000
0010
1000
0000
0001
1000
0001
0000
,
1000
0010
1000
0010
0100
0010
0100
0010
0100
0001
0100
0001
1000
0001
1000
0001
,
1001
2000
3002
2003
,
3001
0010
0001
0000
1000
0100
1000
0000
0010
1000
0010
0000
0100
0001
0100
0000
,
0001
1000
0001
0000
1000
0100
1000
0000
0010
0001
0100
0000
0010
1000
0100
0000
,
0010
0100
1000
0000
0100
0010
0001
0000
0010
0100
1000
0000
0100
1000
0010
0000
,
0100
0001
0010
0000
0100
0010
0001
0000
0010
0100
1000
0000
0100
1000
0010
0100
,
0001
0000
0001
0000
0010
0100
1000
0000
0100
0010
0001
0000
1000
0010
0100
0001
,
0010
0100
1000
0000
0100
1000
0010
0000
0100
0001
0010
0000
0100
0010
0001
1000
,
0010
1000
0001
0000
0010
0100
1000
0000
0100
1000
0010
0000
0100
0010
1000
0010
,
2000
0000
0000
0000
0000
0000
0000
0000
3001
0010
0100
1000
0001
0010
0100
1000
,
0001
0100
0001
0100
0001
0000
0100
0000
0010
1000
0010
1000
0010
0000
1000
0000
,
0001
0010
0001
0010
0001
0000
0010
0000
0100
1000
0100
1000
0100
0000
1000
0000
,
0010
0100
0010
0100
0010
0000
0100
0000
0001
0100
0001
0100
0001
0000
0100
0000
,
0010
1000
0010
1000
0010
0000
1000
0000
0001
1000
0001
1000
0001
0000
1000
0000
,
0100
0010
0001
1000
0010
0000
0100
0000
0010
1000
0001
0010
0100
0000
0010
0000
,
0001
0010
0100
1000
0001
0000
0100
0000
0010
1000
0100
0010
0001
0000
1000
0000
,
0010
0100
0001
0010
0100
0000
0010
0000
0001
0010
0001
1000
0001
0000
0100
0000
,
0010
1000
0010
0100
0010
1000
0010
1000
0001
0100
0010
0100
0001
0010
0001
0100
,
0001
0000
0000
0200
0300
0000
0000
0000
0000
0200
0300
0000
1000
0000
0000
0001
0000
0000
1000
0000
0000
0000
0000
0000
1000
0000
0000
0010
0000
0000
1000
0000
0000
0000
0000
0000
0100
0000
0000
0010
0000
0000
0100
0000
0000
2000
0000
0000
,
0000
0000
3001
0000
1000
0001
1000
0000
0001
0100
0001
0000
0100
0010
1000
0200
,
0000
0000
0310
0000
0100
1000
0100
0000
0010
0001
0010
0000
0001
1000
0100
0020
,
0000
0000
0130
0000
0010
0001
0010
0000
0100
1000
0100
0000
1000
0010
0100
0020
,
0000
0000
1030
0000
0010
0100
0001
0000
1000
0100
0010
0000
0100
1000
0001
0200
,
0000
0000
1300
0000
0100
0010
1000
0000
0001
0010
0100
0000
0010
0001
1000
0200
,
0000
0000
0301
0000
1000
0100
0010
0000
0011
0000
0000
0001
0100
0000
0010
0000
,
1010
0000
0000
1000
0100
0000
0010
0000
0011
0000
0000
1000
1001
0000
0000
0001
,
1001
1000
0100
0010
0001
1000
0001
1000
0000
0000
0000
0000
0000
0000
0000
1001
,
0000
0000
1001
0000
0000
0000
0000
0000
0000
0000
0000
0000
0000
0000
0000
1001
,
0000
1001
0000
0000
0000
0000
0000
0000
;
