#TITLE:神のシナリオ;
#SUBTITLE:;
#ARTIST:AJURIKA;
#TITLETRANSLIT:Kami no scenario;
#SUBTITLETRANSLIT:;
#ARTISTTRANSLIT:;
#GENRE:;
#CREDIT:;
#MUSIC:Kami no scenario.ogg;
#BANNER:Kami no scenario.png;
#BACKGROUND:Kami no scenario-bg.png;
#CDTITLE:;
#SAMPLESTART:76.883;
#SAMPLELENGTH:13.714;
#SELECTABLE:YES;
#OFFSET:0.260;
#BPMS:0.000=140.000
,44.000=70.000
,112.000=140.000
,208.000=70.000
;
#STOPS:;
#BGCHANGES:0.000=Kami no scenario.mp4=1.000=0=0=1,
99999.000=-nosongbg-=1.000=0=0=0=StretchNoLoop====
;
#FGCHANGES:;

//--------------- dance-single - Pandemonium X ----------------
#NOTES:
     dance-single:
     Pandemonium X:
     Beginner:
     3:
     0.117511,0.188194,0.094913,0.102822,0,104,92,12,13,0,0,0.117511,0.188194,0.094913,0.102822,0,104,92,12,13,0,0:
0000
0000
0000
0000
,
0000
0000
0000
0000
,
0000
0000
0000
0000
,
0000
0000
0000
0000
,
0000
0000
0000
0000
,
0000
0000
0000
0000
,
0001
0000
0000
0000
,
0000
0000
0100
0000
,
0010
0000
0000
0000
,
0000
0000
0000
0000
,
0000
0000
0000
1001
,
1000
0000
0100
0000
,
1000
0000
0010
0000
,
0100
0000
0001
0000
,
0010
0100
1001
0000
,
0100
0000
0000
0000
,
0001
0000
0000
0000
,
1000
0000
0000
0000
,
0100
1000
1001
0000
,
0110
0000
0000
0000
,
0002
0000
0000
0003
,
2000
0000
0000
3000
,
0020
0000
0000
0030
,
0200
0000
0000
0300
,
0001
0000
0001
0000
0001
0001
0000
0000
,
1000
0000
1000
0000
1000
1000
0000
0000
,
0010
0010
0010
0010
,
0010
0000
0100
0000
0010
0100
0000
0000
,
0001
0000
0001
0000
,
0001
0001
0000
0001
,
1000
0000
1000
0000
,
1000
1000
0000
1000
,
0100
0000
0100
0000
,
0100
0100
0000
0100
,
0010
0001
1000
0000
,
0110
0000
0000
0000
,
1001
0000
0001
0000
,
1000
0001
0000
0000
,
0100
0000
0010
0000
,
0100
0010
0000
0000
,
1000
0000
0001
0000
,
0010
0001
0000
0000
,
0010
0100
1000
0000
,
1001
0000
0000
0000
,
0110
0000
0000
0100
,
0001
0001
0000
0000
,
1001
0000
1000
0000
,
1001
0220
0330
0000
,
2000
3000
0200
0300
,
0020
0030
0002
0003
,
1000
0100
0010
0000
,
2002
0000
0000
3003
,
0020
0000
0000
0000
0000
0000
0000
0030
;

//--------------- dance-single - Pandemonium X ----------------
#NOTES:
     dance-single:
     Pandemonium X:
     Easy:
     6:
     0.220333,0.355898,0.174007,0.324285,0.098867,195,173,22,41,0,0,0.220333,0.355898,0.174007,0.324285,0.098867,195,173,22,41,0,0:
0000
0000
0000
0000
,
0000
0000
0000
0000
,
0000
0000
0000
0000
,
0000
0000
0000
0000
,
0000
0000
0000
0000
,
0000
0000
0000
0000
,
0001
0000
0000
0001
0000
0000
0002
0000
,
0000
0000
0003
0000
,
1000
0000
0000
1000
0000
0000
2000
0000
,
0000
0000
0000
0000
,
0000
0000
0000
3000
,
1001
0000
0001
0000
1000
0010
1000
0000
,
1001
0000
1000
0000
0001
0010
0001
0000
,
1001
0000
0001
0000
0100
0001
0100
0000
,
0001
0000
1000
0100
0020
0000
0000
0030
1001
0000
0000
0110
0000
0000
1001
0000
,
1000
0000
0000
0000
0001
0000
0000
0000
0000
0100
0010
0100
0001
0000
0000
0000
,
1000
0000
0000
0000
0001
0000
0000
0000
0000
1000
0100
0010
0100
0000
1001
0000
,
0001
0000
0000
0000
1000
0000
0000
0000
0000
0100
0010
0001
0100
0000
0000
0000
,
0010
0000
0100
0001
2000
0000
0000
0000
3001
0000
0000
0110
0000
0000
1010
0000
,
0001
0000
0000
0000
,
1000
0000
0000
0100
0000
0000
0020
0000
0000
0000
0000
0000
0230
0000
0320
0000
,
0031
0000
0000
1000
0000
0000
0200
0000
0000
0000
0000
0000
0320
0000
0230
0000
,
1300
0000
0000
0001
0000
0000
2000
0000
0000
0000
0000
0000
3020
0000
0230
0000
,
0301
0000
0000
0010
0000
0000
0200
0000
0000
0000
0000
0000
0000
0000
0000
0000
,
0310
0000
0000
0000
0010
0000
0000
0000
0010
0000
0010
0000
0000
0000
0100
1000
,
0001
0000
0000
0000
0001
0000
0000
0000
0001
0000
0001
0000
0000
0000
1000
0001
,
0100
0100
0100
0100
,
0100
0000
0010
0000
0110
2002
0000
3003
,
2000
3000
0002
0003
,
0010
0000
0200
0000
0000
0000
0310
0001
,
2000
3000
0002
0003
,
0100
0000
0020
0000
0000
0000
0130
0001
,
0020
0030
0200
0300
,
1000
0002
0003
1000
,
0001
0000
1000
0010
0200
0000
0000
0000
,
0310
0000
0000
0010
0000
0000
0100
0000
0000
0100
0000
0000
0010
0000
0000
0000
,
2001
3000
0002
0003
,
0100
0000
0020
0000
0030
0000
0100
0001
,
2000
3000
0200
0300
,
0010
0000
0200
0000
0300
0000
0010
0100
,
2000
3000
0200
0300
,
0010
0200
0300
0010
,
0001
0000
0100
0010
2000
0000
3000
0000
,
0001
0000
0000
0001
0000
0000
1000
0000
0000
1000
0000
0000
0001
0000
0000
0000
,
0100
0000
0000
0100
0000
0000
0100
0000
0000
0000
0000
0000
0010
0000
0000
0000
,
0100
1002
0000
0013
,
1100
1000
0100
0010
,
0011
2020
0000
3030
,
1001
0000
0101
0000
,
1010
0000
1100
0000
,
0011
0000
0010
0100
2000
0000
0000
0000
,
3001
0000
0000
0100
0000
0000
0010
0000
0000
1000
0000
0000
0001
0000
0000
0000
,
1001
0000
0000
0000
0000
0000
0000
0000
0200
0000
0000
0000
0000
0000
0000
0300
;

//--------------- dance-single - Pandemonium X ----------------
#NOTES:
     dance-single:
     Pandemonium X:
     Medium:
     10:
     0.38982,0.522761,0.529929,0.672298,0.284738,345,278,67,85,0,0,0.38982,0.522761,0.529929,0.672298,0.284738,345,278,67,85,0,0:
0000
0000
0000
0000
,
0000
0000
0000
0000
,
0000
0000
0000
0000
,
0000
0000
0000
0000
,
0000
0000
0000
0000
,
0000
0000
0000
0000
,
1001
0000
1000
0001
0000
0010
0200
0000
,
0000
0000
0000
0000
0310
0001
0100
0010
,
1001
0000
0001
1000
0000
0010
0200
0000
,
0000
0000
0000
0000
,
0000
0000
0310
1001
,
0002
0000
0000
0000
0000
0000
0000
0000
2003
0000
0000
0000
0000
0000
0000
0000
3010
0000
0000
0100
0000
0000
0001
0000
0100
0000
0010
0000
0000
0000
0000
0000
,
2001
0000
0000
0000
0000
0000
0000
0000
3002
0000
0000
0000
0000
0000
0000
0000
0013
0000
0000
0100
0000
0000
0010
0000
0001
0000
1000
0000
0010
0000
0100
0000
,
0002
0000
0000
0000
0000
0000
0000
0000
2003
0000
0000
0000
0000
0000
0000
0000
3010
0000
0000
1000
0000
0000
0001
0000
0010
0000
0001
0000
0000
0000
0000
0000
,
0010
0000
0000
0000
0001
0000
0100
0000
2000
0000
0000
0000
0000
0000
0000
0000
3100
0000
0000
0010
0000
0000
1000
0000
0000
0001
0000
0000
0010
0000
0000
0000
,
1100
0000
0000
0100
0000
0100
0000
0000
1000
0000
0000
0001
0000
0000
0100
0000
0000
0000
0010
0000
0100
0000
0100
0000
0002
0000
0000
0000
0003
0000
0000
0000
,
1000
0000
0000
0010
0000
0010
0000
0000
2000
0000
0000
3002
0000
0000
0203
0000
0300
0000
0010
0000
0100
0000
0100
0000
0002
0000
0000
0000
2003
0000
0000
0000
,
3100
0000
0000
0010
0000
0010
0000
0000
0100
0000
0000
1000
0000
0000
0100
0000
0000
0000
0100
0000
1000
0000
0010
0000
0200
0000
0000
0000
0000
0000
0000
0000
,
0310
0000
0000
0000
1000
0000
0100
0000
0002
0000
0000
0000
0000
0000
0000
0000
0103
0000
0000
1000
0000
0000
0010
0000
0000
0100
0000
0000
0001
0000
0000
0000
,
1001
0000
0000
0000
0000
0000
0000
0000
1000
0100
1000
0100
0010
0001
0010
0001
,
1001
0000
1000
0010
0000
0010
0002
0000
0000
0000
0000
0000
1003
0000
0001
0000
,
1001
0000
0001
0100
0000
0100
2000
0000
0000
0000
0000
0000
3001
0000
1000
0000
,
1001
0000
1000
0010
0000
0010
0002
0000
0000
0000
0000
0000
1003
0000
0001
0000
,
1001
0000
0001
0100
0000
0100
2000
0000
0000
0000
0000
0000
3100
0000
1001
0000
,
2020
0000
3030
0000
2020
0000
3030
0000
2200
3300
2002
0000
0000
3003
1000
0001
,
0202
0000
0303
0000
0202
0000
0303
0000
0101
0000
2002
0000
0000
3003
0001
1000
,
2010
0000
0000
3010
0200
0000
0000
0301
0020
0000
0000
0130
2000
0000
0000
3100
,
1000
0010
0100
0001
0010
0100
0010
0001
0011
0000
2002
0000
0000
0000
0000
3003
,
2001
0000
3001
1000
0020
0000
1030
0001
,
0101
0000
0021
0000
0000
0000
0130
1000
,
2001
0000
3001
0010
0200
0000
0310
0001
,
1001
0000
2010
0000
0000
0000
3010
0100
,
0002
0000
0013
0001
0210
0000
0310
1000
,
0001
0000
1020
0000
0000
0000
0130
0001
,
2001
0000
3010
1000
2002
0000
0000
3003
,
1100
0000
0000
1100
0000
0000
0011
0000
0000
0011
0000
0000
1001
0000
0000
0000
,
2010
0000
3001
0100
2000
0000
3100
0010
,
0110
0000
2002
3000
1003
0100
0010
0001
,
2001
0000
3001
0010
2000
0000
3010
0100
,
0110
0000
2002
0003
3001
0010
0100
1000
,
1020
0000
0130
0001
0021
0000
0130
0010
,
0011
0000
2200
3000
1300
0100
1000
0001
,
1002
0000
0000
0000
0103
0000
0001
0000
2000
0000
0000
0000
3002
0000
2000
0003
,
3001
0000
0000
0101
0000
0000
1001
0000
0000
1100
0000
0000
1001
0000
0000
0000
,
0001
0000
0000
0001
0000
0000
0001
0000
0000
0000
0000
0000
0010
0000
0100
0000
,
1000
0000
2200
0000
3300
0000
0100
1000
,
0020
0000
0130
1000
0100
0001
0100
0010
,
1010
0202
0000
0303
,
2002
3003
2020
3030
,
2200
3300
0022
0033
,
2001
0000
0000
0000
3001
0100
0001
0100
0020
0000
0000
0000
0030
0000
0000
0000
,
0110
0000
0000
1001
0000
0000
0110
0000
0000
1001
0000
0000
0110
0000
0000
0000
,
1001
0000
0000
0000
0002
0000
0103
1010
;

//--------------- dance-single - Pandemonium X ----------------
#NOTES:
     dance-single:
     Pandemonium X:
     Hard:
     14:
     0.531059,0.859355,0.506201,0.806758,0.70789,470,406,64,102,0,0,0.531059,0.859355,0.506201,0.806758,0.70789,470,406,64,102,0,0:
0000
0000
0000
0000
,
0000
0000
0000
0000
,
0000
0000
0000
0000
,
0000
0000
0000
0000
,
0000
0000
0000
0000
,
0000
0000
0000
0000
,
0201
0000
0310
2001
0000
3100
0021
0000
,
0000
0000
0000
0000
0000
0000
0000
0000
0130
0010
0001
0100
0010
0001
0010
1000
,
0200
0000
0310
0021
0000
0130
2100
0000
,
0000
0000
0000
0000
,
0000
0000
3010
1001
,
0201
0000
0000
0000
0000
0000
0000
0000
0320
0000
0000
0000
0000
0000
0000
0000
1030
0000
0000
1000
0000
0000
1000
0001
1000
0000
0001
0000
0000
0000
0000
0000
,
0021
0000
0000
0000
0000
0000
0000
0000
0230
0000
0300
0200
0000
0300
0200
0000
0310
0000
0000
0010
0000
0000
0010
0001
0100
0000
1000
0000
0100
0000
0001
0000
,
2001
0000
0000
0000
0000
0000
0000
0000
3020
0000
0000
0000
0000
0000
0000
0000
0130
0000
0000
0100
0000
0000
0100
0010
0100
0000
0001
0000
0000
0000
0000
0000
,
1200
0000
0000
0000
0301
0100
1000
0010
0200
0000
0000
0000
0000
0000
0000
0000
2300
0000
0000
3200
0000
0000
0302
0000
0000
0023
0000
0000
0230
0000
0000
0000
,
1300
0000
0000
0001
0000
1000
0000
0000
0010
0000
0000
0010
0000
0000
0010
0000
0000
0000
1000
0000
0100
0010
0100
0010
0002
0000
0000
0000
0003
0000
0000
0000
,
1000
0000
0000
0100
0000
0100
0000
0000
0020
0000
0030
0020
0000
0030
0020
0000
0031
0000
0010
0000
0100
0010
0100
1000
0001
0000
0000
0000
0200
0000
0320
0000
,
2030
0000
0000
0001
0000
3001
0000
0000
0100
0000
0000
0001
0000
0000
0010
0000
0000
0000
0100
0000
0010
0001
0010
0001
2000
0000
0000
0000
3100
0000
0010
0000
,
0021
0000
0000
0000
0130
0010
0001
0100
0020
0000
0000
0000
0000
0000
0000
0000
0230
0000
0000
0302
0000
0000
0023
0000
0000
0230
0000
0000
2300
0000
0000
0000
,
3001
0000
0000
0000
0000
0000
0000
0000
2000
0000
0200
3000
0002
0300
0020
0003
,
2030
0000
0000
0000
3001
0000
0012
0000
0000
0000
1003
0000
1020
0000
0000
0000
0000
0000
0000
0000
0000
0000
0000
0000
0130
0001
0100
0001
0100
0010
1000
0001
,
2000
0000
0000
0000
3001
0000
0012
0000
0000
0000
1003
0000
2001
0000
0000
0000
0000
0000
0000
0000
0000
0000
0000
0000
3010
0100
0010
0100
0001
0010
0100
1000
,
0002
0000
0000
0000
0013
0000
0021
0000
0000
0000
0130
0000
2001
0000
0000
0000
0000
0000
0000
0000
0000
0000
0000
0000
3010
1000
0010
1000
0001
0010
0001
1000
,
0200
0000
0310
1002
0000
0103
2001
0000
0000
0000
0000
0000
3100
0000
0011
0000
,
0201
0000
0000
0000
0301
0000
0100
0000
0020
0000
0000
0000
0130
0000
0001
0000
1001
0000
0000
0000
1200
0000
0000
0000
0000
0000
0000
0000
1300
0100
0010
0100
,
2000
0000
0000
0000
3010
0000
0100
0000
0002
0000
0000
0000
0013
0000
0100
0000
1100
0000
0000
0000
0021
0000
0000
0000
0000
0000
0000
0000
0031
0010
0100
0010
,
0001
0000
0100
0000
0010
0000
1000
0001
1000
0000
0100
0000
0010
0000
0001
1000
0001
0000
0100
0000
0010
0000
1000
0100
1000
0000
0100
0000
0010
0000
0001
0100
,
0001
0000
0100
0000
1000
0000
0100
0000
0001
0010
0100
0010
0001
1000
0100
0010
0001
0000
0000
0000
2100
0000
0000
0000
0000
0000
0000
0000
3000
0000
0000
0000
,
0102
0000
0000
0103
0010
0000
1000
0000
1200
0000
0000
0310
0001
0000
1000
0000
,
1100
0000
0000
0000
0012
0000
0000
0000
0000
0000
0000
0000
0013
0001
0010
0100
,
0020
0000
0000
0031
1000
0000
0010
0000
2010
0000
0000
3001
1000
0000
0100
0000
,
0110
0000
0000
0000
2100
0000
0000
0000
0000
0000
0000
0000
3100
0010
0001
1000
,
0020
0000
0000
0130
0001
0000
1000
0000
1002
0000
0000
0013
0001
0000
1000
0000
,
1100
0000
0000
0000
1020
0000
0000
0000
0000
0000
0000
0000
0130
0010
1000
0001
,
0020
0000
0000
0000
0130
0010
0001
1000
0020
0000
0000
0000
0000
0000
0030
0000
,
0102
0000
0000
0013
0000
0000
2100
0000
0000
3010
0000
0000
2002
0000
3003
0000
,
1020
0000
0000
0130
1000
0000
0100
0000
0102
0000
0000
0013
1000
0000
0010
0000
,
0011
0000
0000
0000
2100
0000
0000
0000
3001
0100
0001
0100
0010
1000
0010
1000
,
0002
0000
0000
0013
1000
0000
0010
0000
0210
0000
0000
0301
0100
0000
1000
0000
,
1010
0000
0000
0000
0201
0000
0000
0000
0310
1000
0010
1000
0001
0100
0001
1000
,
0002
0000
0000
1003
0100
0000
1000
0000
0021
0000
0000
0130
1000
0000
0001
0000
,
1001
0000
0000
0000
0021
0000
0000
0000
0130
0010
0100
0010
0001
1000
0001
1000
,
0100
0000
0000
0000
0010
0100
1000
0001
0200
0000
0000
0000
0320
0000
2000
3030
,
0012
0000
0000
0103
0000
0000
2010
0000
0000
3100
0000
0000
1000
0001
1000
0000
,
0110
0000
0000
0110
0000
0000
0220
0000
0000
0000
0330
0000
0001
0100
0010
1000
,
0100
0000
0000
0000
0022
0000
0000
0000
0000
0000
0033
0000
0010
0100
1000
0001
,
1000
0000
0000
0000
0001
0100
0001
0100
0010
1000
0010
1000
0001
1000
0001
1000
,
0100
0000
1020
0000
0230
0302
0023
0230
,
2300
0000
0000
0000
3100
0010
0100
0010
0002
0000
0000
0000
0103
0010
0100
0010
,
2000
0000
0000
0000
3100
0010
0100
0010
0002
0000
0000
0000
0103
1000
0100
0001
,
2000
0000
0000
0000
3200
0320
0032
2003
3020
0000
0000
0000
0030
0000
0000
0000
,
0110
0000
0000
0101
0000
0000
0011
0000
0000
0110
0000
0000
1100
0000
0000
0000
,
1001
0000
0000
0000
0000
0000
0000
0000
0001
0100
0010
1000
1200
0000
0001
0000
,
0300
0000
0000
0000
;

//--------------- dance-single - Pandemonium X ----------------
#NOTES:
     dance-single:
     Pandemonium X:
     Challenge:
     16:
     0,0,0,0,0:
0000
0000
0000
0000
,
0000
0000
0000
0000
,
0000
0000
0000
0000
,
0000
0000
0000
0000
,
0000
0000
0000
0000
,
0000
0000
0000
0000
,
2100
0000
0000
0000
0000
0000
0000
0000
0000
0000
0000
0000
0000
0000
0000
0000
0000
0000
0000
0000
0000
0000
0000
0000
0010
0000
0000
0000
0000
0000
0000
0000
0000
0000
0000
3000
2010
0000
0000
0000
0000
0000
0000
0000
0000
0000
0000
0000
0000
0000
0000
0000
0000
0000
0000
0000
0000
0000
0000
0000
0001
0000
0000
0000
0000
0000
0000
0000
0000
0000
0000
3000
2002
0000
0000
0000
0000
0000
0000
0000
0000
0000
0000
0000
0000
0000
0000
0000
0000
0000
0000
0000
0000
0000
0000
0000
,
0000
0000
0000
0000
0000
0000
0000
0000
0000
0000
0000
0000
0000
0000
0000
0000
0000
0000
0000
0000
0000
0000
0000
0000
0000
0000
0000
0000
0000
0000
0000
0000
0000
0000
0000
0000
0000
0000
0000
0000
0000
0000
0000
0003
0000
0000
0000
0000
3001
0000
0000
0000
0000
0000
0100
0000
0000
0000
0000
0000
0010
0000
0000
0000
0000
0000
0100
0000
0000
0000
0000
0000
0001
0000
0000
0000
1000
0000
0000
0000
0100
0000
0000
0000
1000
0000
0000
0000
0100
0000
0000
0000
0010
0000
0000
0000
,
0002
0000
0000
0000
0000
0000
0000
0000
0000
0000
0000
0000
0000
0000
0000
0000
0000
0000
0000
0000
0000
0000
0000
0000
0100
0000
0000
0000
0000
0000
0000
0000
0000
0000
0000
0003
0102
0000
0000
0000
0000
0000
0000
0000
0000
0000
0000
0000
0000
0000
0000
0000
0000
0000
0000
0000
0000
0000
0000
0000
1000
0000
0000
0000
0000
0000
0000
0000
0000
0000
0000
0003
2002
0000
0000
0000
0000
0000
0000
0000
0000
0000
0000
0000
0000
0000
0000
0000
0000
0000
0000
0000
0000
0000
0000
0000
,
0000
0000
0000
0000
,
0000
0000
3000
0003
,
0201
0000
0000
0000
0000
0000
0000
0000
0310
1000
0010
0100
0010
1000
0010
1000
0100
0000
0000
0100
0000
0000
0100
0010
0001
0000
1000
0000
0000
0000
0000
0000
,
0012
0000
0000
0000
0000
0000
0000
0000
0000
0000
0000
0000
0000
0000
0000
0000
0000
0000
0000
0000
0000
0000
0000
0000
1003
0000
0010
0000
0100
0000
0010
0000
1000
0000
0010
0000
0100
0000
0010
0000
1000
0000
0010
0000
0100
0000
0010
0000
1000
0000
0000
0000
0000
0000
0000
0000
0000
1000
0000
0000
0000
0000
0000
0000
0000
0000
1000
0000
0000
0100
0000
0000
0010
0000
0000
0000
0000
0000
0100
0000
0000
0000
0000
0000
4000
0000
0000
0000
0000
0000
3004
0000
0000
0000
0000
0000
,
0023
0000
0000
0000
0000
0000
0000
0000
0130
0010
0100
0010
0001
1000
0100
0010
0001
0000
0000
0001
0000
0000
0001
0010
0100
0000
0010
0000
0000
0000
0000
0000
,
1002
0000
0000
0000
0000
0000
0000
0000
0000
0000
0000
0000
0000
0000
0000
0000
0000
0000
0000
0000
0000
0000
0000
0000
2003
0000
0000
0000
0000
0000
3200
0000
0000
0000
0000
0000
0320
0000
0000
0000
0000
0000
0032
0000
0000
0000
0000
0000
0023
0000
0000
0000
0000
0000
0000
0000
0000
0000
0000
0000
0000
0000
0000
0000
0000
0000
0000
0000
0000
0000
0000
0000
0000
0000
0000
0000
0000
0000
0000
0000
0000
0000
0000
0000
0000
0000
0000
0000
0000
0000
0030
0000
0000
0000
0000
0000
0012
0000
0000
0000
0000
0000
0000
0000
0000
0000
0000
0000
0000
0000
0000
0000
0000
0003
0102
0000
0000
0000
0000
0000
0000
0000
0000
0000
0000
0000
0000
0000
0000
0000
0000
0003
0012
0000
0000
0000
0000
0000
0000
0000
0000
0000
0000
0000
0000
0000
0000
0000
0000
0003
1002
0000
0000
0000
0000
0000
0000
0000
0000
0000
0000
0000
0000
0000
0000
0000
0000
0003
0102
0000
0000
0000
0000
0000
0000
0000
0000
0000
0000
0000
0000
0000
0000
0000
0000
0000
0000
0000
0000
0000
0000
0000
,
0013
0000
0000
0100
0000
1000
0000
0000
0101
0000
0000
1010
0000
0000
1001
0000
0000
0000
0102
0000
0013
0100
0010
0100
0040
0000
0000
0000
0031
0000
0000
0000
,
1001
0000
0000
0000
0000
0000
0000
0000
0000
0001
0000
0000
0000
0000
0000
1000
0000
0000
0000
0000
0000
0000
0000
0000
0001
0000
0100
0000
0010
0000
0100
0000
0001
0000
0100
0000
0010
0000
0100
0000
0001
0000
0100
0000
0010
0000
0100
0000
0001
0000
0000
0000
0000
0000
1000
0000
0000
0000
0000
0000
0010
0000
0000
0100
0000
0000
0010
0000
0000
0100
0000
0000
0020
0000
0000
0000
0000
0000
0000
0000
0000
0000
0000
0000
4030
0000
0000
0000
0000
0000
3400
0000
0000
0000
0000
0000
,
0310
0000
0000
0100
0000
1000
0000
0000
1001
0000
0000
1100
0000
0000
1001
0000
0000
0000
0021
0000
0130
1000
0100
1000
0002
0000
0000
0000
0100
0000
0000
0000
,
2003
0000
0000
0000
0000
0000
0000
0000
0000
0000
0000
0000
0000
0000
0000
0000
0000
0000
0000
0000
0000
0000
0000
0000
3002
0000
0000
0000
0000
0000
0023
0000
0000
0000
0000
0000
0230
0000
0000
0000
0000
0000
2300
0000
0000
0000
0000
0000
3002
0000
0000
0000
0000
0000
0000
0000
0000
0000
0000
0000
0000
0000
0000
0000
0000
0000
0000
0000
0000
0000
0000
0000
0000
0000
0000
0000
0000
0000
0000
0000
0000
0000
0000
0000
0000
0000
0000
0000
0000
0000
0003
0000
0000
0000
0000
0000
2010
0000
0000
0000
0000
0000
0000
0000
0000
0000
0000
0000
0000
0000
0000
0000
0000
3000
2100
0000
0000
0000
0000
0000
0000
0000
0000
0000
0000
0000
0000
0000
0000
0000
0000
3000
2001
0000
0000
0000
0000
0000
0000
0000
0000
0000
0000
0000
0000
0000
0000
0000
0000
3000
2010
0000
0000
0000
0000
0000
0000
0000
0000
0000
0000
0000
0000
0000
0000
0000
0000
3000
2100
0000
0000
0000
0000
0000
0000
0000
0000
0000
0000
0000
0000
0000
0000
0000
0000
0000
0000
0000
0000
0000
0000
0000
,
3001
0000
0000
0000
0000
0000
0000
0000
0000
0000
0000
0000
0000
0000
0000
0000
1000
0010
0100
0001
0010
0100
0010
0001
1000
0100
0010
0001
0010
0100
1000
0001
,
0012
0000
0000
0000
0000
0000
0000
0000
0000
0000
0000
0000
0000
0000
0000
0000
0000
0000
0000
0000
0000
0000
0000
0000
0100
0000
0000
0000
0000
0000
0000
0000
0000
0000
0000
0003
0102
0000
0000
0000
0000
0000
0000
0000
0000
0000
0000
0000
0000
0000
0000
0000
0000
0000
0000
0000
0000
0000
0000
0000
1000
0000
0000
0000
0000
0000
0000
0000
0000
0000
0000
0003
2002
0000
0000
0000
0000
0000
0000
0000
0000
0000
0000
0000
0000
0000
0000
0000
0000
0000
0000
0000
0000
0000
0000
0000
0000
0000
0000
0000
0000
0000
0000
0000
0000
0000
0000
0000
0000
0000
0000
0000
0000
0000
0000
0000
0000
0000
0000
0000
0000
0000
0000
0000
0000
0000
0000
0000
0000
0000
0000
0000
0000
0000
0000
0000
0000
0000
0000
0000
3000
0000
0000
0000
0103
0000
0000
0000
0000
0000
0010
0000
0000
0000
0000
0000
1000
0000
0000
0000
0000
0000
0010
0000
0000
0000
0000
0000
0100
0000
0000
0000
0001
0000
0000
0000
0010
0000
0000
0000
0100
0000
0000
0000
1000
0000
0000
0000
0001
0000
0000
0000
,
2000
0000
0000
0000
0000
0000
0000
0000
0000
0000
0000
0000
0000
0000
0000
0000
0000
0000
0000
0000
0000
0000
0000
0000
0100
0000
0000
0000
0000
0000
0000
0000
0000
0000
0000
3000
2100
0000
0000
0000
0000
0000
0000
0000
0000
0000
0000
0000
0000
0000
0000
0000
0000
0000
0000
0000
0000
0000
0000
0000
0010
0000
0000
0000
0000
0000
0000
0000
0000
0000
0000
3000
2020
0000
0000
0000
0000
0000
0000
0000
0000
0000
0000
0000
0000
0000
0000
0000
0000
0000
0000
0000
0000
0000
0000
0000
0000
0000
0000
0000
0000
0000
0000
0000
0000
0000
0000
0000
0000
0000
0000
0000
0000
0000
0000
0000
0000
0000
0000
0000
0000
0000
0000
0000
0000
0000
0000
0000
0000
0000
0030
0000
0000
0000
0000
0000
0000
0000
0000
0000
0000
0000
0000
0000
3001
0000
0000
0000
0000
0000
0010
0000
0000
0000
0000
0000
0001
0000
0000
0000
0000
0000
0100
0000
0000
0000
0000
0000
0010
0000
0000
0000
1000
0000
0000
0000
0010
0000
0000
0000
0100
0000
0000
0000
0010
0000
0000
0000
1000
0000
0000
0000
,
0020
0000
0000
0000
0000
0000
0000
0000
0000
0000
0000
0000
0000
0000
0000
0000
0000
0000
0000
0000
0000
0000
0000
0000
1000
0000
0000
0000
0000
0000
0000
0000
0000
0000
0000
0030
0120
0000
0000
0000
0000
0000
0000
0000
0000
0000
0000
0000
0000
0000
0000
0000
0000
0000
0000
0000
0000
0000
0000
0000
0100
0000
0000
0000
0000
0000
0000
0000
0000
0000
0000
0030
1020
0000
0000
0000
0000
0000
0000
0000
0000
0000
0000
0000
0000
0000
0000
0000
0000
0000
0000
0000
0000
0000
0000
0000
0000
0000
0000
0000
0000
0000
0000
0000
0000
0000
0000
0000
0000
0000
0000
0000
0000
0000
0000
0000
0000
0000
0000
0000
0000
0000
0000
0000
0000
0000
0000
0000
0000
0000
0000
0000
0000
0000
0000
0000
0000
0000
0000
0000
0000
0000
0000
0000
0130
0000
0000
0000
0000
0000
0010
0000
0000
0000
0000
0000
1000
0000
0000
0000
0000
0000
0001
0000
0000
0000
0000
0000
1000
0000
0000
0000
0001
0000
0000
0000
0010
0000
0000
0000
0100
0000
0000
0000
1000
0000
0000
0000
0001
0000
0000
0000
,
0200
0000
0000
0000
0000
0000
0000
0000
0000
0000
0000
0000
0000
0000
0000
0000
0000
0000
0000
0000
0000
0000
0000
0000
0001
0000
0000
0000
0000
0000
0000
0000
0000
0000
0000
0300
0201
0000
0000
0000
0000
0000
0000
0000
0000
0000
0000
0000
0000
0000
0000
0000
0000
0000
0000
0000
0000
0000
0000
0000
0010
0000
0000
0000
0000
0000
0000
0000
0000
0000
0000
0300
0220
0000
0000
0000
0000
0000
0000
0000
0000
0000
0000
0000
0000
0000
0000
0000
0000
0000
0000
0000
0000
0000
0000
0000
0000
0000
0000
0000
0000
0000
0000
0000
0000
0000
0000
0000
0000
0000
0000
0000
0000
0000
0000
0000
0000
0000
0000
0000
0000
0000
0000
0000
0000
0000
0000
0000
0000
0000
0000
0000
0000
0000
0000
0000
0000
0000
0000
0000
0000
0000
0000
0000
0300
0000
0000
0000
0000
0000
0000
0000
0000
0000
0000
0000
0000
0000
0000
0000
0000
0000
0000
0000
0000
0000
0000
0000
0030
0000
0000
0000
0000
0000
0000
0000
0000
0000
0000
0000
0000
0000
0000
0000
0000
0000
0000
0000
0000
0000
0000
0000
,
1002
0000
0000
0000
1003
0100
1000
0100
0020
0000
0000
0000
0031
0010
0001
0010
0200
0000
0000
0000
2000
0000
0000
0000
0300
0000
0000
0000
3100
1000
0010
0100
,
0002
0000
0000
0000
0103
0010
0100
0010
2000
0000
0000
0000
3010
0100
0010
0100
0002
0000
0000
0000
2000
0000
0000
0000
0003
0000
0000
0000
3001
0010
0100
1000
,
0001
0000
0100
0000
0010
0000
1000
0001
0010
0000
0100
0000
1000
0000
0001
1000
0100
0000
1000
0000
0010
0000
0100
0010
1000
0000
0001
0000
0010
0000
0100
0010
,
0001
0100
0010
1000
0001
0010
0001
1000
0010
1000
0010
0100
0001
0010
0100
1000
0001
0000
0000
0000
0220
0000
0000
0000
0000
0000
0000
0000
0330
0000
0000
0000
,
1002
0000
0000
0000
1003
0001
0010
0001
0200
0000
0000
0000
0310
1000
0001
0010
,
0200
0000
0000
0000
0000
0000
0000
0000
0000
0000
0000
0000
0000
0000
0000
0000
0000
0000
0000
0000
0000
0000
0000
0000
0000
0000
0000
0000
0000
0000
0000
0000
0000
0000
0000
0000
0000
0000
0000
0000
0000
0000
0000
0000
0000
0000
0000
0300
2200
0000
0000
0000
0000
0000
0000
0000
0000
0000
0000
0000
0000
0000
0000
0000
0000
0000
0000
0000
0000
0000
0000
0000
0000
0000
0000
0000
0000
0000
0000
0000
0000
0000
0000
0000
0000
0000
0000
0000
0000
0000
0000
0000
0000
0000
0000
0000
0000
0000
0000
0000
0000
0000
0000
0000
0000
0000
0000
0000
0000
0000
0000
0000
0000
0000
0000
0000
0000
0000
0000
0000
0000
0000
0000
0000
0000
0000
0000
0000
0000
0000
0000
0000
3000
0000
0000
0000
0000
0000
0000
0000
0000
0000
0000
0000
1300
0000
0000
0000
0000
0000
0000
0000
0000
0000
0000
0000
0100
0000
0000
0000
0000
0000
0000
0000
0000
0000
0000
0000
0010
0000
0000
0000
0000
0000
0000
0000
0000
0000
0000
0000
0100
0000
0000
0000
0000
0000
0000
0000
0000
0000
0000
0000
,
2000
0000
0000
0000
3010
0100
0001
0010
0200
0000
0000
0000
0310
0001
0100
0001
,
0020
0000
0000
0000
0000
0000
0000
0000
0000
0000
0000
0000
0000
0000
0000
0000
0000
0000
0000
0000
0000
0000
0000
0000
0000
0000
0000
0000
0000
0000
0000
0000
0000
0000
0000
0000
0000
0000
0000
0000
0000
0000
0000
0000
0000
0000
0000
0030
0022
0000
0000
0000
0000
0000
0000
0000
0000
0000
0000
0000
0000
0000
0000
0000
0000
0000
0000
0000
0000
0000
0000
0000
0000
0000
0000
0000
0000
0000
0000
0000
0000
0000
0000
0000
0000
0000
0000
0000
0000
0000
0000
0000
0000
0000
0000
0000
0000
0000
0000
0000
0000
0000
0000
0000
0000
0000
0000
0000
0000
0000
0000
0000
0000
0000
0000
0000
0000
0000
0000
0000
0000
0000
0000
0000
0000
0000
0000
0000
0000
0000
0000
0000
0003
0000
0000
0000
0000
0000
0000
0000
0000
0000
0000
0000
0031
0000
0000
0000
0000
0000
0000
0000
0000
0000
0000
0000
0010
0000
0000
0000
0000
0000
0000
0000
0000
0000
0000
0000
0100
0000
0000
0000
0000
0000
0000
0000
0000
0000
0000
0000
0010
0000
0000
0000
0000
0000
0000
0000
0000
0000
0000
0000
,
0002
0000
0000
0000
1003
0001
0010
0001
0200
0000
0000
0000
0310
1000
0001
0010
,
0200
0000
0000
0000
0000
0000
0000
0000
0000
0000
0000
0000
0000
0000
0000
0000
0000
0000
0000
0000
0000
0000
0000
0000
0000
0000
0000
0000
0000
0000
0000
0000
0000
0000
0000
0000
0000
0000
0000
0000
0000
0000
0000
0000
0000
0000
0000
0300
0220
0000
0000
0000
0000
0000
0000
0000
0000
0000
0000
0000
0000
0000
0000
0000
0000
0000
0000
0000
0000
0000
0000
0000
0000
0000
0000
0000
0000
0000
0000
0000
0000
0000
0000
0000
0000
0000
0000
0000
0000
0000
0000
0000
0000
0000
0000
0000
0000
0000
0000
0000
0000
0000
0000
0000
0000
0000
0000
0000
0000
0000
0000
0000
0000
0000
0000
0000
0000
0000
0000
0000
0000
0000
0000
0000
0000
0000
0000
0000
0000
0000
0000
0000
0000
0000
0300
0000
0000
0000
0000
0000
0000
0000
0000
0000
0130
0000
0000
0000
0000
0000
0000
0000
0000
0000
0000
0000
0010
0000
0000
0000
0000
0000
0000
0000
0000
0000
0000
0000
0001
0000
0000
0000
0000
0000
0000
0000
0000
0000
0000
0000
2000
0000
0000
0000
0000
0000
0000
0000
0000
0000
0000
0000
,
0002
0000
3003
0000
2000
3200
0320
0032
2000
0000
0000
0000
0000
0000
3003
0000
,
0202
0000
0000
0000
0000
0000
0000
0000
0000
0000
0000
0000
0000
0000
0000
0000
0000
0000
0000
0000
0000
0000
0000
0000
0000
0000
0000
0000
0000
0000
0000
0000
0000
0000
0000
0303
2002
0000
0000
0000
0000
0000
0000
0000
0000
0000
0000
0000
0000
0000
0000
0000
0000
0000
0000
0000
0000
0000
0000
0000
0000
0000
0000
0000
0000
0000
0000
0000
0000
0000
0000
3003
0022
0000
0000
0000
0000
0000
0000
0000
0000
0000
0000
0000
0000
0000
0000
0000
0000
0000
0000
0000
0000
0000
0000
0000
0000
0000
0000
0000
0000
0000
0000
0000
0000
0000
0000
0033
0202
0000
0000
0000
0000
0000
0000
0000
0000
0000
0000
0000
0000
0000
0000
0000
0000
0000
0000
0000
0000
0000
0000
0000
0000
0000
0000
0000
0000
0000
0000
0000
0000
0000
0000
0303
2002
0000
0000
0000
0000
0000
0000
0000
0000
0000
0000
0000
0000
0000
0000
0000
0000
0000
0000
0000
0000
0000
0000
0000
0000
0000
0000
0000
0000
0000
0000
0000
0000
0000
0000
0000
0000
0000
0000
0000
0000
0000
0000
0000
0000
0000
0000
3003
,
2100
0000
0000
0000
3100
1000
0010
0100
0002
0000
0000
0000
0013
0001
1000
0010
,
0200
0000
0000
0000
0000
0000
0000
0000
0000
0000
0000
0000
0000
0000
0000
0000
0000
0000
0000
0000
0000
0000
0000
0000
0000
0000
0000
0000
0000
0000
0000
0000
0000
0000
0000
0000
0000
0000
0000
0000
0000
0000
0000
0000
0000
0000
0000
0300
0202
0000
0000
0000
0000
0000
0000
0000
0000
0000
0000
0000
0000
0000
0000
0000
0000
0000
0000
0000
0000
0000
0000
0000
0000
0000
0000
0000
0000
0000
0000
0000
0000
0000
0000
0000
0300
0000
0000
0000
0000
0000
0000
0000
0000
0000
0000
0000
0103
0000
0000
0000
0000
0000
0000
0000
0000
0000
0000
0000
0010
0000
0000
0000
0000
0000
0000
0000
0000
0000
0000
0000
1000
0000
0000
0000
0000
0000
0000
0000
0000
0000
0000
0000
0001
0000
0000
0000
0000
0000
0000
0000
0000
0000
0000
0000
0100
0000
0000
0000
0000
0000
0000
0000
0000
0000
0000
0000
0001
0000
0000
0000
0000
0000
0000
0000
0000
0000
0000
0000
1000
0000
0000
0000
0000
0000
0000
0000
0000
0000
0000
0000
0001
0000
0000
0000
0000
0000
0000
0000
0000
0000
0000
0000
,
0020
0000
0000
0000
0130
0010
0001
1000
0200
0000
0000
0000
1300
0010
0100
0001
,
2000
0000
0000
0000
0000
0000
0000
0000
0000
0000
0000
0000
0000
0000
0000
0000
0000
0000
0000
0000
0000
0000
0000
0000
0000
0000
0000
0000
0000
0000
0000
0000
0000
0000
0000
0000
0000
0000
0000
0000
0000
0000
0000
0000
0000
0000
0000
3000
2002
0000
0000
0000
0000
0000
0000
0000
0000
0000
0000
0000
0000
0000
0000
0000
0000
0000
0000
0000
0000
0000
0000
0000
0000
0000
0000
0000
0000
0000
0000
0000
0000
0000
0000
0000
0003
0000
0000
0000
0000
0000
0000
0000
0000
0000
0000
0000
3001
0000
0000
0000
0000
0000
0000
0000
0000
0000
0000
0000
0010
0000
0000
0000
0000
0000
0000
0000
0000
0000
0000
0000
0001
0000
0000
0000
0000
0000
0000
0000
0000
0000
0000
0000
1000
0000
0000
0000
0000
0000
0000
0000
0000
0000
0000
0000
0100
0000
0000
0000
0000
0000
0000
0000
0000
0000
0000
0000
1000
0000
0000
0000
0000
0000
0000
0000
0000
0000
0000
0000
0010
0000
0000
0000
0000
0000
0000
0000
0000
0000
0000
0000
0100
0000
0000
0000
0000
0000
0000
0000
0000
0000
0000
0000
,
0002
0000
0000
0000
0103
1000
0100
0001
2000
0000
0000
0000
3001
0010
1000
0010
,
0002
0000
0000
0000
0000
0000
0000
0000
0000
0000
0000
0000
0000
0000
0000
0000
0000
0000
0000
0000
0000
0000
0000
0000
0000
0000
0000
0000
0000
0000
0000
0000
0000
0000
0000
0000
0000
0000
0000
0000
0000
0000
0000
0000
0000
0000
0000
0003
0022
0000
0000
0000
0000
0000
0000
0000
0000
0000
0000
0000
0000
0000
0000
0000
0000
0000
0000
0000
0000
0000
0000
0000
0000
0000
0000
0000
0000
0000
0000
0000
0000
0000
0000
0000
0030
0000
0000
0000
0000
0000
0000
0000
0000
0000
0000
0000
0013
0000
0000
0000
0000
0000
0000
0000
0000
0000
0000
0000
0100
0000
0000
0000
0000
0000
0000
0000
0000
0000
0000
0000
1000
0000
0000
0000
0000
0000
0000
0000
0000
0000
0000
0000
0001
0000
0000
0000
0000
0000
0000
0000
0000
0000
0000
0000
0010
0000
0000
0000
0000
0000
0000
0000
0000
0000
0000
0000
0100
0000
0000
0000
0000
0000
0000
0000
0000
0000
0000
0000
1000
0000
0000
0000
0000
0000
0000
0000
0000
0000
0000
0000
0001
0000
0000
0000
0000
0000
0000
0000
0000
0000
0000
0000
,
0200
0000
0000
0000
0302
0023
0230
2300
3020
0000
0000
0000
0430
0000
0304
0003
,
2002
0000
0000
0000
0000
0000
0000
0000
0000
0000
0000
0000
0000
0000
0000
0000
0000
0000
0000
0000
0000
0000
0000
0000
0000
0000
0000
0000
0000
0000
0000
0000
0000
0000
0000
3003
2020
0000
0000
0000
0000
0000
0000
0000
0000
0000
0000
0000
0000
0000
0000
0000
0000
0000
0000
0000
0000
0000
0000
0000
0000
0000
0000
0000
0000
0000
0000
0000
0000
0000
0000
3030
2002
0000
0000
0000
0000
0000
0000
0000
0000
0000
0000
0000
0000
0000
0000
0000
0000
0000
0000
0000
0000
0000
0000
0000
0000
0000
0000
0000
0000
0000
0000
0000
0000
0000
0000
3003
2200
0000
0000
0000
0000
0000
0000
0000
0000
0000
0000
0000
0000
0000
0000
0000
0000
0000
0000
0000
0000
0000
0000
0000
0000
0000
0000
0000
0000
0000
0000
0000
0000
0000
0000
3300
2000
0000
0000
0000
0000
0000
0000
0000
0000
0000
0000
0000
3200
0000
0000
0000
0000
0000
0000
0000
0000
0000
0000
0000
0020
0000
0000
0000
0000
0000
0000
0000
0000
0000
0000
0000
0330
0000
0000
0000
0000
0000
0000
0000
0000
0000
0000
0000
,
0220
0000
0000
0000
0000
0000
0000
0000
0000
0000
0000
0000
0000
0000
0000
0000
0000
0000
0000
0000
0000
0000
0000
0000
0000
0000
0000
0000
0000
0000
0000
0000
0000
0000
0000
0330
0220
0000
0000
0000
0000
0000
0000
0000
0000
0000
0000
0000
0000
0000
0000
0000
0000
0000
0000
0000
0000
0000
0000
0000
0000
0000
0000
0000
0000
0000
0000
0000
0000
0000
0000
0330
0220
0000
0000
0000
0000
0000
0000
0000
0000
0000
0000
0000
0000
0000
0000
0000
0000
0000
0000
0000
0000
0000
0000
0000
0000
0000
0000
0000
0000
0000
0000
0000
0000
0000
0000
0000
0000
0000
0000
0000
0000
0000
0000
0000
0000
0000
0000
0000
0000
0000
0000
0000
0000
0000
0000
0000
0000
0000
0000
0000
0300
0000
0000
0000
0000
0000
0000
0000
0000
0000
0000
0000
0130
0000
0000
0000
0000
0000
0000
0000
0000
0000
0000
0000
0010
0000
0000
0000
0000
0000
0000
0000
0000
0000
0000
0000
0001
0000
0000
0000
0000
0000
0000
0000
0000
0000
0000
0000
1000
0000
0000
0000
0000
0000
0000
0000
0000
0000
0000
0000
,
0001
0000
0000
0000
2200
0000
0000
0000
0000
0000
0000
0300
3100
1000
0100
0010
,
0002
0000
0000
0000
0013
0100
1000
0100
0010
0100
1000
0100
0010
0001
1000
0010
,
0200
0000
0000
0000
0000
0000
0000
0000
0000
0000
0000
0000
0000
0000
0000
0000
0000
0000
0000
0000
0000
0000
0000
0000
0000
0000
0000
0000
0000
0000
0000
0000
0000
0000
0000
0000
0000
0000
0000
0000
0000
0000
0000
0000
0000
0000
0000
0300
2002
0000
0000
0000
0000
0000
0000
0000
0000
0000
0000
0000
0000
0000
0000
0000
0000
0000
0000
0000
0000
0000
0000
0000
0000
0000
0000
0000
0000
0000
0000
0000
0000
0000
0000
0000
0000
0000
0000
0000
0000
0000
0000
0000
0000
0000
0000
0000
0000
0000
0000
0000
0000
0000
0000
0000
0000
0000
0000
0000
0000
0000
0000
0000
0000
0000
0000
0000
0000
0000
0000
0000
0000
0000
0000
0000
0000
0000
0000
0000
0000
0000
0000
0000
0000
0000
0000
0000
0000
0000
0000
0000
0000
0000
3000
0000
4000
0000
0000
0000
0000
0000
0000
0000
0000
0000
0000
0003
0000
0000
0000
0000
0000
0000
0000
0000
0000
0000
0000
0000
3040
0000
0000
0000
0000
0000
0000
0000
0000
0000
0000
0000
0030
0000
0000
0000
0000
0000
0000
0000
0000
0000
0000
0000
,
0220
0000
0000
0330
0100
0010
1000
0002
0020
0000
0000
0033
0010
0100
1000
0002
,
0200
0000
0000
0000
0000
0000
0000
0000
0000
0303
0000
0000
0001
0000
0000
0100
0000
0000
0010
0000
0000
2000
0000
0000
0200
0000
0000
0000
0000
0000
0000
0000
0000
3300
0000
0000
1000
0000
0100
0000
1000
0000
0100
0000
0010
0000
0001
0000
,
2000
0000
0000
0000
3002
0023
2030
3020
0032
0000
0000
0000
2000
0000
0000
3003
,
2002
0000
0000
0000
0000
0000
0000
0000
0000
0000
0000
0000
0000
0000
0000
0000
0000
0000
0000
0000
0000
0000
0000
0000
0000
0000
0000
0000
0000
0000
0000
0000
0000
0000
0000
3003
0202
0000
0000
0000
0000
0000
0000
0000
0000
0000
0000
0000
0000
0000
0000
0000
0000
0000
0000
0000
0000
0000
0000
0000
0000
0000
0000
0000
0000
0000
0000
0000
0000
0000
0000
0303
0220
0000
0000
0000
0000
0000
0000
0000
0000
0000
0000
0000
0000
0000
0000
0000
0000
0000
0000
0000
0000
0000
0000
0000
0000
0000
0000
0000
0000
0000
0000
0000
0000
0000
0000
0330
2020
0000
0000
0000
0000
0000
0000
0000
0000
0000
0000
0000
0000
0000
0000
0000
0000
0000
0000
0000
0000
0000
0000
0000
0000
0000
0000
0000
0000
0000
0000
0000
0000
0000
0000
3030
2002
0000
0000
0000
0000
0000
0000
0000
0000
0000
0000
0000
0000
0000
0000
0000
0000
0000
0000
0000
0000
0000
0000
0000
0000
0000
0000
0000
0000
0000
0000
0000
0000
0000
0000
0000
0000
0000
0000
0000
0000
0000
0000
0000
0000
0000
0000
0000
,
3003
0000
0000
0000
0000
0000
0000
0000
0000
0000
0000
0000
0000
0000
0000
0000
0001
0100
0001
1000
0100
1000
0001
0010
0100
1000
0100
0010
0100
1000
0001
1000
;
