#TITLE:華蝶風雪;
#SUBTITLE:;
#ARTIST:白虎;
#TITLETRANSLIT:Kachoufusetsu;
#SUBTITLETRANSLIT:;
#ARTISTTRANSLIT:;
#GENRE:;
#CREDIT:;
#MUSIC:Kachoufusetsu.ogg;
#BANNER:Kachoufusetsu-bn.png;
#BACKGROUND:Kachoufusetsu-bg.png;
#CDTITLE:;
#SAMPLESTART:74.045;
#SAMPLELENGTH:19.322;
#SELECTABLE:YES;
#OFFSET:1.938;
#BPMS:0.000=99.500
,19.750=199.000
,212.000=99.500
,220.000=199.000
,332.000=99.500
;
#STOPS:19.750=1.278
,332.000=1.206
;
#BGCHANGES:;
#FGCHANGES:;

//--------------- dance-single - Pandemonium X ----------------
#NOTES:
     dance-single:
     Pandemonium X:
     Beginner:
     6:
     0,0,0,0,0:
0000
0000
0000
0000
,
0000
0000
0000
0000
,
0000
0000
0000
0000
,
0000
0000
0000
0000
,
0000
0000
0000
0000
,
0001
0000
0000
1000
,
0000
0000
0001
1000
,
0010
0000
0000
1000
,
0000
0000
0100
1000
,
0001
0000
0000
0100
,
0000
0000
0010
1000
,
0100
0000
0000
0000
,
0000
0010
0100
1000
,
0001
0000
0000
1000
0000
0000
0010
0000
,
0000
1000
0000
0000
0001
0000
0000
0000
,
1000
0000
0000
0100
0000
0000
1000
0000
,
0000
0010
0000
0000
1000
0000
0000
0000
,
0001
0000
0000
0010
0000
0000
0001
0000
,
0000
0100
0000
0000
0001
0000
0000
0000
,
1000
0000
0001
0000
,
0100
0000
0110
0110
,
0001
0000
0000
0000
,
1000
0000
0100
0000
,
0010
0000
0000
0000
,
0100
0000
1000
0000
,
0001
0000
0000
0000
,
0100
0000
0001
0000
,
0010
0000
0000
0000
,
0100
0100
0100
0000
,
1001
0000
0000
0000
,
0010
0010
0010
0000
,
1001
0000
0000
0000
,
1000
0000
0000
0000
,
0001
0100
0001
1000
,
0000
0000
0000
0000
,
1000
0100
1000
0001
,
0000
0000
0000
0000
,
1000
0010
1000
0001
,
0000
0000
0000
0000
,
0001
0010
0001
1000
,
0001
0000
1000
0000
,
0010
0000
0100
0000
,
1001
1001
1001
0000
,
0001
0000
1000
0000
,
0100
0100
0100
0000
,
1000
0000
0001
0000
,
0010
0010
0010
0000
,
0001
0000
1000
0000
,
0010
0010
0010
0000
,
1000
0000
0100
0000
,
0010
0000
0001
0000
,
0100
0100
0100
0100
,
0100
0100
0100
0100
,
0000
0000
0000
0000
,
0000
0000
0000
0000
,
0001
0000
1000
0000
,
0100
0000
1000
0000
,
0010
0000
1000
0000
,
0001
0000
0010
0000
,
0100
0010
0100
0000
,
1000
0000
0000
0000
,
0010
0000
0100
0000
,
0001
0000
1000
0000
,
0020
0000
0000
0030
,
0200
0000
0000
0300
,
0001
0000
1000
0000
,
0100
0000
0010
0000
,
0002
0000
0000
0003
,
2000
0000
0000
3000
,
0020
0000
0000
0030
,
0100
0000
0010
0000
,
1000
0000
1000
0000
,
0001
0000
0001
0000
,
0100
0000
0100
0000
,
0010
0000
0010
0000
,
1000
0000
1000
0000
,
0001
0000
0020
0000
,
0130
0000
0000
0000
,
1100
0000
0000
0000
,
0011
0000
0000
0000
,
0101
0000
0000
0000
,
0001
0000
0000
1000
0000
0000
0010
0000
,
0000
0100
0000
0000
0010
0000
0110
0000
,
1001
0000
0002
0000
0000
0000
0000
0000
0000
0000
0000
0000
0000
0000
0000
0003
,
0000
0000
2000
0000
0000
0000
0000
0000
0000
0000
0000
0000
0000
0000
0000
3000
,
0000
0020
0000
0000
0000
0000
0000
0030
,
0200
0000
0000
0000
,
0320
0000
0000
0000
,
0130
0000
0000
0000
;

//--------------- dance-single - Pandemonium X ----------------
#NOTES:
     dance-single:
     Pandemonium X:
     Easy:
     9:
     0,0,0,0,0:
0000
0000
0000
0000
,
0000
0000
0000
0000
,
0000
0000
0000
0000
,
0001
0000
1000
0000
,
0010
0000
0000
0000
0100
0100
0100
0100
,
0001
0000
0000
1000
0000
0000
0100
0000
,
0000
1000
0000
0000
0010
0000
0100
0000
,
0010
0000
0000
1000
0000
0000
0100
0000
,
0000
1000
0000
0000
0001
0000
1000
0000
,
0100
0000
0000
0010
0000
0000
0100
0000
,
0000
1000
0000
0000
0001
0000
0100
0000
,
0001
0000
0000
0010
0000
0000
0001
0000
,
0000
1000
0100
0000
1000
0000
0001
0000
,
1002
0000
0000
1000
0000
0000
0100
0000
,
0000
0013
0000
0000
0001
0000
0010
0000
,
0100
0000
0000
0010
0000
0000
0001
0000
,
0000
1000
0010
1000
,
0001
0000
0000
1000
0000
0000
0001
0000
,
0000
0010
0000
0000
0001
0000
1000
0000
,
0100
0100
0110
0010
,
0100
0110
0010
0001
,
2000
0000
0000
0000
,
3010
0000
0100
0000
,
0002
0000
0000
0000
,
0013
0000
0001
0000
,
0200
0000
0000
0000
,
0310
0000
1000
0000
,
0002
0000
0000
0000
,
1003
0001
0200
0000
,
0320
0000
0000
0000
,
1030
0001
0200
0000
,
0302
0000
0000
0000
,
1003
0100
0010
0001
,
1000
1001
0001
1001
,
0001
0100
0010
1000
,
0001
1001
1000
1001
,
0001
1000
0010
1000
,
0001
1001
0001
1001
,
0001
1000
0010
1000
,
0001
1001
0001
1001
,
1000
0100
0010
0001
,
0010
0100
1000
0001
,
0100
0010
0100
0010
0100
0000
1001
0000
,
0001
0100
0010
1000
,
0100
0010
0000
0100
0000
0000
0010
0000
,
0000
0001
0000
1000
0000
0010
0000
1000
,
0000
0001
0000
0010
0000
0100
0010
0100
,
0000
0010
0000
0001
0000
0100
0000
0010
,
0000
1000
0000
0001
0000
1000
0100
1000
,
0000
0100
0000
1000
0000
0010
0000
0100
,
0000
0001
0000
0010
0000
0100
0000
0010
,
0000
0001
0000
0001
0000
0001
0000
0001
,
0000
0001
0001
0000
1000
0000
0001
0100
,
0000
0020
0000
0000
0000
0000
0000
0000
,
0000
0000
0000
0000
,
1030
0100
1000
0001
,
0100
0001
1000
0100
,
1000
0001
0100
0001
,
0010
0100
1000
0001
,
1000
0000
0010
0000
0100
0000
0000
0001
,
0000
0001
0000
0000
0000
0000
0000
0000
,
0010
0001
1000
0100
,
1000
0001
0100
0010
,
2000
0000
0000
3002
0000
0000
0013
0000
,
0200
0000
0000
0320
0000
0000
0031
0000
,
1000
1000
0001
0001
,
0100
0100
0010
0010
,
0200
0000
0000
0302
0000
0000
0013
0000
,
0200
0000
0000
2300
0000
0000
3100
0000
,
2000
0000
0000
3002
0000
0000
0103
0000
,
0010
0000
1000
0000
0001
1000
0001
1000
,
0001
0100
1000
0100
,
0001
0010
1000
0010
,
0100
0100
0100
0100
,
0010
0010
0010
0010
,
0001
0001
0001
0001
,
1000
1000
0002
0023
,
0130
0000
0000
0100
0000
0000
0000
0000
,
0010
0000
0000
0010
0000
0000
0000
0000
,
0001
0000
0000
0001
0000
0000
0000
0000
,
1000
0000
0000
1000
0000
0000
0000
0000
,
1001
0000
0000
0110
0000
0000
1001
0000
,
0000
0110
0000
0000
1001
0000
0110
0000
,
1001
0000
0002
0000
0000
0000
0000
0000
0000
0000
0000
0000
0000
0000
0000
0003
,
0000
0000
2000
0000
0000
0000
0000
0000
0000
0000
0000
0000
0000
0000
0000
3000
,
0000
0200
0000
0000
0000
0000
0000
0000
,
0320
0032
2003
3020
,
0230
0302
2003
3200
,
0310
0000
0000
0000
;

//--------------- dance-single - Pandemonium X ----------------
#NOTES:
     dance-single:
     Pandemonium X:
     Medium:
     14:
     0,0,0,0,0:
0000
0000
0000
0000
,
0000
0000
0000
0000
,
0000
0000
0000
0000
,
0000
0001
0100
0001
1000
0100
1000
0100
1000
0010
0100
0010
1000
0010
0100
0001
,
0000
1000
0100
0010
0100
0000
0010
0001
0100
0000
0010
0100
0001
1000
0100
0010
,
2100
0000
0000
3010
0000
0000
0201
0000
,
0000
0310
0000
0000
1001
0000
0110
0000
,
0201
0000
0000
0310
0000
0000
2100
0000
,
0000
3001
0000
0000
0101
0000
1100
0000
,
2010
0000
0000
3001
0000
0000
0021
0000
,
0000
0130
0000
0000
0011
0000
1100
0000
,
1002
0000
0000
0103
0000
0000
1010
0000
,
0000
0001
0010
1000
0010
0100
0010
0001
,
2001
0000
0000
0010
0000
0000
0001
0000
,
0000
3100
0000
0000
1100
0000
1010
0000
,
0102
0000
0000
0010
0000
0000
1003
0000
,
0000
0001
0100
0001
1000
0100
0010
0001
,
0200
0000
0000
0010
0000
0000
0001
0000
,
0000
0010
0000
0000
0301
0000
1000
0000
,
0100
1000
0010
0100
0001
0000
0010
0100
,
0010
0001
1000
0000
0110
0000
1001
0000
,
0001
0100
0010
0000
1000
0001
0010
0000
,
0100
0010
0001
0000
0100
0010
1000
0000
,
0001
1000
0100
0000
1000
0010
0100
0000
,
0001
0010
0100
0000
0010
0001
1000
0000
,
0100
1000
0010
0000
0100
0001
1000
0000
,
0001
0010
0100
0000
0010
0001
1000
0000
,
0010
0100
0001
0000
1000
0100
0010
0000
,
0100
1000
0010
0100
0002
0000
0000
0000
,
2003
0000
0000
0000
,
3001
0100
0010
1000
0200
0000
0000
0000
,
0320
0000
0000
0000
,
0130
0010
0001
1000
,
0001
1000
0001
0000
1001
0000
0000
0000
1000
0001
1000
0000
1001
0000
0000
0000
,
0000
0001
0100
0010
1000
0100
0010
0100
,
0010
0100
0010
0000
0110
0000
0000
0000
0100
0010
0100
0000
0110
0000
0000
0000
,
0001
1000
0001
1000
0010
1000
0001
1000
,
0100
1000
0100
0000
1100
0000
0000
0000
0001
0010
0001
0000
0011
0000
0000
0000
,
0001
0010
0001
1000
0100
1000
0010
0100
,
0001
0010
0001
0000
0011
0000
0000
0000
0100
1000
0100
0000
1100
0000
0000
0000
,
1000
0100
0001
0100
1000
0010
0100
0000
,
0101
0011
0110
1100
,
0001
0001
0001
0001
0001
0000
1001
0000
,
0000
1000
0100
0010
0001
0000
0010
0000
,
0010
0001
0000
0001
0000
0000
0010
0000
,
0000
0100
0000
0010
0000
0001
0000
0100
,
0000
0010
0000
1000
0000
0001
0001
0001
,
0000
1000
0000
0001
0000
0010
0000
0100
,
0000
0010
0000
0001
0000
0100
0100
0100
,
0000
0010
0000
1000
0000
0100
0000
1000
,
0000
0010
0000
0100
0000
0001
0000
0010
,
0000
0110
0000
0110
0000
0110
0000
0110
,
0000
0110
0110
0000
0110
0000
1001
1001
,
0020
0000
0000
0000
,
0000
0000
0000
0030
,
1001
0001
1000
0010
1000
0100
0010
0000
,
0100
1000
0001
0100
0001
0010
0100
0000
,
0010
0001
0100
0010
1000
0001
0010
0000
,
0100
1000
0001
0010
0100
0010
0001
0000
,
1000
0001
0100
0001
0010
0100
0000
0010
,
0000
0020
0000
0000
0030
0100
0010
0001
,
1000
0001
0100
0000
0001
1000
0010
0000
,
1000
0100
0010
0001
0010
0100
0010
0001
,
1000
0001
0100
0020
0000
1030
0010
1000
,
0001
1000
0010
0200
0000
0310
1000
0001
,
0020
0000
0130
1000
0002
0000
1003
0100
,
0020
0000
0130
1000
0020
0000
0230
0000
,
0301
0010
0100
2000
0000
3100
0010
0100
,
1000
0100
0010
0002
0000
0013
0100
0010
,
0001
0010
0100
0020
0000
0130
0010
0001
,
0100
0100
0001
0010
0110
0000
1100
0000
,
1001
0011
1100
0110
,
1001
0101
1100
0011
,
1000
0010
1000
0010
1000
0010
1000
0010
,
0100
0010
0100
0010
0100
0010
0100
0010
,
0100
0001
0100
0001
0100
0001
0100
0001
,
0010
0001
0010
0001
0010
0100
1000
0001
,
1001
0000
0000
0000
0000
0001
0100
0010
,
1010
0000
0000
0000
0000
1000
0100
0010
,
0011
0000
0000
0000
0000
0001
0100
0010
,
1010
0000
0000
0000
0000
1000
0100
0010
,
0011
0000
0000
1100
0000
0000
0101
0000
,
0000
0000
1010
0000
0000
0000
0000
0000
1001
0000
0000
0000
0110
0000
0000
1000
,
0001
0000
1000
0100
0010
0100
1000
0010
0100
0001
0010
0100
0010
0001
1000
0001
,
0000
0000
1000
0100
0010
0100
1000
0010
0100
0001
0010
0100
0010
0001
1000
0001
,
0000
0000
0001
0010
0100
0010
0001
0100
0010
1000
0100
0010
0100
1000
0001
1000
,
0001
0100
0010
1000
0001
0100
0010
1000
0001
0100
0010
1000
0001
0100
0010
1000
,
0001
0100
0010
1000
0001
0100
0010
1000
0001
0100
0010
1000
0001
0100
0010
1000
,
0010
0000
0000
0000
;

//--------------- dance-single - Pandemonium X ----------------
#NOTES:
     dance-single:
     Pandemonium X:
     Hard:
     16:
     0,0,0,0,0:
0000
0000
0000
0000
,
0000
0000
0000
0000
,
0000
0000
0000
0000
,
0000
0001
0100
0001
0010
0100
0010
0100
1000
0010
0100
0001
0010
1000
0010
0001
,
0000
1000
0001
1000
0100
0000
0100
0010
0001
0000
0010
0001
0100
1000
0100
0001
,
1100
0000
1000
0010
0000
0010
0100
0000
,
0100
0001
0000
0001
0011
0000
1100
0000
,
1001
0000
0001
0010
0000
0010
0100
0000
,
0100
1000
0000
1000
1010
0000
1100
0000
,
1001
0000
0001
0010
0000
0010
0100
0000
,
0100
1000
0000
1000
1100
0000
0011
0000
,
1001
0000
1000
0010
0000
0010
0100
0000
,
0000
0100
1000
0100
0001
1000
0100
0010
,
0002
0000
0000
0010
0000
0000
0100
0000
,
0000
1003
0000
0000
1001
0000
0101
0000
,
0001
0000
0100
0010
0000
1000
0001
0000
,
0000
0010
0001
0010
1000
0010
0100
0010
,
0001
0000
0100
0001
0000
0010
1000
0000
,
0010
0001
0000
0100
1000
0000
0100
0000
,
0010
1000
0010
0100
0010
0000
0100
0001
,
0010
0100
1000
0000
0110
0000
1001
0000
,
0001
0100
0001
0100
0010
0100
0010
0100
,
0010
1000
0010
1000
0001
1000
0001
1000
,
0001
0010
0001
0010
0100
0010
0100
0010
,
0100
1000
0100
1000
0010
1000
0010
1000
,
0010
0100
0010
0100
0001
0100
0001
0100
,
0001
0010
0001
0010
0100
0010
0100
0010
,
0100
1000
0100
1000
0010
1000
0010
1000
,
0010
0001
0010
1000
0002
0000
0010
0000
,
1003
0100
0010
0001
1000
0100
0010
0001
,
0010
1000
0010
0001
0100
0010
1000
0001
,
1000
0100
0010
0001
1000
0100
0010
0001
,
1000
0100
0010
0100
1000
0001
0010
0100
,
1000
0100
0010
0001
1000
0001
1000
0001
1000
0100
0010
0001
1000
0001
1000
0000
,
0000
0001
0100
1000
0100
0010
1000
0001
,
1000
0100
0010
0001
1000
0001
1000
0001
1000
0100
0010
0001
1000
0001
1000
0000
,
0100
0010
0001
0010
0100
0000
0010
0000
0001
0000
1000
0000
0010
0000
0100
0000
,
0001
0010
0100
1000
0001
1000
0001
1000
0001
0010
0100
1000
0001
1000
0001
0000
,
1000
1000
0010
0100
0001
0001
0010
0001
,
0001
0010
0100
1000
0001
1000
0001
1000
0001
0010
0100
1000
0001
1000
0001
1000
,
0100
0010
0001
0100
1000
0100
0001
0000
,
0101
1010
1100
0011
,
1001
1001
1001
1001
1001
0000
1001
0000
,
0001
0100
0010
1000
0100
0010
0001
1000
,
0010
0010
1000
0001
0001
0010
0100
1000
,
0001
0100
0001
0010
0001
0100
0010
1000
,
0001
1000
0001
0010
0100
0010
0010
0010
,
0001
0010
0100
1000
0010
1000
0001
0100
,
0001
0010
0100
1000
0001
0100
0100
0100
,
0010
0100
0001
0010
0100
0000
1100
0000
,
0010
0001
0101
0000
1001
0000
1000
0001
,
1000
1000
0001
0001
0100
0100
0010
0010
,
1000
1010
0101
0000
1001
0000
0011
0011
,
0000
0000
1000
0100
0010
0001
0010
0100
0010
0001
1000
0100
0010
0001
0010
0100
,
0010
0000
0001
0000
0010
0000
0100
0000
1000
0000
0100
0000
0010
0000
0100
0000
1000
0000
0100
0000
0010
0000
0001
0000
0010
0000
0001
1000
0001
1000
0001
1000
,
0001
0100
0010
1000
0001
0010
0100
0010
,
0001
0100
0010
1000
0100
0010
0001
0010
,
0001
0100
0010
1000
0001
0010
0001
0100
,
0010
1000
0100
0010
0100
1000
0001
0100
,
0010
1000
0100
0010
0100
1000
0000
0011
,
0000
2001
0000
0000
0000
3010
0001
0010
,
0100
0001
0010
0100
1000
0100
0010
0100
,
1000
0001
0100
0001
1000
0100
0010
0001
,
1000
1000
0001
2000
0000
3001
1000
0010
,
1000
1000
0001
2000
0000
3001
1000
0010
,
1000
0100
0010
0001
0010
0100
0010
0001
,
1000
0000
0001
0010
0100
0010
0001
1000
,
0001
0001
1000
0002
0000
1003
0010
1000
,
0001
0001
1000
0002
0000
1003
0100
1000
,
0001
0001
0100
0020
0000
0130
0001
1000
,
0100
0000
0100
0000
0010
0000
0001
0000
1000
0100
1000
0100
1000
0100
1000
0100
,
1000
0000
0001
0010
0000
0010
0100
0000
0100
1000
0000
1000
,
0010
0000
0010
0100
0000
0100
0001
0000
0001
1000
0000
0000
,
1000
0100
1000
0100
0010
0001
0010
0001
,
0100
0001
0100
0001
1000
0010
1000
0010
,
0100
0010
0100
0010
0100
0010
0100
0010
,
1000
0000
0001
0000
1000
0000
0001
0000
1000
0100
0010
0001
1000
0100
0010
0100
,
1000
0000
0000
0000
0000
0000
1010
0000
0000
0000
0010
0100
0001
0010
0100
1000
,
0010
0000
0000
0000
0000
0000
0011
0000
0000
0000
1000
0010
1000
0001
0010
0001
,
1000
0000
0000
0000
0000
0000
0101
0000
0000
0000
0001
0010
0100
1000
0010
1000
,
0001
0000
0000
0000
0000
0000
1010
0000
0000
0000
1000
0010
0100
0001
0010
0100
,
1000
0000
0000
1100
0000
0000
0011
0000
,
0000
0000
0000
0101
0000
0000
0000
0000
0000
0000
0000
0000
1010
0000
0000
0000
0000
0000
1001
0000
0000
0000
0001
0000
,
1001
0000
1000
0100
1000
0010
0100
0001
0010
0001
0100
0010
1000
0100
0010
0100
,
0000
0000
1000
0100
1000
0010
0100
0001
1000
0100
1000
0010
0100
0001
1000
0001
,
0000
0000
1000
0100
0010
0100
1000
0010
0100
0001
1000
0100
1000
0010
1000
0001
,
1000
0100
0010
0001
0010
0100
0010
0001
1000
0100
0010
0001
1000
0100
0010
0001
,
0001
0010
0100
1000
0001
0010
0100
0010
0001
0010
0100
1000
0100
0010
0001
1000
,
0010
0000
0000
0000
;
